osu file format v13

[General]
AudioFilename: [SDVX II] INFINITY OVERDRIVE [EXH].mp3
AudioLeadIn: 0
PreviewTime: 42167
Countdown: 0
SampleSet: Soft
StackLeniency: 0.7
Mode: 3
LetterboxInBreaks: 0
SpecialStyle: 0
WidescreenStoryboard: 0

[Editor]
DistanceSpacing: 1
BeatDivisor: 4
GridSize: 8
TimelineZoom: 1.9

[Metadata]
Title:INFINITY OVERDRIVE
TitleUnicode:INFINITY OVERDRIVE
Artist:DecisionS
ArtistUnicode:DecisionS
Creator:mijkolsmith
Version:BASIC
Source:SOUND VOLTEX II -infinite infection-
Tags:kanone nora2r sdvx booth
BeatmapID:507189
BeatmapSetID:216026

[Difficulty]
HPDrainRate:7
CircleSize:4
OverallDifficulty:7
ApproachRate:5
SliderMultiplier:1.4
SliderTickRate:1

[Events]
//Background and Video events
0,0,"BVjLHxpCQAA6km_.png",0,0
//Break Periods
//Storyboard Layer 0 (Background)
//Storyboard Layer 1 (Fail)
//Storyboard Layer 2 (Pass)
//Storyboard Layer 3 (Foreground)
//Storyboard Sound Samples

[TimingPoints]
648,324.324324324324,4,2,1,70,1,0
42161,-100,4,2,1,70,0,1
62918,-100,4,2,1,70,0,0
94053,-100,4,2,1,70,0,1
113512,-100,4,2,1,70,0,0

[HitObjects]
36,192,648,5,0,0:0:0:0:
475,192,648,1,4,0:0:0:0:
192,192,810,1,0,0:0:0:0:
256,192,1134,1,0,0:0:0:0:
402,192,1296,1,0,0:0:0:0:
64,192,1458,1,0,0:0:0:0:
182,192,1620,1,0,0:0:0:0:
329,192,1783,1,0,0:0:0:0:
329,192,2107,1,0,0:0:0:0:
182,192,2269,1,0,0:0:0:0:
475,192,2593,1,0,0:0:0:0:
402,192,2837,1,0,0:0:0:0:
192,192,3242,1,0,0:0:0:0:
320,192,3404,1,0,0:0:0:0:
192,192,3729,1,0,0:0:0:0:
109,192,3891,1,0,0:0:0:0:
402,192,4215,1,0,0:0:0:0:
36,192,4539,1,0,0:0:0:0:
192,192,4864,128,0,5026:0:0:0:0:
320,192,5026,128,0,5188:0:0:0:0:
402,192,5350,1,0,0:0:0:0:
109,192,5675,1,0,0:0:0:0:
402,192,5837,1,0,0:0:0:0:
320,192,5999,1,0,0:0:0:0:
320,192,6485,1,0,0:0:0:0:
192,192,6647,1,0,0:0:0:0:
109,192,6810,1,0,0:0:0:0:
256,192,6972,1,0,0:0:0:0:
475,192,7296,1,0,0:0:0:0:
329,192,7458,1,0,0:0:0:0:
36,192,7783,1,0,0:0:0:0:
475,192,8026,1,0,0:0:0:0:
182,192,8269,1,0,0:0:0:0:
475,192,8431,1,0,0:0:0:0:
320,192,8593,1,0,0:0:0:0:
36,192,8918,1,0,0:0:0:0:
192,192,9080,1,0,0:0:0:0:
329,192,9404,1,0,0:0:0:0:
182,192,9566,1,0,0:0:0:0:
448,192,9729,128,0,10215:0:0:0:0:
64,192,10215,128,0,10702:0:0:0:0:
256,192,10702,1,0,0:0:0:0:
475,192,11026,1,6,0:0:0:0:
192,192,11026,1,0,0:0:0:0:
320,192,11350,1,0,0:0:0:0:
109,192,11675,1,2,0:0:0:0:
402,192,11999,1,2,0:0:0:0:
36,192,12323,1,0,0:0:0:0:
192,192,12647,1,0,0:0:0:0:
475,192,12972,1,2,0:0:0:0:
329,192,13296,1,2,0:0:0:0:
448,192,13620,1,0,0:0:0:0:
64,192,13620,1,0,0:0:0:0:
256,192,13945,1,2,0:0:0:0:
329,192,14269,1,2,0:0:0:0:
182,192,14593,1,2,0:0:0:0:
448,192,14918,1,0,0:0:0:0:
64,192,15242,1,0,0:0:0:0:
329,192,15566,1,2,0:0:0:0:
402,192,15891,128,0,16215:0:0:0:0:
109,192,16539,1,2,0:0:0:0:
192,192,16702,1,0,0:0:0:0:
475,192,16864,1,2,0:0:0:0:
182,192,17188,1,2,0:0:0:0:
36,192,17350,1,2,0:0:0:0:
256,192,17512,1,2,0:0:0:0:
192,192,17512,1,0,0:0:0:0:
402,192,17837,1,0,0:0:0:0:
475,192,18161,128,2,18810:0:0:0:0:
36,192,18810,128,2,20107:0:0:0:0:
475,192,19458,128,2,20107:0:0:0:0:
256,192,20107,1,0,0:0:0:0:
256,192,21080,1,0,0:0:0:0:
36,192,21404,1,0,0:0:0:0:
402,192,21404,1,2,0:0:0:0:
182,192,21729,1,2,0:0:0:0:
329,192,22053,1,2,0:0:0:0:
109,192,22377,1,0,0:0:0:0:
256,192,22702,1,2,0:0:0:0:
475,192,22702,1,0,0:0:0:0:
109,192,23026,1,2,0:0:0:0:
329,192,23188,1,0,0:0:0:0:
182,192,23350,1,0,0:0:0:0:
320,192,23512,1,0,0:0:0:0:
402,192,23675,128,0,23999:0:0:0:0:
109,192,23999,1,2,0:0:0:0:
329,192,24323,1,0,0:0:0:0:
182,192,24647,1,2,0:0:0:0:
256,192,24972,128,0,25296:0:0:0:0:
475,192,25296,1,2,0:0:0:0:
36,192,25620,1,2,0:0:0:0:
402,192,25783,1,0,0:0:0:0:
182,192,25945,128,0,26593:0:0:0:0:
475,192,26593,1,2,0:0:0:0:
329,192,26918,1,2,0:0:0:0:
109,192,27242,1,2,0:0:0:0:
182,192,27566,128,0,27891:0:0:0:0:
329,192,27891,1,2,0:0:0:0:
402,192,28215,1,2,0:0:0:0:
256,192,28377,1,0,0:0:0:0:
109,192,28539,128,0,28864:0:0:0:0:
402,192,28864,128,0,29188:0:0:0:0:
256,192,29188,1,2,0:0:0:0:
320,192,29512,128,0,29837:0:0:0:0:
192,192,29837,1,2,0:0:0:0:
36,192,30161,128,2,30485:0:0:0:0:
402,192,30485,1,2,0:0:0:0:
182,192,30810,1,8,0:0:0:0:
329,192,30972,1,8,0:0:0:0:
109,192,31134,128,8,31783:0:0:0:0:
329,192,31783,1,2,0:0:0:0:
182,192,32107,1,2,0:0:0:0:
402,192,32431,1,2,0:0:0:0:
256,192,32756,128,0,33080:0:0:0:0:
475,192,33080,1,2,0:0:0:0:
36,192,33404,1,2,0:0:0:0:
182,192,33566,1,0,0:0:0:0:
329,192,33729,128,0,34377:0:0:0:0:
182,192,34377,1,2,0:0:0:0:
109,192,34702,1,2,0:0:0:0:
329,192,35026,1,2,0:0:0:0:
475,192,35350,128,0,35675:0:0:0:0:
256,192,35675,1,2,0:0:0:0:
109,192,35999,1,2,0:0:0:0:
329,192,36161,1,0,0:0:0:0:
182,192,36323,128,0,36972:0:0:0:0:
329,192,36647,128,0,36972:0:0:0:0:
109,192,36972,1,2,0:0:0:0:
475,192,37296,1,2,0:0:0:0:
256,192,37620,1,2,0:0:0:0:
109,192,37945,128,0,38269:0:0:0:0:
402,192,38269,1,2,0:0:0:0:
256,192,38593,1,2,0:0:0:0:
109,192,38756,1,0,0:0:0:0:
402,192,38918,128,0,39566:0:0:0:0:
109,192,39566,1,2,0:0:0:0:
475,192,39891,128,0,40215:0:0:0:0:
329,192,40215,1,2,0:0:0:0:
182,192,40377,1,0,0:0:0:0:
36,192,40539,128,0,40864:0:0:0:0:
256,192,40864,1,2,0:0:0:0:
329,192,41350,1,0,0:0:0:0:
109,192,41512,1,0,0:0:0:0:
256,192,41756,1,0,0:0:0:0:
402,192,41999,1,0,0:0:0:0:
36,192,42161,1,0,0:0:0:0:
320,192,42323,1,0,0:0:0:0:
320,192,42647,1,0,0:0:0:0:
109,192,42810,1,2,0:0:0:0:
256,192,42972,1,0,0:0:0:0:
182,192,43134,1,2,0:0:0:0:
329,192,43296,1,0,0:0:0:0:
64,192,43620,1,0,0:0:0:0:
402,192,43783,1,2,0:0:0:0:
182,192,44107,1,2,0:0:0:0:
448,192,44431,128,0,44756:0:0:0:0:
256,192,44756,1,2,0:0:0:0:
192,192,44918,1,0,0:0:0:0:
320,192,45242,1,0,0:0:0:0:
109,192,45404,1,2,0:0:0:0:
402,192,45729,1,0,0:0:0:0:
36,192,46053,1,0,0:0:0:0:
402,192,46377,1,2,0:0:0:0:
256,192,46539,1,0,0:0:0:0:
109,192,46702,128,0,47026:0:0:0:0:
402,192,47026,128,0,47350:0:0:0:0:
329,192,47350,1,2,0:0:0:0:
64,192,47512,1,0,0:0:0:0:
36,192,47999,1,2,0:0:0:0:
182,192,48161,1,0,0:0:0:0:
329,192,48323,1,2,0:0:0:0:
475,192,48485,1,0,0:0:0:0:
109,192,48810,1,0,0:0:0:0:
402,192,48972,1,2,0:0:0:0:
182,192,49296,1,2,0:0:0:0:
329,192,49620,128,0,49945:0:0:0:0:
402,192,49945,1,2,0:0:0:0:
192,192,50107,1,0,0:0:0:0:
192,192,50431,1,0,0:0:0:0:
109,192,50593,1,2,0:0:0:0:
329,192,50918,1,2,0:0:0:0:
402,192,51080,1,0,0:0:0:0:
182,192,51242,128,2,51891:0:0:0:0:
329,192,51891,1,0,0:0:0:0:
182,192,52134,1,0,0:0:0:0:
329,192,52377,1,0,0:0:0:0:
36,192,52539,1,4,0:0:0:0:
320,192,52702,1,0,0:0:0:0:
109,192,53188,1,2,0:0:0:0:
256,192,53350,1,0,0:0:0:0:
475,192,53512,1,2,0:0:0:0:
329,192,53675,1,0,0:0:0:0:
36,192,53999,1,0,0:0:0:0:
256,192,54161,1,2,0:0:0:0:
475,192,54485,1,2,0:0:0:0:
256,192,54810,128,0,55134:0:0:0:0:
402,192,55134,1,2,0:0:0:0:
192,192,55296,1,0,0:0:0:0:
192,192,55620,1,0,0:0:0:0:
329,192,55783,1,2,0:0:0:0:
448,192,56107,1,0,0:0:0:0:
64,192,56431,1,0,0:0:0:0:
109,192,56756,1,2,0:0:0:0:
402,192,56918,1,0,0:0:0:0:
192,192,57242,1,0,0:0:0:0:
448,192,57566,1,0,0:0:0:0:
36,192,57729,1,0,0:0:0:0:
320,192,57891,1,0,0:0:0:0:
192,192,58215,1,0,0:0:0:0:
36,192,58377,1,2,0:0:0:0:
182,192,58539,1,0,0:0:0:0:
402,192,58702,1,2,0:0:0:0:
256,192,58864,1,0,0:0:0:0:
109,192,59188,1,0,0:0:0:0:
320,192,59350,1,0,0:0:0:0:
192,192,59675,1,0,0:0:0:0:
448,192,59999,1,0,0:0:0:0:
320,192,60161,1,0,0:0:0:0:
192,192,60323,1,0,0:0:0:0:
64,192,60485,1,0,0:0:0:0:
320,192,60810,1,0,0:0:0:0:
402,192,60972,1,2,0:0:0:0:
109,192,61296,1,2,0:0:0:0:
329,192,61458,1,0,0:0:0:0:
64,192,61783,1,0,0:0:0:0:
109,192,62107,1,0,0:0:0:0:
402,192,62269,1,0,0:0:0:0:
256,192,62512,1,0,0:0:0:0:
109,192,62756,1,0,0:0:0:0:
192,192,62918,1,0,0:0:0:0:
402,192,63080,1,2,0:0:0:0:
192,192,63242,1,0,0:0:0:0:
36,192,63404,1,0,0:0:0:0:
256,192,63566,128,0,64053:0:0:0:0:
36,192,64215,1,0,0:0:0:0:
109,192,64539,1,0,0:0:0:0:
475,192,64864,128,0,65188:0:0:0:0:
36,192,65188,128,0,65512:0:0:0:0:
475,192,65512,1,2,0:0:0:0:
182,192,65837,1,2,0:0:0:0:
109,192,66161,1,2,0:0:0:0:
36,192,66485,1,2,0:0:0:0:
402,192,66810,1,0,0:0:0:0:
329,192,67134,1,2,0:0:0:0:
256,192,67458,128,0,68107:0:0:0:0:
36,192,68107,1,0,0:0:0:0:
402,192,68431,1,2,0:0:0:0:
192,192,68756,1,0,0:0:0:0:
109,192,69080,1,0,0:0:0:0:
475,192,69404,128,0,69729:0:0:0:0:
329,192,69729,1,2,0:0:0:0:
36,192,70053,128,0,70377:0:0:0:0:
182,192,70377,1,2,0:0:0:0:
402,192,70702,1,2,0:0:0:0:
182,192,71026,1,0,0:0:0:0:
109,192,71350,1,0,0:0:0:0:
192,192,71675,1,0,0:0:0:0:
36,192,71999,1,0,0:0:0:0:
182,192,72161,1,8,0:0:0:0:
329,192,72323,1,8,0:0:0:0:
182,192,72485,1,8,0:0:0:0:
329,192,72647,128,8,72972:0:0:0:0:
475,192,72972,128,0,73296:0:0:0:0:
182,192,73296,1,2,0:0:0:0:
109,192,73458,1,2,0:0:0:0:
192,192,73620,1,0,0:0:0:0:
402,192,73783,128,0,73945:0:0:0:0:
109,192,73945,1,0,0:0:0:0:
256,192,74107,128,0,74593:0:0:0:0:
182,192,74593,1,2,0:0:0:0:
36,192,74593,1,0,0:0:0:0:
329,192,74918,1,0,0:0:0:0:
475,192,75242,128,0,75566:0:0:0:0:
329,192,75566,128,0,75891:0:0:0:0:
36,192,75891,1,2,0:0:0:0:
182,192,76053,1,0,0:0:0:0:
329,192,76215,1,2,0:0:0:0:
475,192,76377,1,0,0:0:0:0:
256,192,76539,1,2,0:0:0:0:
109,192,76539,1,0,0:0:0:0:
182,192,76864,1,0,0:0:0:0:
109,192,77188,1,0,0:0:0:0:
182,192,77512,1,0,0:0:0:0:
329,192,77512,1,2,0:0:0:0:
402,192,77837,128,0,78485:0:0:0:0:
256,192,78485,1,2,0:0:0:0:
109,192,78485,1,0,0:0:0:0:
448,192,78810,1,0,0:0:0:0:
109,192,79134,1,2,0:0:0:0:
256,192,79134,1,0,0:0:0:0:
192,192,79458,1,0,0:0:0:0:
402,192,79783,128,0,80107:0:0:0:0:
182,192,80107,1,2,0:0:0:0:
109,192,80431,128,0,80756:0:0:0:0:
329,192,80756,1,2,0:0:0:0:
182,192,81080,1,2,0:0:0:0:
402,192,81080,1,0,0:0:0:0:
320,192,81404,1,0,0:0:0:0:
36,192,81729,1,0,0:0:0:0:
109,192,82053,1,0,0:0:0:0:
402,192,82053,1,2,0:0:0:0:
475,192,82377,1,2,0:0:0:0:
36,192,82377,1,0,0:0:0:0:
182,192,82702,1,8,0:0:0:0:
256,192,82864,1,8,0:0:0:0:
448,192,83026,1,8,0:0:0:0:
192,192,83188,1,8,0:0:0:0:
256,192,83350,128,0,83675:0:0:0:0:
475,192,83675,1,6,0:0:0:0:
36,192,83675,1,0,0:0:0:0:
192,192,83837,1,0,0:0:0:0:
448,192,84161,1,0,0:0:0:0:
192,192,84323,1,0,0:0:0:0:
320,192,84485,1,0,0:0:0:0:
64,192,84647,1,0,0:0:0:0:
256,192,84810,1,0,0:0:0:0:
448,192,85134,1,0,0:0:0:0:
329,192,85296,1,0,0:0:0:0:
182,192,85620,1,0,0:0:0:0:
36,192,85945,1,2,0:0:0:0:
256,192,86269,1,2,0:0:0:0:
448,192,86269,128,0,87404:0:0:0:0:
36,192,87404,1,2,0:0:0:0:
329,192,87891,1,2,0:0:0:0:
182,192,88539,1,2,0:0:0:0:
329,192,88864,1,2,0:0:0:0:
109,192,89188,1,0,0:0:0:0:
182,192,89350,1,0,0:0:0:0:
256,192,89512,1,2,0:0:0:0:
109,192,89837,1,2,0:0:0:0:
182,192,89999,1,2,0:0:0:0:
320,192,90161,1,0,0:0:0:0:
402,192,90485,1,0,0:0:0:0:
329,192,90647,1,0,0:0:0:0:
109,192,90810,1,2,0:0:0:0:
192,192,90810,1,0,0:0:0:0:
256,192,91134,128,0,91458:0:0:0:0:
36,192,91458,1,2,0:0:0:0:
192,192,91783,1,0,0:0:0:0:
320,192,92107,1,0,0:0:0:0:
448,192,92431,1,0,0:0:0:0:
329,192,92756,1,0,0:0:0:0:
182,192,92756,1,2,0:0:0:0:
36,192,94053,1,2,0:0:0:0:
192,192,94215,1,0,0:0:0:0:
320,192,94539,1,0,0:0:0:0:
475,192,94702,1,2,0:0:0:0:
329,192,94864,1,0,0:0:0:0:
182,192,95026,1,2,0:0:0:0:
402,192,95188,1,0,0:0:0:0:
109,192,95512,1,0,0:0:0:0:
329,192,95675,1,2,0:0:0:0:
182,192,95999,128,0,96647:0:0:0:0:
329,192,96323,128,0,96647:0:0:0:0:
36,192,96647,1,2,0:0:0:0:
448,192,96810,1,0,0:0:0:0:
320,192,97134,1,0,0:0:0:0:
192,192,97296,1,0,0:0:0:0:
320,192,97620,1,0,0:0:0:0:
64,192,97945,1,0,0:0:0:0:
109,192,98269,1,2,0:0:0:0:
256,192,98431,1,0,0:0:0:0:
402,192,98593,128,0,98918:0:0:0:0:
329,192,98918,128,0,99242:0:0:0:0:
109,192,99242,1,2,0:0:0:0:
192,192,99404,1,0,0:0:0:0:
36,192,99891,1,2,0:0:0:0:
182,192,100053,1,0,0:0:0:0:
329,192,100215,1,2,0:0:0:0:
109,192,100377,1,0,0:0:0:0:
402,192,100702,1,0,0:0:0:0:
182,192,100864,1,2,0:0:0:0:
329,192,101188,128,0,101837:0:0:0:0:
182,192,101512,128,0,101837:0:0:0:0:
475,192,101837,1,2,0:0:0:0:
64,192,101999,1,0,0:0:0:0:
320,192,102323,1,0,0:0:0:0:
402,192,102485,1,2,0:0:0:0:
109,192,102810,1,2,0:0:0:0:
320,192,102972,1,0,0:0:0:0:
475,192,103134,128,0,103783:0:0:0:0:
192,192,103134,1,0,0:0:0:0:
36,192,103783,128,0,104431:0:0:0:0:
182,192,104431,1,0,0:0:0:0:
448,192,104593,1,0,0:0:0:0:
329,192,105080,1,2,0:0:0:0:
182,192,105242,1,0,0:0:0:0:
402,192,105404,1,2,0:0:0:0:
256,192,105566,1,0,0:0:0:0:
109,192,105891,1,0,0:0:0:0:
256,192,106053,1,2,0:0:0:0:
475,192,106377,1,2,0:0:0:0:
320,192,106702,128,0,107026:0:0:0:0:
192,192,107026,1,0,0:0:0:0:
448,192,107188,1,0,0:0:0:0:
192,192,107512,1,0,0:0:0:0:
109,192,107675,1,2,0:0:0:0:
402,192,107999,1,2,0:0:0:0:
256,192,108323,1,2,0:0:0:0:
36,192,108323,1,0,0:0:0:0:
402,192,108647,1,2,0:0:0:0:
256,192,108810,1,0,0:0:0:0:
192,192,108972,128,0,109296:0:0:0:0:
256,192,109458,1,0,0:0:0:0:
402,192,109620,1,2,0:0:0:0:
36,192,109620,1,0,0:0:0:0:
192,192,109783,1,0,0:0:0:0:
402,192,110269,1,2,0:0:0:0:
256,192,110431,1,0,0:0:0:0:
109,192,110593,1,2,0:0:0:0:
329,192,110756,1,0,0:0:0:0:
182,192,111080,1,0,0:0:0:0:
402,192,111242,1,2,0:0:0:0:
256,192,111566,128,0,112215:0:0:0:0:
475,192,112215,128,0,113026:0:0:0:0:
36,192,112215,1,2,0:0:0:0:
256,192,113026,1,0,0:0:0:0:
109,192,113188,1,2,0:0:0:0:
402,192,113512,1,2,0:0:0:0:
320,192,113837,1,0,0:0:0:0:
192,192,113999,1,0,0:0:0:0:
109,192,114161,1,0,0:0:0:0:
256,192,114404,1,0,0:0:0:0:
402,192,114647,1,0,0:0:0:0:
182,192,114810,1,2,0:0:0:0:
36,192,114810,1,4,0:0:0:0:
