osu file format v12

[General]
AudioFilename: [SDVX II] INFINITY OVERDRIVE [EXH].mp3
AudioLeadIn: 0
PreviewTime: 42167
Countdown: 0
SampleSet: Soft
StackLeniency: 0.7
Mode: 3
LetterboxInBreaks: 0
SpecialStyle: 0
WidescreenStoryboard: 1

[Editor]
DistanceSpacing: 1
BeatDivisor: 4
GridSize: 8
TimelineZoom: 1

[Metadata]
Title:INFINITY OVERDRIVE
TitleUnicode:INFINITY OVERDRIVE
Artist:DecisionS
ArtistUnicode:DecisionS
Creator:Remillion Cross
Version:INFINITE
Source:SOUND VOLTEX II -infinite infection-
Tags:kanone nora2r konami arcade booth infinite overdrive ep
BeatmapID:374724
BeatmapSetID:152180

[Difficulty]
HPDrainRate:9
CircleSize:7
OverallDifficulty:8
ApproachRate:5
SliderMultiplier:1.4
SliderTickRate:1

[Events]
//Background and Video events
0,0,"BG.jpg",0,0
//Break Periods
//Storyboard Layer 0 (Background)
//Storyboard Layer 1 (Fail)
//Storyboard Layer 2 (Pass)
//Storyboard Layer 3 (Foreground)
//Storyboard Sound Samples
//Background Colour Transformations
3,100,163,162,255

[TimingPoints]
648,324.324324324324,4,2,1,70,1,0
9729,-125,4,2,1,70,0,0
10702,-66.6666666666667,4,2,1,70,0,0
10783,-250,4,2,1,70,0,0
11026,-100,4,2,1,70,0,0
15891,-400,4,2,1,70,0,0
15911,-76.9230769230769,4,2,1,70,0,0
15972,-400,4,2,1,70,0,0
15992,-76.9230769230769,4,2,1,70,0,0
16053,-400,4,2,1,70,0,0
16073,-76.9230769230769,4,2,1,70,0,0
16134,-400,4,2,1,70,0,0
16154,-76.9230769230769,4,2,1,70,0,0
16215,-100,4,2,1,70,0,0
20107,-111.111111111111,4,2,1,70,0,0
21080,-50,4,2,1,70,0,0
21161,-200,4,2,1,70,0,0
21404,-100,4,2,1,70,0,0
25945,-125,4,2,1,70,0,0
26593,-100,4,2,1,70,0,0
28539,-125,4,2,1,70,0,0
28864,-100,4,2,1,70,0,0
29350,-133.333333333333,4,2,1,70,0,0
29512,-100,4,2,1,70,0,0
29999,-133.333333333333,4,2,1,70,0,0
30161,-100,4,2,1,70,0,0
33729,-125,4,2,1,70,0,0
34377,-100,4,2,1,70,0,0
35350,-50,4,2,1,70,0,0
35431,-200,4,2,1,70,0,0
35675,-100,4,2,1,70,0,0
42161,-100,4,2,1,70,0,1
62918,-100,4,2,1,70,0,0
77837,-117.647058823529,4,2,1,70,0,0
78485,-100,4,2,1,70,0,0
83350,-80,4,2,1,70,0,0
83431,-400,4,2,1,70,0,0
83675,-117.647058823529,4,2,1,70,0,0
84810,-200,4,2,1,70,0,0
84972,-133.333333333333,4,2,1,70,0,0
88864,-100,4,2,1,70,0,0
92756,-200,4,2,1,70,0,0
93729,-100,4,2,1,70,0,0
94053,-100,4,2,1,70,0,1
113512,-100,4,2,1,70,0,0

[HitObjects]
36,192,648,128,0,9566:0:0:0:0:
475,192,648,1,4,0:0:0:0:
182,192,648,1,0,0:0:0:0:
402,192,810,1,0,0:0:0:0:
256,192,972,1,0,0:0:0:0:
329,192,1134,1,0,0:0:0:0:
182,192,1296,1,0,0:0:0:0:
109,192,1458,1,0,0:0:0:0:
256,192,1620,1,0,0:0:0:0:
329,192,1783,1,0,0:0:0:0:
475,192,1945,1,0,0:0:0:0:
109,192,1945,1,0,0:0:0:0:
402,192,2107,1,0,0:0:0:0:
329,192,2269,1,0,0:0:0:0:
109,192,2431,1,0,0:0:0:0:
182,192,2593,1,0,0:0:0:0:
329,192,2756,1,0,0:0:0:0:
475,192,2837,1,0,0:0:0:0:
256,192,2999,1,0,0:0:0:0:
402,192,3080,1,0,0:0:0:0:
109,192,3242,1,0,0:0:0:0:
256,192,3404,1,0,0:0:0:0:
182,192,3566,1,0,0:0:0:0:
329,192,3729,1,0,0:0:0:0:
475,192,3891,1,0,0:0:0:0:
256,192,4053,1,0,0:0:0:0:
402,192,4215,1,0,0:0:0:0:
182,192,4377,1,0,0:0:0:0:
475,192,4539,1,0,0:0:0:0:
256,192,4702,1,0,0:0:0:0:
402,192,4864,1,0,0:0:0:0:
329,192,4904,1,0,0:0:0:0:
256,192,4945,1,0,0:0:0:0:
182,192,4985,1,0,0:0:0:0:
109,192,5026,1,0,0:0:0:0:
475,192,5188,1,0,0:0:0:0:
402,192,5269,1,0,0:0:0:0:
329,192,5350,1,0,0:0:0:0:
109,192,5512,1,0,0:0:0:0:
182,192,5593,1,0,0:0:0:0:
256,192,5675,1,0,0:0:0:0:
475,192,5837,1,0,0:0:0:0:
402,192,5999,1,0,0:0:0:0:
109,192,6161,1,0,0:0:0:0:
182,192,6323,1,0,0:0:0:0:
329,192,6485,1,0,0:0:0:0:
256,192,6647,1,0,0:0:0:0:
475,192,6810,1,0,0:0:0:0:
329,192,6972,1,0,0:0:0:0:
182,192,7134,1,0,0:0:0:0:
475,192,7134,1,0,0:0:0:0:
109,192,7296,1,0,0:0:0:0:
256,192,7458,1,0,0:0:0:0:
402,192,7620,1,0,0:0:0:0:
109,192,7783,1,0,0:0:0:0:
329,192,7945,1,0,0:0:0:0:
182,192,8026,1,0,0:0:0:0:
402,192,8188,1,0,0:0:0:0:
256,192,8269,1,0,0:0:0:0:
109,192,8431,1,0,0:0:0:0:
402,192,8431,1,0,0:0:0:0:
182,192,8593,1,0,0:0:0:0:
256,192,8756,1,0,0:0:0:0:
475,192,8756,1,0,0:0:0:0:
109,192,8918,1,0,0:0:0:0:
329,192,8918,1,0,0:0:0:0:
182,192,9080,1,0,0:0:0:0:
256,192,9242,1,0,0:0:0:0:
475,192,9242,1,0,0:0:0:0:
475,192,9404,1,0,0:0:0:0:
182,192,9404,1,0,0:0:0:0:
402,192,9566,1,0,0:0:0:0:
256,192,9566,1,0,0:0:0:0:
36,192,9729,1,0,0:0:0:0:
182,192,9891,1,0,0:0:0:0:
329,192,10053,1,0,0:0:0:0:
475,192,10215,1,0,0:0:0:0:
109,192,10377,1,0,0:0:0:0:
256,192,10458,1,0,0:0:0:0:
402,192,10539,1,0,0:0:0:0:
182,192,10620,1,0,0:0:0:0:
475,192,10702,128,8,11026:0:0:0:0:
329,192,10702,1,0,0:0:0:0:
36,192,10702,128,8,11026:0:0:0:0:
256,192,11026,1,2,0:0:0:0:
109,192,11026,1,4,0:0:0:0:
329,192,11026,1,0,0:0:0:0:
182,192,11188,1,0,0:0:0:0:
402,192,11188,1,0,0:0:0:0:
329,192,11350,1,0,0:0:0:0:
36,192,11350,1,2,0:0:0:0:
109,192,11350,1,0,0:0:0:0:
182,192,11512,1,0,0:0:0:0:
475,192,11512,1,0,0:0:0:0:
109,192,11675,128,0,11999:0:0:0:0:
36,192,11675,1,0,0:0:0:0:
402,192,11675,1,2,0:0:0:0:
329,192,11675,1,0,0:0:0:0:
182,192,11837,128,0,11999:0:0:0:0:
256,192,11837,1,0,0:0:0:0:
402,192,11999,128,0,12323:0:0:0:0:
475,192,11999,1,0,0:0:0:0:
329,192,11999,1,2,0:0:0:0:
36,192,11999,1,0,0:0:0:0:
329,192,12161,128,0,12323:0:0:0:0:
256,192,12161,1,0,0:0:0:0:
182,192,12323,1,2,0:0:0:0:
109,192,12323,1,0,0:0:0:0:
475,192,12485,1,0,0:0:0:0:
36,192,12485,1,0,0:0:0:0:
402,192,12647,1,0,0:0:0:0:
109,192,12647,1,0,0:0:0:0:
182,192,12647,1,2,0:0:0:0:
256,192,12810,1,0,0:0:0:0:
475,192,12810,1,0,0:0:0:0:
36,192,12972,128,0,13296:0:0:0:0:
329,192,12972,1,2,0:0:0:0:
402,192,12972,1,0,0:0:0:0:
182,192,12972,1,0,0:0:0:0:
109,192,13134,128,0,13296:0:0:0:0:
256,192,13134,1,0,0:0:0:0:
475,192,13296,128,0,13620:0:0:0:0:
329,192,13296,1,0,0:0:0:0:
182,192,13296,1,2,0:0:0:0:
402,192,13458,128,0,13620:0:0:0:0:
36,192,13458,1,0,0:0:0:0:
109,192,13620,1,2,0:0:0:0:
256,192,13620,1,4,0:0:0:0:
182,192,13783,1,0,0:0:0:0:
402,192,13783,1,0,0:0:0:0:
329,192,13945,1,2,0:0:0:0:
36,192,13945,1,0,0:0:0:0:
475,192,13945,1,0,0:0:0:0:
256,192,14107,1,0,0:0:0:0:
182,192,14107,1,0,0:0:0:0:
36,192,14269,128,0,14593:0:0:0:0:
109,192,14269,1,0,0:0:0:0:
329,192,14269,1,2,0:0:0:0:
475,192,14269,1,0,0:0:0:0:
182,192,14431,128,0,14593:0:0:0:0:
402,192,14431,1,0,0:0:0:0:
475,192,14593,128,0,14918:0:0:0:0:
256,192,14593,1,0,0:0:0:0:
109,192,14593,1,2,0:0:0:0:
329,192,14756,128,0,14918:0:0:0:0:
402,192,14756,1,0,0:0:0:0:
182,192,14918,1,0,0:0:0:0:
36,192,14918,1,2,0:0:0:0:
402,192,15080,1,0,0:0:0:0:
109,192,15080,1,0,0:0:0:0:
109,192,15242,1,2,0:0:0:0:
256,192,15242,1,0,0:0:0:0:
475,192,15242,1,0,0:0:0:0:
402,192,15404,1,0,0:0:0:0:
182,192,15404,1,0,0:0:0:0:
36,192,15566,128,0,15891:0:0:0:0:
475,192,15566,128,0,15891:0:0:0:0:
182,192,15566,1,2,0:0:0:0:
329,192,15566,1,0,0:0:0:0:
109,192,15891,1,0,0:0:0:0:
256,192,15972,1,2,0:0:0:0:
182,192,16053,1,2,0:0:0:0:
329,192,16134,1,2,0:0:0:0:
256,192,16215,1,0,0:0:0:0:
36,192,16215,1,6,0:0:0:0:
475,192,16215,128,0,17512:0:0:0:0:
109,192,16377,1,2,0:0:0:0:
329,192,16377,1,0,0:0:0:0:
182,192,16539,1,2,0:0:0:0:
402,192,16539,1,0,0:0:0:0:
36,192,16539,1,0,0:0:0:0:
256,192,16702,1,0,0:0:0:0:
109,192,16702,1,0,0:0:0:0:
182,192,16864,1,2,0:0:0:0:
36,192,16864,1,0,0:0:0:0:
329,192,16864,1,0,0:0:0:0:
109,192,17026,1,2,0:0:0:0:
402,192,17026,1,0,0:0:0:0:
256,192,17026,1,0,0:0:0:0:
182,192,17188,1,2,0:0:0:0:
36,192,17188,1,0,0:0:0:0:
329,192,17188,1,0,0:0:0:0:
109,192,17350,1,2,0:0:0:0:
402,192,17350,1,0,0:0:0:0:
256,192,17350,1,0,0:0:0:0:
36,192,17512,128,0,18810:0:0:0:0:
182,192,17512,1,2,0:0:0:0:
256,192,17512,1,4,0:0:0:0:
109,192,17675,1,0,0:0:0:0:
329,192,17675,1,2,0:0:0:0:
475,192,17837,1,0,0:0:0:0:
256,192,17837,1,0,0:0:0:0:
402,192,17837,1,2,0:0:0:0:
329,192,17999,1,2,0:0:0:0:
182,192,17999,1,0,0:0:0:0:
402,192,18080,1,2,0:0:0:0:
109,192,18161,128,0,18269:0:0:0:0:
475,192,18161,1,2,0:0:0:0:
182,192,18269,128,0,18377:0:0:0:0:
475,192,18323,1,2,0:0:0:0:
256,192,18377,128,0,18485:0:0:0:0:
182,192,18485,128,0,18593:0:0:0:0:
402,192,18485,1,2,0:0:0:0:
475,192,18485,1,0,0:0:0:0:
256,192,18593,128,0,18702:0:0:0:0:
402,192,18647,1,2,0:0:0:0:
329,192,18702,128,0,18810:0:0:0:0:
475,192,18810,1,2,0:0:0:0:
109,192,18810,128,0,20107:0:0:0:0:
182,192,18810,1,0,0:0:0:0:
402,192,18918,1,2,0:0:0:0:
329,192,19026,1,2,0:0:0:0:
256,192,19134,1,2,0:0:0:0:
402,192,19134,1,2,0:0:0:0:
329,192,19242,1,2,0:0:0:0:
256,192,19350,1,2,0:0:0:0:
182,192,19458,1,2,0:0:0:0:
402,192,19458,1,2,0:0:0:0:
36,192,19458,128,0,20107:0:0:0:0:
329,192,19566,1,2,0:0:0:0:
256,192,19675,1,2,0:0:0:0:
402,192,19783,1,2,0:0:0:0:
182,192,19783,1,2,0:0:0:0:
475,192,19783,128,0,20107:0:0:0:0:
329,192,19891,1,2,0:0:0:0:
256,192,19999,1,2,0:0:0:0:
182,192,20107,1,0,0:0:0:70:snare.wav
182,192,20269,1,0,0:0:0:0:
329,192,20431,1,0,0:0:0:0:
182,192,20593,1,0,0:0:0:0:
109,192,20756,1,0,0:0:0:0:
402,192,20756,1,0,0:0:0:0:
36,192,21080,128,0,21404:0:0:0:0:
475,192,21080,128,0,21404:0:0:0:0:
329,192,21404,128,0,21566:0:0:0:0:
109,192,21404,1,2,0:0:0:0:
256,192,21404,1,4,0:0:0:0:
402,192,21566,1,8,0:0:0:0:
182,192,21566,1,0,0:0:0:0:
256,192,21729,128,0,21891:0:0:0:0:
36,192,21729,1,2,0:0:0:0:
475,192,21729,1,0,0:0:0:0:
109,192,21729,1,0,0:0:0:0:
402,192,21891,1,8,0:0:0:0:
182,192,21891,1,0,0:0:0:0:
182,192,22053,128,0,22215:0:0:0:0:
36,192,22053,1,0,0:0:0:0:
329,192,22053,1,0,0:0:0:0:
475,192,22053,1,2,0:0:0:0:
109,192,22215,1,0,0:0:0:0:
256,192,22215,1,8,0:0:0:0:
475,192,22377,1,0,0:0:0:0:
402,192,22458,1,0,0:0:0:0:
329,192,22539,1,0,0:0:0:0:
256,192,22620,1,0,0:0:0:0:
36,192,22702,128,0,22864:0:0:0:0:
182,192,22702,1,0,0:0:0:0:
402,192,22702,1,2,0:0:0:0:
475,192,22702,1,0,0:0:0:0:
329,192,22864,1,0,0:0:0:0:
256,192,22864,1,8,0:0:0:0:
475,192,23026,128,0,23188:0:0:0:0:
109,192,23026,1,2,0:0:0:0:
402,192,23026,1,0,0:0:0:0:
36,192,23026,1,0,0:0:0:0:
329,192,23188,1,0,0:0:0:0:
256,192,23188,1,8,0:0:0:0:
109,192,23350,128,0,23675:0:0:0:0:
256,192,23350,1,2,0:0:0:0:
402,192,23512,128,0,23675:0:0:0:0:
182,192,23512,1,0,0:0:0:0:
36,192,23675,1,0,0:0:0:0:
475,192,23675,128,0,23999:0:0:0:0:
256,192,23675,128,0,23999:0:0:0:0:
109,192,23999,1,2,0:0:0:0:
36,192,23999,128,0,24161:0:0:0:0:
402,192,23999,1,0,0:0:0:0:
256,192,24161,1,0,0:0:0:0:
475,192,24161,1,8,0:0:0:0:
182,192,24323,128,0,24485:0:0:0:0:
329,192,24323,1,2,0:0:0:0:
402,192,24323,1,0,0:0:0:0:
109,192,24323,1,0,0:0:0:0:
475,192,24485,1,8,0:0:0:0:
256,192,24485,1,0,0:0:0:0:
329,192,24647,128,0,24810:0:0:0:0:
109,192,24647,1,0,0:0:0:0:
36,192,24647,1,2,0:0:0:0:
402,192,24647,1,0,0:0:0:0:
182,192,24810,1,0,0:0:0:0:
256,192,24810,1,8,0:0:0:0:
36,192,24972,128,0,25296:0:0:0:0:
182,192,25134,1,0,0:0:0:0:
256,192,25215,1,0,0:0:0:0:
475,192,25296,128,0,25458:0:0:0:0:
109,192,25296,1,0,0:0:0:0:
329,192,25296,1,2,0:0:0:0:
402,192,25458,1,8,0:0:0:0:
256,192,25458,1,0,0:0:0:0:
329,192,25620,1,0,0:0:0:0:
36,192,25620,128,0,25783:0:0:0:0:
109,192,25620,1,0,0:0:0:0:
182,192,25620,1,2,0:0:0:0:
256,192,25783,1,0,0:0:0:0:
402,192,25783,1,8,0:0:0:0:
475,192,25945,128,0,26053:0:0:0:0:
182,192,25945,1,0,0:0:0:0:
36,192,26053,1,0,0:0:0:0:
402,192,26053,128,0,26161:0:0:0:0:
109,192,26161,1,0,0:0:0:0:
329,192,26161,128,0,26269:0:0:0:0:
36,192,26269,128,0,26377:0:0:0:0:
182,192,26269,1,0,0:0:0:0:
256,192,26377,1,0,0:0:0:0:
109,192,26377,128,0,26485:0:0:0:0:
182,192,26485,128,0,26593:0:0:0:0:
329,192,26485,1,0,0:0:0:0:
402,192,26593,128,0,26756:0:0:0:0:
36,192,26593,1,0,0:0:0:0:
475,192,26593,1,0,0:0:0:0:
109,192,26593,1,2,0:0:0:0:
329,192,26756,1,8,0:0:0:0:
109,192,26756,1,0,0:0:0:0:
256,192,26918,128,0,27080:0:0:0:0:
182,192,26918,1,2,0:0:0:0:
402,192,26918,1,0,0:0:0:0:
36,192,26918,1,0,0:0:0:0:
475,192,27080,1,8,0:0:0:0:
109,192,27080,1,0,0:0:0:0:
109,192,27242,128,0,27404:0:0:0:0:
182,192,27242,1,0,0:0:0:0:
329,192,27242,1,2,0:0:0:0:
402,192,27242,1,0,0:0:0:0:
256,192,27404,1,8,0:0:0:0:
36,192,27404,1,0,0:0:0:0:
475,192,27566,1,0,0:0:0:0:
256,192,27566,1,0,0:0:0:0:
182,192,27675,1,0,0:0:0:0:
402,192,27675,1,0,0:0:0:0:
109,192,27783,1,0,0:0:0:0:
329,192,27783,1,0,0:0:0:0:
256,192,27891,1,2,0:0:0:0:
36,192,27891,1,0,0:0:0:0:
109,192,27891,128,0,28053:0:0:0:0:
475,192,27891,1,0,0:0:0:0:
329,192,28053,1,8,0:0:0:0:
182,192,28053,1,0,0:0:0:0:
402,192,28215,128,0,28377:0:0:0:0:
36,192,28215,1,0,0:0:0:0:
109,192,28215,1,0,0:0:0:0:
256,192,28215,1,2,0:0:0:0:
329,192,28377,1,8,0:0:0:0:
475,192,28377,1,0,0:0:0:0:
182,192,28539,128,0,29188:0:0:0:0:
475,192,28864,1,0,0:0:0:0:
36,192,28864,1,0,0:0:0:0:
402,192,28945,1,0,0:0:0:0:
109,192,28945,1,0,0:0:0:0:
256,192,29026,1,0,0:0:0:0:
329,192,29107,1,0,0:0:0:0:
36,192,29188,128,0,29350:0:0:0:0:
475,192,29188,128,0,29350:0:0:0:0:
402,192,29188,1,0,0:0:0:0:
109,192,29188,1,2,0:0:0:0:
329,192,29350,1,0,0:0:0:0:
182,192,29350,1,0,0:0:0:0:
109,192,29512,1,0,0:0:0:0:
402,192,29593,1,0,0:0:0:0:
109,192,29675,1,0,0:0:0:0:
402,192,29756,1,0,0:0:0:0:
182,192,29837,128,0,29999:0:0:0:0:
329,192,29837,128,0,29999:0:0:0:0:
109,192,29837,1,2,0:0:0:0:
182,192,30161,1,0,0:0:0:0:
329,192,30161,1,0,0:0:0:0:
109,192,30242,1,0,0:0:0:0:
402,192,30242,1,0,0:0:0:0:
36,192,30323,1,0,0:0:0:0:
475,192,30323,1,0,0:0:0:0:
109,192,30404,1,0,0:0:0:0:
402,192,30404,1,0,0:0:0:0:
182,192,30485,1,2,0:0:0:0:
329,192,30485,1,0,0:0:0:0:
109,192,30647,1,8,0:0:0:0:
402,192,30729,1,8,0:0:0:0:
109,192,30810,1,8,0:0:0:0:
475,192,30972,1,8,0:0:0:0:
36,192,31134,1,0,0:0:0:0:
256,192,31134,1,8,0:0:0:0:
182,192,31134,128,0,31783:0:0:0:0:
329,192,31458,128,0,31783:0:0:0:0:
36,192,31783,128,0,31945:0:0:0:0:
402,192,31783,1,2,0:0:0:0:
256,192,31783,1,0,0:0:0:0:
109,192,31945,128,0,32107:0:0:0:0:
475,192,31945,1,8,0:0:0:0:
182,192,32107,128,0,32269:0:0:0:0:
329,192,32107,1,0,0:0:0:0:
402,192,32107,1,2,0:0:0:0:
256,192,32269,128,0,32431:0:0:0:0:
36,192,32269,1,8,0:0:0:0:
329,192,32431,128,0,32593:0:0:0:0:
109,192,32431,1,2,0:0:0:0:
475,192,32431,1,0,0:0:0:0:
36,192,32593,1,0,0:0:0:0:
402,192,32593,1,8,0:0:0:0:
182,192,32756,128,0,33080:0:0:0:0:
256,192,32756,1,0,0:0:0:0:
329,192,32918,1,0,0:0:0:0:
475,192,33080,128,0,33242:0:0:0:0:
402,192,33080,1,0,0:0:0:0:
109,192,33080,1,2,0:0:0:0:
402,192,33242,128,0,33404:0:0:0:0:
182,192,33242,1,8,0:0:0:0:
36,192,33404,1,0,0:0:0:0:
329,192,33404,128,0,33566:0:0:0:0:
109,192,33404,1,2,0:0:0:0:
256,192,33566,128,0,33729:0:0:0:0:
475,192,33566,1,8,0:0:0:0:
36,192,33729,128,0,34377:0:0:0:0:
109,192,33729,1,10,0:0:0:0:
402,192,33729,1,0,0:0:0:0:
182,192,33837,1,8,0:0:0:0:
256,192,33945,1,8,0:0:0:0:
109,192,34053,128,0,34377:0:0:0:0:
475,192,34053,1,8,0:0:0:0:
402,192,34161,1,8,0:0:0:0:
329,192,34269,1,8,0:0:0:0:
475,192,34377,128,0,34539:0:0:0:0:
256,192,34377,1,2,0:0:0:0:
182,192,34377,1,0,0:0:0:0:
329,192,34539,128,0,34702:0:0:0:0:
402,192,34539,1,8,0:0:0:0:
182,192,34702,128,0,34864:0:0:0:0:
109,192,34702,1,0,0:0:0:0:
256,192,34702,1,2,0:0:0:0:
36,192,34864,128,0,35026:0:0:0:0:
475,192,34864,1,8,0:0:0:0:
329,192,35026,128,0,35188:0:0:0:0:
256,192,35026,1,2,0:0:0:0:
109,192,35026,1,0,0:0:0:0:
182,192,35188,1,0,0:0:0:0:
402,192,35188,1,8,0:0:0:0:
256,192,35350,128,0,35675:0:0:0:0:
36,192,35675,128,0,35837:0:0:0:0:
109,192,35675,1,2,0:0:0:0:
402,192,35675,1,0,0:0:0:0:
182,192,35837,128,0,35999:0:0:0:0:
329,192,35837,1,8,0:0:0:0:
329,192,35999,128,0,36161:0:0:0:0:
402,192,35999,1,0,0:0:0:0:
109,192,35999,1,2,0:0:0:0:
475,192,36161,128,0,36323:0:0:0:0:
36,192,36161,1,8,0:0:0:0:
182,192,36323,1,0,0:0:0:0:
256,192,36323,1,0,0:0:0:0:
109,192,36485,128,0,36810:0:0:0:0:
402,192,36647,128,0,36810:0:0:0:0:
329,192,36647,1,0,0:0:0:0:
256,192,36647,1,0,0:0:0:0:
182,192,36972,128,0,37134:0:0:0:0:
36,192,36972,1,0,0:0:0:0:
256,192,36972,1,2,0:0:0:0:
329,192,37134,128,0,37296:0:0:0:0:
475,192,37134,1,8,0:0:0:0:
109,192,37296,128,0,37458:0:0:0:0:
256,192,37296,1,2,0:0:0:0:
182,192,37296,1,0,0:0:0:0:
402,192,37458,128,0,37620:0:0:0:0:
329,192,37458,1,8,0:0:0:0:
256,192,37620,128,0,37783:0:0:0:0:
182,192,37620,1,2,0:0:0:0:
36,192,37620,1,0,0:0:0:0:
475,192,37620,1,0,0:0:0:0:
256,192,37945,128,0,38269:0:0:0:0:
109,192,37945,1,0,0:0:0:0:
402,192,37945,1,2,0:0:0:0:
109,192,38269,128,0,38431:0:0:0:0:
475,192,38269,1,0,0:0:0:0:
329,192,38269,1,2,0:0:0:0:
182,192,38431,128,0,38593:0:0:0:0:
402,192,38431,1,8,0:0:0:0:
329,192,38593,128,0,38756:0:0:0:0:
36,192,38593,1,0,0:0:0:0:
256,192,38593,1,2,0:0:0:0:
402,192,38756,128,0,38918:0:0:0:0:
109,192,38756,1,8,0:0:0:0:
329,192,38918,1,8,0:0:0:0:
256,192,39026,1,8,0:0:0:0:
182,192,39134,1,8,0:0:0:0:
109,192,39242,1,8,0:0:0:0:
256,192,39323,1,8,0:0:0:0:
182,192,39404,1,8,0:0:0:0:
329,192,39485,1,8,0:0:0:0:
109,192,39566,128,0,39729:0:0:0:0:
402,192,39566,128,0,39729:0:0:0:0:
36,192,39566,1,2,0:0:0:0:
475,192,39566,1,0,0:0:0:0:
182,192,39729,1,0,0:0:0:0:
329,192,39729,1,0,0:0:0:0:
109,192,39891,1,0,0:0:0:0:
402,192,39972,1,0,0:0:0:0:
109,192,40053,1,0,0:0:0:0:
402,192,40134,1,0,0:0:0:0:
36,192,40215,1,0,0:0:0:0:
329,192,40215,128,0,40377:0:0:0:0:
182,192,40215,128,0,40377:0:0:0:0:
475,192,40215,1,0,0:0:0:0:
109,192,40377,1,0,0:0:0:0:
402,192,40377,1,0,0:0:0:0:
36,192,40539,1,0,0:0:0:0:
475,192,40539,128,0,40864:0:0:0:0:
109,192,40620,1,0,0:0:0:0:
182,192,40702,1,0,0:0:0:0:
256,192,40783,1,0,0:0:0:0:
329,192,40864,1,0,0:0:0:0:
36,192,40864,1,2,0:0:0:0:
182,192,41026,1,0,0:0:0:0:
402,192,41188,1,0,0:0:0:0:
109,192,41350,1,0,0:0:0:0:
256,192,41512,1,0,0:0:0:0:
109,192,41512,128,0,42161:0:0:0:0:
475,192,41675,1,0,0:0:0:0:
256,192,41756,128,0,41918:0:0:0:0:
329,192,41756,1,0,0:0:0:0:
475,192,41918,1,0,0:0:0:0:
256,192,41999,128,0,42161:0:0:0:0:
329,192,41999,1,0,0:0:0:0:
402,192,42161,1,2,0:0:0:0:
329,192,42161,1,4,0:0:0:0:
36,192,42161,128,0,42323:0:0:0:0:
182,192,42323,1,0,0:0:0:0:
475,192,42323,1,0,0:0:0:0:
109,192,42323,128,0,42485:0:0:0:0:
402,192,42485,1,2,0:0:0:0:
256,192,42485,1,0,0:0:0:0:
475,192,42647,1,0,0:0:0:0:
182,192,42647,128,0,42810:0:0:0:0:
329,192,42810,1,0,0:0:0:0:
402,192,42810,1,2,0:0:0:0:
109,192,42810,128,0,42972:0:0:0:0:
256,192,42972,128,0,43134:0:0:0:0:
329,192,43134,1,0,0:0:0:0:
475,192,43134,1,2,0:0:0:0:
182,192,43134,128,0,43296:0:0:0:0:
36,192,43296,1,0,0:0:0:0:
402,192,43296,1,0,0:0:0:0:
256,192,43296,128,0,43458:0:0:0:0:
109,192,43458,1,0,0:0:0:0:
475,192,43458,1,0,0:0:0:0:
329,192,43458,1,2,0:0:0:0:
402,192,43620,1,0,0:0:0:0:
256,192,43620,1,0,0:0:0:0:
182,192,43620,128,0,43783:0:0:0:0:
329,192,43783,1,0,0:0:0:0:
109,192,43783,1,2,0:0:0:0:
36,192,43783,1,0,0:0:0:0:
182,192,43945,1,0,0:0:0:0:
402,192,43945,1,0,0:0:0:0:
475,192,44107,128,0,44756:0:0:0:0:
109,192,44107,1,2,0:0:0:0:
256,192,44107,1,0,0:0:0:0:
36,192,44107,1,0,0:0:0:0:
182,192,44269,1,0,0:0:0:0:
36,192,44431,128,0,44756:0:0:0:0:
329,192,44431,1,0,0:0:0:0:
256,192,44431,1,0,0:0:0:0:
182,192,44756,1,2,0:0:0:0:
329,192,44756,128,0,44918:0:0:0:0:
109,192,44918,1,0,0:0:0:0:
402,192,44918,1,0,0:0:0:0:
36,192,45080,1,0,0:0:0:0:
182,192,45080,1,2,0:0:0:0:
329,192,45080,1,0,0:0:0:0:
475,192,45242,128,0,45404:0:0:0:0:
402,192,45242,1,0,0:0:0:0:
109,192,45242,1,0,0:0:0:0:
256,192,45404,128,0,45566:0:0:0:0:
182,192,45404,1,2,0:0:0:0:
329,192,45404,1,0,0:0:0:0:
402,192,45566,128,0,45729:0:0:0:0:
109,192,45566,1,0,0:0:0:0:
475,192,45566,1,0,0:0:0:0:
182,192,45729,128,0,45891:0:0:0:0:
329,192,45729,1,0,0:0:0:0:
36,192,45729,1,2,0:0:0:0:
329,192,45891,128,0,46053:0:0:0:0:
109,192,45891,1,0,0:0:0:0:
402,192,45891,1,0,0:0:0:0:
256,192,46053,1,2,0:0:0:0:
475,192,46053,1,0,0:0:0:0:
109,192,46053,128,0,46215:0:0:0:0:
36,192,46215,1,0,0:0:0:0:
329,192,46215,1,0,0:0:0:0:
402,192,46377,1,2,0:0:0:0:
109,192,46377,1,0,0:0:0:0:
182,192,46377,128,0,46539:0:0:0:0:
36,192,46539,1,0,0:0:0:0:
475,192,46539,1,0,0:0:0:0:
256,192,46539,128,0,46702:0:0:0:0:
182,192,46702,128,0,47026:0:0:0:0:
329,192,46702,128,0,47026:0:0:0:0:
402,192,46702,1,0,0:0:0:0:
109,192,46702,1,0,0:0:0:0:
109,192,47026,128,0,47350:0:0:0:0:
402,192,47026,128,0,47350:0:0:0:0:
36,192,47026,1,0,0:0:0:0:
475,192,47026,1,0,0:0:0:0:
182,192,47350,1,2,0:0:0:0:
329,192,47350,128,0,47512:0:0:0:0:
109,192,47512,1,0,0:0:0:0:
402,192,47512,1,0,0:0:0:0:
36,192,47675,1,2,0:0:0:0:
256,192,47675,1,0,0:0:0:0:
475,192,47675,1,0,0:0:0:0:
402,192,47837,128,0,47999:0:0:0:0:
109,192,47837,1,0,0:0:0:0:
182,192,47837,1,0,0:0:0:0:
256,192,47999,128,0,48161:0:0:0:0:
475,192,47999,1,0,0:0:0:0:
36,192,47999,1,2,0:0:0:0:
329,192,48161,128,0,48323:0:0:0:0:
109,192,48161,1,0,0:0:0:0:
402,192,48161,1,0,0:0:0:0:
182,192,48323,128,0,48485:0:0:0:0:
475,192,48323,1,0,0:0:0:0:
36,192,48323,1,2,0:0:0:0:
109,192,48485,128,0,48647:0:0:0:0:
402,192,48485,1,0,0:0:0:0:
256,192,48485,1,0,0:0:0:0:
36,192,48647,1,2,0:0:0:0:
475,192,48647,1,0,0:0:0:0:
256,192,48810,128,0,48972:0:0:0:0:
329,192,48810,1,0,0:0:0:0:
109,192,48810,1,0,0:0:0:0:
402,192,48972,128,0,49134:0:0:0:0:
36,192,48972,1,0,0:0:0:0:
475,192,48972,1,2,0:0:0:0:
329,192,49134,1,0,0:0:0:0:
182,192,49134,1,0,0:0:0:0:
109,192,49296,128,0,49945:0:0:0:0:
256,192,49296,1,0,0:0:0:0:
475,192,49296,1,2,0:0:0:0:
329,192,49620,128,0,49945:0:0:0:0:
402,192,49620,1,0,0:0:0:0:
256,192,49620,1,0,0:0:0:0:
36,192,49945,1,0,0:0:0:0:
402,192,49945,1,2,0:0:0:0:
182,192,49945,128,0,50107:0:0:0:0:
256,192,50107,1,0,0:0:0:0:
475,192,50107,1,0,0:0:0:0:
402,192,50269,1,2,0:0:0:0:
329,192,50269,1,0,0:0:0:0:
109,192,50269,1,0,0:0:0:0:
182,192,50431,1,0,0:0:0:0:
256,192,50431,1,0,0:0:0:0:
36,192,50593,1,0,0:0:0:0:
329,192,50593,1,2,0:0:0:0:
475,192,50593,1,0,0:0:0:0:
182,192,50756,1,0,0:0:0:0:
402,192,50756,1,0,0:0:0:0:
109,192,50918,1,0,0:0:0:0:
36,192,50918,1,0,0:0:0:0:
256,192,50918,1,2,0:0:0:0:
182,192,51080,1,0,0:0:0:0:
475,192,51080,1,0,0:0:0:0:
36,192,51242,128,0,52539:0:0:0:0:
329,192,51242,128,0,51404:0:0:0:0:
109,192,51242,128,2,51566:0:0:0:0:
182,192,51566,128,0,51891:0:0:0:0:
402,192,51566,128,0,51729:0:0:0:0:
256,192,51891,128,0,52539:0:0:0:0:
475,192,51891,1,0,0:0:0:0:
329,192,51972,1,0,0:0:0:0:
475,192,52134,1,0,0:0:0:0:
329,192,52215,1,0,0:0:0:0:
475,192,52377,1,0,0:0:0:0:
402,192,52539,1,2,0:0:0:0:
475,192,52539,1,0,0:0:0:0:
182,192,52539,1,4,0:0:0:0:
256,192,52702,1,0,0:0:0:0:
36,192,52702,1,0,0:0:0:0:
329,192,52864,1,2,0:0:0:0:
475,192,52864,1,0,0:0:0:0:
109,192,52864,1,0,0:0:0:0:
182,192,53026,128,0,53188:0:0:0:0:
256,192,53026,1,0,0:0:0:0:
329,192,53188,128,0,53350:0:0:0:0:
36,192,53188,1,0,0:0:0:0:
402,192,53188,1,2,0:0:0:0:
402,192,53350,128,0,53512:0:0:0:0:
182,192,53350,1,0,0:0:0:0:
109,192,53350,1,0,0:0:0:0:
256,192,53512,128,0,53675:0:0:0:0:
36,192,53512,1,0,0:0:0:0:
329,192,53512,1,2,0:0:0:0:
182,192,53675,128,0,53837:0:0:0:0:
402,192,53675,1,0,0:0:0:0:
475,192,53675,1,0,0:0:0:0:
36,192,53837,1,0,0:0:0:0:
329,192,53837,1,2,0:0:0:0:
475,192,53999,128,0,54161:0:0:0:0:
256,192,53999,1,0,0:0:0:0:
402,192,53999,1,0,0:0:0:0:
402,192,54161,128,0,54323:0:0:0:0:
109,192,54161,1,0,0:0:0:0:
329,192,54161,1,2,0:0:0:0:
256,192,54323,1,0,0:0:0:0:
36,192,54323,128,0,54485:0:0:0:0:
182,192,54485,128,0,54810:0:0:0:0:
329,192,54485,1,2,0:0:0:0:
475,192,54485,1,0,0:0:0:0:
109,192,54647,1,0,0:0:0:0:
256,192,54810,128,0,55134:0:0:0:0:
475,192,54810,1,2,0:0:0:0:
36,192,54810,1,0,0:0:0:0:
402,192,54918,1,0,0:0:0:0:
329,192,55026,1,0,0:0:0:0:
182,192,55026,1,0,0:0:0:0:
36,192,55134,1,0,0:0:0:0:
475,192,55134,1,2,0:0:0:0:
109,192,55134,128,0,55296:0:0:0:0:
402,192,55296,1,0,0:0:0:0:
182,192,55296,1,0,0:0:0:0:
329,192,55458,1,0,0:0:0:0:
475,192,55458,1,2,0:0:0:0:
36,192,55458,1,0,0:0:0:0:
182,192,55620,128,0,55783:0:0:0:0:
402,192,55620,1,0,0:0:0:0:
109,192,55620,1,0,0:0:0:0:
109,192,55783,128,0,55945:0:0:0:0:
329,192,55783,1,0,0:0:0:0:
475,192,55783,1,2,0:0:0:0:
256,192,55945,128,0,56107:0:0:0:0:
402,192,55945,1,0,0:0:0:0:
182,192,55945,1,0,0:0:0:0:
182,192,56107,128,0,56269:0:0:0:0:
329,192,56107,1,0,0:0:0:0:
36,192,56107,1,2,0:0:0:0:
329,192,56269,128,0,56431:0:0:0:0:
402,192,56269,1,0,0:0:0:0:
109,192,56269,1,0,0:0:0:0:
36,192,56431,1,2,0:0:0:0:
182,192,56431,128,0,56593:0:0:0:0:
475,192,56593,1,0,0:0:0:0:
109,192,56593,1,0,0:0:0:0:
329,192,56756,128,0,56918:0:0:0:0:
182,192,56756,1,0,0:0:0:0:
402,192,56756,1,2,0:0:0:0:
182,192,56918,128,0,57080:0:0:0:0:
36,192,56918,1,0,0:0:0:0:
475,192,56918,1,0,0:0:0:0:
109,192,57080,1,2,0:0:0:0:
329,192,57080,1,0,0:0:0:0:
256,192,57242,1,0,0:0:0:0:
475,192,57242,128,0,57404:0:0:0:0:
36,192,57404,1,2,0:0:0:0:
182,192,57404,1,0,0:0:0:0:
329,192,57566,128,0,57729:0:0:0:0:
256,192,57566,1,0,0:0:0:0:
402,192,57729,1,0,0:0:0:0:
109,192,57729,1,2,0:0:0:0:
36,192,57729,128,0,57891:0:0:0:0:
182,192,57891,1,0,0:0:0:0:
475,192,57891,1,0,0:0:0:0:
402,192,58053,1,2,0:0:0:0:
256,192,58053,1,0,0:0:0:0:
36,192,58053,1,0,0:0:0:0:
182,192,58215,128,0,58377:0:0:0:0:
475,192,58215,1,0,0:0:0:0:
329,192,58215,1,0,0:0:0:0:
329,192,58377,128,0,58539:0:0:0:0:
402,192,58377,1,2,0:0:0:0:
36,192,58377,1,0,0:0:0:0:
475,192,58539,128,0,58702:0:0:0:0:
182,192,58539,1,0,0:0:0:0:
109,192,58539,1,0,0:0:0:0:
329,192,58702,128,0,58864:0:0:0:0:
36,192,58702,1,0,0:0:0:0:
256,192,58702,1,2,0:0:0:0:
182,192,58864,128,0,59026:0:0:0:0:
475,192,58864,1,0,0:0:0:0:
109,192,58864,1,0,0:0:0:0:
256,192,59026,1,2,0:0:0:0:
402,192,59026,1,0,0:0:0:0:
109,192,59188,128,0,59350:0:0:0:0:
36,192,59188,1,0,0:0:0:0:
182,192,59188,1,0,0:0:0:0:
402,192,59350,128,0,59512:0:0:0:0:
256,192,59350,1,2,0:0:0:0:
475,192,59350,1,0,0:0:0:0:
182,192,59512,1,0,0:0:0:0:
256,192,59675,128,0,59999:0:0:0:0:
36,192,59675,1,0,0:0:0:0:
475,192,59675,1,2,0:0:0:0:
109,192,59837,1,0,0:0:0:0:
402,192,59837,1,0,0:0:0:0:
329,192,59999,1,2,0:0:0:0:
182,192,59999,1,0,0:0:0:0:
402,192,60161,1,0,0:0:0:0:
109,192,60161,1,0,0:0:0:0:
329,192,60161,128,0,60323:0:0:0:0:
36,192,60323,1,0,0:0:0:0:
475,192,60323,1,2,0:0:0:0:
182,192,60323,128,0,60485:0:0:0:0:
329,192,60485,128,0,60647:0:0:0:0:
36,192,60485,1,0,0:0:0:0:
256,192,60647,1,0,0:0:0:0:
475,192,60647,1,2,0:0:0:0:
109,192,60647,1,0,0:0:0:0:
182,192,60810,128,0,60972:0:0:0:0:
329,192,60810,1,0,0:0:0:0:
36,192,60810,1,0,0:0:0:0:
402,192,60972,128,0,61134:0:0:0:0:
109,192,60972,1,0,0:0:0:0:
475,192,60972,1,2,0:0:0:0:
329,192,61134,128,0,61296:0:0:0:0:
36,192,61134,1,0,0:0:0:0:
182,192,61134,1,0,0:0:0:0:
109,192,61296,128,0,61458:0:0:0:0:
256,192,61296,1,2,0:0:0:0:
402,192,61296,1,0,0:0:0:0:
402,192,61458,128,0,61620:0:0:0:0:
182,192,61458,1,0,0:0:0:0:
329,192,61458,1,0,0:0:0:0:
36,192,61620,1,0,0:0:0:0:
256,192,61620,1,2,0:0:0:0:
475,192,61620,1,0,0:0:0:0:
109,192,61783,1,0,0:0:0:0:
329,192,61783,128,0,61945:0:0:0:0:
182,192,61945,1,0,0:0:0:0:
475,192,61945,1,0,0:0:0:0:
402,192,62107,1,0,0:0:0:0:
256,192,62269,128,0,62918:0:0:0:0:
329,192,62269,1,0,0:0:0:0:
182,192,62512,128,0,62918:0:0:0:0:
329,192,62756,128,0,62918:0:0:0:0:
36,192,62918,1,8,0:0:0:0:
475,192,62918,1,2,0:0:0:0:
36,192,63080,1,8,0:0:0:0:
256,192,63080,1,0,0:0:0:0:
475,192,63080,1,2,0:0:0:0:
109,192,63242,1,8,0:0:0:0:
402,192,63242,1,2,0:0:0:0:
109,192,63404,128,0,63566:0:0:0:0:
329,192,63404,1,0,0:0:0:0:
256,192,63566,128,0,63729:0:0:0:0:
36,192,63566,1,2,0:0:0:0:
182,192,63729,128,0,63891:0:0:0:0:
475,192,63729,1,0,0:0:0:0:
329,192,63891,128,0,64053:0:0:0:0:
109,192,63891,1,2,0:0:0:0:
256,192,64053,128,0,64215:0:0:0:0:
182,192,64053,1,0,0:0:0:0:
36,192,64215,128,0,64539:0:0:0:0:
475,192,64215,1,2,0:0:0:0:
182,192,64377,128,0,64539:0:0:0:0:
402,192,64377,1,0,0:0:0:0:
109,192,64539,128,0,64864:0:0:0:0:
329,192,64539,1,2,0:0:0:0:
256,192,64702,128,0,64864:0:0:0:0:
475,192,64702,1,0,0:0:0:0:
36,192,64864,1,0,0:0:0:0:
402,192,64864,1,2,0:0:0:0:
329,192,64945,1,2,0:0:0:0:
109,192,65026,1,2,0:0:0:0:
182,192,65107,1,2,0:0:0:0:
36,192,65188,1,0,0:0:0:0:
256,192,65188,1,2,0:0:0:0:
475,192,65188,128,0,65512:0:0:0:0:
36,192,65512,128,0,65837:0:0:0:0:
182,192,65512,1,2,0:0:0:0:
109,192,65675,128,0,65999:0:0:0:0:
256,192,65675,1,0,0:0:0:0:
182,192,65837,128,0,66161:0:0:0:0:
329,192,65837,1,2,0:0:0:0:
402,192,65999,1,0,0:0:0:0:
475,192,66161,128,0,66972:0:0:0:0:
329,192,66161,1,2,0:0:0:0:
109,192,66323,1,0,0:0:0:0:
36,192,66485,128,0,66810:0:0:0:0:
402,192,66485,1,2,0:0:0:0:
256,192,66485,1,0,0:0:0:0:
182,192,66647,1,0,0:0:0:0:
329,192,66810,1,2,0:0:0:0:
109,192,66810,1,0,0:0:0:0:
256,192,66972,1,0,0:0:0:0:
36,192,67134,128,0,67458:0:0:0:0:
402,192,67134,1,2,0:0:0:0:
182,192,67134,1,0,0:0:0:0:
329,192,67296,1,0,0:0:0:0:
109,192,67458,1,0,0:0:0:0:
182,192,67539,1,0,0:0:0:0:
256,192,67620,1,0,0:0:0:0:
329,192,67702,1,0,0:0:0:0:
475,192,67783,1,0,0:0:0:0:
402,192,67864,1,0,0:0:0:0:
329,192,67945,1,0,0:0:0:0:
256,192,68026,1,0,0:0:0:0:
36,192,68107,128,0,68431:0:0:0:0:
182,192,68107,1,0,0:0:0:0:
402,192,68107,1,2,0:0:0:0:
109,192,68269,128,0,68431:0:0:0:0:
329,192,68269,1,0,0:0:0:0:
475,192,68431,128,0,68756:0:0:0:0:
256,192,68431,1,2,0:0:0:0:
402,192,68593,128,0,68756:0:0:0:0:
182,192,68593,1,0,0:0:0:0:
109,192,68756,128,0,69080:0:0:0:0:
256,192,68756,1,2,0:0:0:0:
182,192,68918,128,0,69080:0:0:0:0:
329,192,68918,1,0,0:0:0:0:
475,192,69080,128,0,69404:0:0:0:0:
256,192,69080,1,2,0:0:0:0:
402,192,69242,128,0,69404:0:0:0:0:
329,192,69242,1,0,0:0:0:0:
36,192,69404,128,0,69729:0:0:0:0:
182,192,69404,128,0,69729:0:0:0:0:
256,192,69404,1,2,0:0:0:0:
329,192,69485,1,0,0:0:0:0:
475,192,69566,1,0,0:0:0:0:
402,192,69647,1,0,0:0:0:0:
329,192,69729,1,0,0:0:0:0:
256,192,69729,1,2,0:0:0:0:
109,192,69891,1,0,0:0:0:0:
256,192,69891,1,0,0:0:0:0:
329,192,70053,128,0,70377:0:0:0:0:
475,192,70053,128,0,70377:0:0:0:0:
182,192,70053,1,0,0:0:0:0:
256,192,70053,1,2,0:0:0:0:
109,192,70134,1,0,0:0:0:0:
36,192,70215,1,0,0:0:0:0:
182,192,70296,1,0,0:0:0:0:
109,192,70377,1,0,0:0:0:0:
402,192,70377,1,2,0:0:0:0:
256,192,70539,1,0,0:0:0:0:
36,192,70702,128,0,70864:0:0:0:0:
329,192,70702,1,0,0:0:0:0:
475,192,70702,1,2,0:0:0:0:
182,192,70864,128,0,71026:0:0:0:0:
402,192,70864,1,0,0:0:0:0:
109,192,71026,128,0,71188:0:0:0:0:
329,192,71026,1,0,0:0:0:0:
475,192,71026,1,2,0:0:0:0:
256,192,71188,128,0,71350:0:0:0:0:
402,192,71188,1,0,0:0:0:0:
182,192,71350,128,0,71512:0:0:0:0:
36,192,71350,1,0,0:0:0:0:
475,192,71350,1,2,0:0:0:0:
329,192,71512,128,0,71675:0:0:0:0:
109,192,71512,1,0,0:0:0:0:
256,192,71675,128,0,71837:0:0:0:0:
182,192,71675,1,0,0:0:0:0:
36,192,71675,1,2,0:0:0:0:
402,192,71837,128,0,71999:0:0:0:0:
109,192,71837,1,0,0:0:0:0:
182,192,71999,1,2,0:0:0:0:
329,192,71999,1,0,0:0:0:0:
109,192,72161,1,8,0:0:0:0:
256,192,72242,1,8,0:0:0:0:
402,192,72323,128,8,72647:0:0:0:0:
182,192,72485,1,8,0:0:0:0:
36,192,72647,128,0,73296:0:0:0:0:
329,192,72647,1,8,0:0:0:0:
256,192,72647,1,2,0:0:0:0:
475,192,72972,128,0,73296:0:0:0:0:
329,192,72972,1,0,0:0:0:0:
182,192,72972,1,0,0:0:0:0:
256,192,73296,1,10,0:0:0:0:
36,192,73458,1,0,0:0:0:0:
256,192,73458,1,8,0:0:0:0:
475,192,73458,1,2,0:0:0:0:
36,192,73620,1,0,0:0:0:0:
256,192,73620,1,8,0:0:0:0:
475,192,73620,1,2,0:0:0:0:
402,192,73620,128,0,73945:0:0:0:0:
182,192,73783,1,0,0:0:0:0:
109,192,73783,1,0,0:0:0:0:
475,192,73945,128,0,74593:0:0:0:0:
329,192,73945,1,2,0:0:0:0:
36,192,73945,1,0,0:0:0:0:
182,192,74026,1,0,0:0:0:0:
109,192,74107,1,0,0:0:0:0:
256,192,74188,1,0,0:0:0:0:
182,192,74269,1,2,0:0:0:0:
329,192,74350,1,0,0:0:0:0:
256,192,74431,128,0,74593:0:0:0:0:
36,192,74593,128,0,74918:0:0:0:0:
182,192,74593,1,2,0:0:0:0:
109,192,74593,1,0,0:0:0:0:
182,192,74756,128,0,74918:0:0:0:0:
402,192,74756,1,0,0:0:0:0:
256,192,74756,1,0,0:0:0:0:
109,192,74918,128,0,75242:0:0:0:0:
329,192,74918,1,0,0:0:0:0:
475,192,74918,1,2,0:0:0:0:
256,192,75080,128,0,75242:0:0:0:0:
402,192,75080,1,0,0:0:0:0:
475,192,75242,1,2,0:0:0:0:
329,192,75323,1,2,0:0:0:0:
182,192,75404,1,2,0:0:0:0:
36,192,75485,1,2,0:0:0:0:
256,192,75566,128,0,75891:0:0:0:0:
182,192,75566,1,2,0:0:0:0:
402,192,75729,1,0,0:0:0:0:
329,192,75891,1,2,0:0:0:0:
109,192,75891,1,0,0:0:0:0:
109,192,76053,1,0,0:0:0:0:
329,192,76053,1,0,0:0:0:0:
182,192,76215,1,0,0:0:0:0:
402,192,76215,1,2,0:0:0:0:
182,192,76377,1,0,0:0:0:0:
402,192,76377,1,0,0:0:0:0:
109,192,76539,128,0,77350:0:0:0:0:
475,192,76539,1,2,0:0:0:0:
402,192,76620,1,0,0:0:0:0:
329,192,76702,1,0,0:0:0:0:
256,192,76783,1,0,0:0:0:0:
182,192,76864,1,0,0:0:0:0:
475,192,76864,1,2,0:0:0:0:
256,192,77026,1,0,0:0:0:0:
329,192,77026,1,0,0:0:0:0:
402,192,77188,1,2,0:0:0:0:
36,192,77188,1,0,0:0:0:0:
182,192,77350,1,0,0:0:0:0:
256,192,77350,1,0,0:0:0:0:
402,192,77512,128,0,77837:0:0:0:0:
329,192,77512,1,2,0:0:0:0:
475,192,77512,1,0,0:0:0:0:
182,192,77675,1,0,0:0:0:0:
109,192,77675,1,0,0:0:0:0:
36,192,77837,128,0,77945:0:0:0:0:
256,192,77837,1,2,0:0:0:0:
329,192,77945,1,0,0:0:0:0:
109,192,77945,128,0,78053:0:0:0:0:
182,192,78053,128,0,78161:0:0:0:0:
402,192,78053,1,0,0:0:0:0:
475,192,78161,128,0,78269:0:0:0:0:
329,192,78161,1,0,0:0:0:0:
256,192,78269,1,0,0:0:0:0:
402,192,78269,128,0,78377:0:0:0:0:
329,192,78377,128,0,78485:0:0:0:0:
182,192,78377,1,0,0:0:0:0:
109,192,78485,128,0,78647:0:0:0:0:
475,192,78485,1,0,0:0:0:0:
36,192,78485,1,2,0:0:0:0:
256,192,78647,128,0,78810:0:0:0:0:
402,192,78647,1,0,0:0:0:0:
182,192,78810,128,0,78972:0:0:0:0:
475,192,78810,1,0,0:0:0:0:
109,192,78810,1,2,0:0:0:0:
329,192,78972,128,0,79134:0:0:0:0:
36,192,78972,1,0,0:0:0:0:
109,192,79134,128,0,79296:0:0:0:0:
402,192,79134,1,0,0:0:0:0:
475,192,79134,1,2,0:0:0:0:
256,192,79296,128,0,79458:0:0:0:0:
182,192,79296,1,0,0:0:0:0:
36,192,79458,128,0,79620:0:0:0:0:
329,192,79458,1,0,0:0:0:0:
402,192,79458,1,2,0:0:0:0:
182,192,79620,128,0,79783:0:0:0:0:
109,192,79620,1,0,0:0:0:0:
329,192,79783,128,0,80107:0:0:0:0:
475,192,79783,128,0,80107:0:0:0:0:
256,192,79783,1,2,0:0:0:0:
182,192,79864,1,0,0:0:0:0:
36,192,79945,1,0,0:0:0:0:
109,192,80026,1,0,0:0:0:0:
182,192,80107,1,0,0:0:0:0:
256,192,80107,1,2,0:0:0:0:
402,192,80269,1,0,0:0:0:0:
109,192,80269,1,0,0:0:0:0:
36,192,80431,128,0,80756:0:0:0:0:
182,192,80431,128,0,80756:0:0:0:0:
256,192,80431,1,2,0:0:0:0:
329,192,80512,1,0,0:0:0:0:
475,192,80593,1,0,0:0:0:0:
402,192,80675,1,0,0:0:0:0:
329,192,80756,1,0,0:0:0:0:
256,192,80756,1,2,0:0:0:0:
109,192,80918,1,0,0:0:0:0:
475,192,80918,1,0,0:0:0:0:
402,192,81080,128,0,81242:0:0:0:0:
182,192,81080,1,0,0:0:0:0:
36,192,81080,1,2,0:0:0:0:
256,192,81242,128,0,81404:0:0:0:0:
109,192,81242,1,0,0:0:0:0:
329,192,81404,128,0,81566:0:0:0:0:
475,192,81404,1,0,0:0:0:0:
36,192,81404,1,2,0:0:0:0:
182,192,81566,128,0,81729:0:0:0:0:
109,192,81566,1,0,0:0:0:0:
402,192,81729,128,0,81891:0:0:0:0:
329,192,81729,1,0,0:0:0:0:
36,192,81729,1,2,0:0:0:0:
256,192,81891,128,0,82053:0:0:0:0:
182,192,81891,1,0,0:0:0:0:
475,192,82053,128,0,82215:0:0:0:0:
109,192,82053,1,2,0:0:0:0:
329,192,82053,1,0,0:0:0:0:
329,192,82215,128,0,82377:0:0:0:0:
256,192,82215,1,0,0:0:0:0:
36,192,82377,128,0,83350:0:0:0:0:
182,192,82377,1,2,0:0:0:0:
402,192,82377,1,0,0:0:0:0:
182,192,82539,1,0,0:0:0:0:
475,192,82702,1,0,0:0:0:0:
475,192,82864,1,0,0:0:0:0:
402,192,83026,1,0,0:0:0:0:
109,192,83026,1,0,0:0:0:0:
256,192,83188,1,0,0:0:0:0:
329,192,83269,1,0,0:0:0:0:
402,192,83350,1,8,0:0:0:0:
36,192,83675,128,0,84810:0:0:0:0:
182,192,83675,1,0,0:0:0:0:
475,192,83675,1,4,0:0:0:0:
256,192,83837,1,0,0:0:0:0:
329,192,83999,1,0,0:0:0:0:
402,192,84161,1,0,0:0:0:0:
329,192,84323,1,0,0:0:0:0:
256,192,84485,1,0,0:0:0:0:
182,192,84647,1,0,0:0:0:0:
109,192,84810,1,2,0:0:0:0:
475,192,84972,128,0,85134:0:0:0:0:
182,192,84972,1,0,0:0:0:0:
329,192,84972,128,0,85134:0:0:0:0:
256,192,85134,1,0,0:0:0:0:
402,192,85296,128,0,85458:0:0:0:0:
109,192,85296,1,0,0:0:0:0:
256,192,85296,128,0,85458:0:0:0:0:
182,192,85458,1,0,0:0:0:0:
329,192,85620,128,0,85783:0:0:0:0:
36,192,85620,1,0,0:0:0:0:
182,192,85620,128,0,85783:0:0:0:0:
109,192,85783,1,0,0:0:0:0:
256,192,85945,128,0,86107:0:0:0:0:
402,192,85945,1,2,0:0:0:0:
109,192,85945,128,0,86107:0:0:0:0:
329,192,86107,1,0,0:0:0:0:
475,192,86269,128,0,87404:0:0:0:0:
402,192,86269,1,2,0:0:0:0:
109,192,86269,1,0,0:0:0:0:
329,192,86431,1,0,0:0:0:0:
182,192,86593,1,0,0:0:0:0:
256,192,86756,1,0,0:0:0:0:
109,192,86918,1,0,0:0:0:0:
36,192,87080,1,0,0:0:0:0:
256,192,87242,1,0,0:0:0:0:
36,192,87404,128,0,88864:0:0:0:0:
109,192,87404,1,2,0:0:0:0:
182,192,87566,1,0,0:0:0:0:
256,192,87675,1,0,0:0:0:0:
329,192,87783,1,0,0:0:0:0:
402,192,87891,1,0,0:0:0:0:
109,192,87891,1,2,0:0:0:0:
182,192,87891,1,0,0:0:0:0:
475,192,87999,1,0,0:0:0:0:
402,192,88107,1,0,0:0:0:0:
329,192,88215,128,0,88864:0:0:0:0:
256,192,88539,1,0,0:0:0:0:
182,192,88539,1,2,0:0:0:0:
109,192,88702,1,0,0:0:0:0:
402,192,88864,1,2,0:0:0:0:
475,192,88864,1,4,0:0:0:0:
256,192,88864,128,0,89188:0:0:0:0:
36,192,89188,1,2,0:0:0:0:
109,192,89269,1,2,0:0:0:0:
182,192,89350,1,2,0:0:0:0:
109,192,89431,1,2,0:0:0:0:
256,192,89512,128,0,89837:0:0:0:0:
36,192,89512,1,2,0:0:0:0:
402,192,89512,1,0,0:0:0:0:
475,192,89512,1,4,0:0:0:0:
182,192,89675,1,0,0:0:0:0:
109,192,89837,1,2,0:0:0:0:
402,192,89837,1,0,0:0:0:0:
182,192,89999,1,2,0:0:0:0:
329,192,89999,1,0,0:0:0:0:
256,192,90161,128,0,90485:0:0:0:0:
36,192,90161,1,2,0:0:0:0:
475,192,90161,1,4,0:0:0:0:
475,192,90485,1,2,0:0:0:0:
402,192,90566,1,2,0:0:0:0:
329,192,90647,1,2,0:0:0:0:
402,192,90729,1,2,0:0:0:0:
256,192,90810,128,0,91134:0:0:0:0:
475,192,90810,1,2,0:0:0:0:
109,192,90810,1,4,0:0:0:0:
36,192,90810,1,0,0:0:0:0:
109,192,91134,128,0,91458:0:0:0:0:
402,192,91134,128,0,91458:0:0:0:0:
475,192,91458,128,0,92756:0:0:0:0:
256,192,91458,1,0,0:0:0:0:
36,192,91458,1,2,0:0:0:0:
36,192,91783,1,2,0:0:0:0:
182,192,91783,1,0,0:0:0:0:
402,192,91783,128,0,92756:0:0:0:0:
109,192,92107,1,0,0:0:0:0:
36,192,92107,1,2,0:0:0:0:
329,192,92107,128,0,92756:0:0:0:0:
36,192,92431,1,2,0:0:0:0:
182,192,92431,1,0,0:0:0:0:
256,192,92431,128,0,92756:0:0:0:0:
109,192,92756,1,2,0:0:0:0:
36,192,92756,1,0,0:0:0:0:
36,192,94053,1,0,0:0:0:0:
182,192,94053,1,2,0:0:0:0:
475,192,94053,1,4,0:0:0:0:
256,192,94215,1,0,0:0:0:0:
402,192,94215,1,0,0:0:0:0:
109,192,94377,128,0,94539:0:0:0:0:
36,192,94377,1,0,0:0:0:0:
329,192,94377,1,2,0:0:0:0:
256,192,94539,128,0,94702:0:0:0:0:
475,192,94539,1,0,0:0:0:0:
182,192,94539,1,0,0:0:0:0:
36,192,94702,128,0,94864:0:0:0:0:
402,192,94702,1,2,0:0:0:0:
329,192,94702,1,0,0:0:0:0:
182,192,94864,128,0,95026:0:0:0:0:
475,192,94864,1,0,0:0:0:0:
256,192,94864,1,0,0:0:0:0:
109,192,95026,128,0,95188:0:0:0:0:
329,192,95026,1,0,0:0:0:0:
402,192,95026,1,2,0:0:0:0:
256,192,95188,128,0,95350:0:0:0:0:
36,192,95188,1,0,0:0:0:0:
475,192,95188,1,0,0:0:0:0:
329,192,95350,1,2,0:0:0:0:
182,192,95350,1,0,0:0:0:0:
475,192,95512,128,0,95675:0:0:0:0:
36,192,95512,1,0,0:0:0:0:
402,192,95512,1,0,0:0:0:0:
329,192,95675,128,0,95837:0:0:0:0:
182,192,95675,1,2,0:0:0:0:
109,192,95675,1,0,0:0:0:0:
256,192,95837,1,0,0:0:0:0:
402,192,95837,1,0,0:0:0:0:
109,192,95999,128,0,96647:0:0:0:0:
36,192,95999,1,2,0:0:0:0:
402,192,96323,128,0,96647:0:0:0:0:
475,192,96323,1,0,0:0:0:0:
329,192,96647,1,0,0:0:0:0:
36,192,96647,1,2,0:0:0:0:
182,192,96647,128,0,96810:0:0:0:0:
475,192,96810,1,0,0:0:0:0:
109,192,96810,1,0,0:0:0:0:
329,192,96972,1,0,0:0:0:0:
36,192,96972,1,0,0:0:0:0:
182,192,96972,1,0,0:0:0:0:
109,192,97134,128,0,97296:0:0:0:0:
402,192,97134,1,0,0:0:0:0:
256,192,97134,1,0,0:0:0:0:
329,192,97296,128,0,97458:0:0:0:0:
475,192,97296,1,2,0:0:0:0:
182,192,97296,1,0,0:0:0:0:
182,192,97458,128,0,97620:0:0:0:0:
402,192,97458,1,0,0:0:0:0:
109,192,97458,1,0,0:0:0:0:
402,192,97620,128,0,97783:0:0:0:0:
36,192,97620,1,0,0:0:0:0:
329,192,97620,1,2,0:0:0:0:
256,192,97783,128,0,97945:0:0:0:0:
182,192,97783,1,0,0:0:0:0:
109,192,97783,1,0,0:0:0:0:
109,192,97945,128,0,98269:0:0:0:0:
329,192,97945,1,2,0:0:0:0:
402,192,97945,1,0,0:0:0:0:
475,192,98107,1,0,0:0:0:0:
256,192,98107,1,0,0:0:0:0:
402,192,98269,1,2,0:0:0:0:
36,192,98269,1,0,0:0:0:0:
329,192,98269,128,0,98431:0:0:0:0:
182,192,98431,1,0,0:0:0:0:
109,192,98431,1,0,0:0:0:0:
402,192,98431,128,0,98593:0:0:0:0:
475,192,98593,128,0,99242:0:0:0:0:
36,192,98593,1,2,0:0:0:0:
256,192,98593,1,0,0:0:0:0:
36,192,98918,128,0,99242:0:0:0:0:
182,192,98918,1,0,0:0:0:0:
256,192,98918,1,0,0:0:0:0:
109,192,99242,1,2,0:0:0:0:
256,192,99242,1,0,0:0:0:0:
402,192,99242,1,0,0:0:0:0:
329,192,99404,1,0,0:0:0:0:
182,192,99404,1,0,0:0:0:0:
109,192,99566,1,2,0:0:0:0:
36,192,99566,1,0,0:0:0:0:
402,192,99566,1,0,0:0:0:0:
256,192,99729,128,0,99891:0:0:0:0:
182,192,99729,1,0,0:0:0:0:
475,192,99729,1,0,0:0:0:0:
329,192,99891,128,0,100053:0:0:0:0:
402,192,99891,1,0,0:0:0:0:
109,192,99891,1,2,0:0:0:0:
182,192,100053,128,0,100215:0:0:0:0:
36,192,100053,1,0,0:0:0:0:
475,192,100053,1,0,0:0:0:0:
256,192,100215,128,0,100377:0:0:0:0:
402,192,100215,1,2,0:0:0:0:
329,192,100215,1,0,0:0:0:0:
109,192,100377,128,0,100539:0:0:0:0:
182,192,100377,1,0,0:0:0:0:
475,192,100377,1,0,0:0:0:0:
329,192,100539,1,2,0:0:0:0:
36,192,100539,1,0,0:0:0:0:
402,192,100702,128,0,100864:0:0:0:0:
182,192,100702,1,0,0:0:0:0:
475,192,100702,1,0,0:0:0:0:
256,192,100864,128,0,101026:0:0:0:0:
329,192,100864,1,2,0:0:0:0:
109,192,100864,1,0,0:0:0:0:
182,192,101026,1,0,0:0:0:0:
475,192,101026,1,0,0:0:0:0:
36,192,101188,128,0,101837:0:0:0:0:
402,192,101188,1,0,0:0:0:0:
329,192,101188,1,2,0:0:0:0:
475,192,101512,128,0,101837:0:0:0:0:
256,192,101512,1,0,0:0:0:0:
182,192,101512,1,0,0:0:0:0:
182,192,101837,1,2,0:0:0:0:
329,192,101837,1,0,0:0:0:0:
109,192,101837,128,0,101999:0:0:0:0:
256,192,101999,1,0,0:0:0:0:
402,192,101999,1,0,0:0:0:0:
329,192,102161,1,0,0:0:0:0:
36,192,102161,1,2,0:0:0:0:
109,192,102161,1,0,0:0:0:0:
182,192,102323,128,0,102485:0:0:0:0:
256,192,102323,1,0,0:0:0:0:
475,192,102323,1,0,0:0:0:0:
402,192,102485,128,0,102647:0:0:0:0:
329,192,102485,1,0,0:0:0:0:
109,192,102485,1,2,0:0:0:0:
329,192,102647,128,0,102810:0:0:0:0:
256,192,102647,1,0,0:0:0:0:
182,192,102647,1,0,0:0:0:0:
109,192,102810,128,0,102972:0:0:0:0:
36,192,102810,1,2,0:0:0:0:
475,192,102810,1,0,0:0:0:0:
402,192,102972,128,0,103134:0:0:0:0:
182,192,102972,1,0,0:0:0:0:
329,192,102972,1,0,0:0:0:0:
256,192,103134,128,0,104431:0:0:0:0:
36,192,103134,1,2,0:0:0:0:
475,192,103134,1,0,0:0:0:0:
402,192,103458,1,0,0:0:0:0:
109,192,103458,1,0,0:0:0:0:
36,192,103783,128,0,104431:0:0:0:0:
475,192,103783,128,0,104431:0:0:0:0:
182,192,103783,1,0,0:0:0:0:
329,192,103783,1,0,0:0:0:0:
109,192,104431,1,2,0:0:0:0:
329,192,104431,1,4,0:0:0:0:
402,192,104593,1,0,0:0:0:0:
475,192,104593,1,0,0:0:0:0:
256,192,104756,1,0,0:0:0:0:
36,192,104756,1,2,0:0:0:0:
182,192,104756,1,0,0:0:0:0:
109,192,104918,128,0,105080:0:0:0:0:
402,192,104918,1,0,0:0:0:0:
329,192,104918,1,0,0:0:0:0:
36,192,105080,128,0,105242:0:0:0:0:
475,192,105080,1,0,0:0:0:0:
256,192,105080,1,2,0:0:0:0:
329,192,105242,128,0,105404:0:0:0:0:
182,192,105242,1,0,0:0:0:0:
109,192,105242,1,0,0:0:0:0:
402,192,105404,128,0,105566:0:0:0:0:
256,192,105404,1,2,0:0:0:0:
36,192,105404,1,0,0:0:0:0:
475,192,105566,128,0,105729:0:0:0:0:
182,192,105566,1,0,0:0:0:0:
329,192,105566,1,0,0:0:0:0:
109,192,105729,1,0,0:0:0:0:
256,192,105729,1,2,0:0:0:0:
36,192,105891,128,0,106053:0:0:0:0:
402,192,105891,1,0,0:0:0:0:
329,192,105891,1,0,0:0:0:0:
182,192,106053,128,0,106215:0:0:0:0:
475,192,106053,1,0,0:0:0:0:
256,192,106053,1,2,0:0:0:0:
329,192,106215,1,0,0:0:0:0:
36,192,106215,1,0,0:0:0:0:
402,192,106377,128,0,107026:0:0:0:0:
109,192,106377,1,0,0:0:0:0:
182,192,106377,1,2,0:0:0:0:
256,192,106539,1,0,0:0:0:0:
475,192,106539,1,0,0:0:0:0:
329,192,106702,128,0,107026:0:0:0:0:
182,192,106702,1,2,0:0:0:0:
36,192,106702,1,0,0:0:0:0:
256,192,106864,1,0,0:0:0:0:
109,192,106864,128,0,107026:0:0:0:0:
182,192,107026,1,2,0:0:0:0:
475,192,107026,1,0,0:0:0:0:
36,192,107026,1,0,0:0:0:0:
329,192,107188,1,0,0:0:0:0:
182,192,107188,1,0,0:0:0:0:
256,192,107350,1,2,0:0:0:0:
109,192,107350,1,0,0:0:0:0:
402,192,107350,1,0,0:0:0:0:
36,192,107512,128,0,107675:0:0:0:0:
329,192,107512,1,0,0:0:0:0:
475,192,107512,1,0,0:0:0:0:
256,192,107675,128,0,107837:0:0:0:0:
402,192,107675,1,0,0:0:0:0:
182,192,107675,1,2,0:0:0:0:
109,192,107837,128,0,107999:0:0:0:0:
475,192,107837,1,0,0:0:0:0:
36,192,107837,1,0,0:0:0:0:
329,192,107999,128,0,108161:0:0:0:0:
182,192,107999,1,0,0:0:0:0:
256,192,107999,1,2,0:0:0:0:
475,192,108161,128,0,108323:0:0:0:0:
402,192,108161,1,0,0:0:0:0:
109,192,108161,1,0,0:0:0:0:
182,192,108323,128,0,108485:0:0:0:0:
36,192,108323,1,0,0:0:0:0:
256,192,108323,1,2,0:0:0:0:
329,192,108485,1,0,0:0:0:0:
109,192,108485,1,0,0:0:0:0:
402,192,108647,128,0,108810:0:0:0:0:
475,192,108647,1,0,0:0:0:0:
182,192,108647,1,2,0:0:0:0:
256,192,108810,128,0,108972:0:0:0:0:
329,192,108810,1,0,0:0:0:0:
36,192,108810,1,0,0:0:0:0:
109,192,108972,128,0,109620:0:0:0:0:
182,192,108972,1,2,0:0:0:0:
475,192,108972,1,0,0:0:0:0:
402,192,109134,1,0,0:0:0:0:
36,192,109296,128,0,109620:0:0:0:0:
475,192,109296,128,0,109620:0:0:0:0:
182,192,109296,1,0,0:0:0:0:
256,192,109458,128,0,109620:0:0:0:0:
329,192,109620,1,2,0:0:0:0:
402,192,109620,1,0,0:0:0:0:
256,192,109783,1,0,0:0:0:0:
36,192,109783,1,0,0:0:0:0:
182,192,109945,1,2,0:0:0:0:
109,192,109945,1,0,0:0:0:0:
475,192,109945,1,0,0:0:0:0:
329,192,110107,128,0,110269:0:0:0:0:
256,192,110107,1,0,0:0:0:0:
36,192,110107,1,0,0:0:0:0:
402,192,110269,128,0,110431:0:0:0:0:
182,192,110269,1,2,0:0:0:0:
475,192,110269,1,0,0:0:0:0:
256,192,110431,128,0,110593:0:0:0:0:
109,192,110431,1,0,0:0:0:0:
36,192,110431,1,0,0:0:0:0:
329,192,110593,128,0,110756:0:0:0:0:
475,192,110593,1,0,0:0:0:0:
402,192,110593,1,2,0:0:0:0:
182,192,110756,128,0,110918:0:0:0:0:
256,192,110756,1,0,0:0:0:0:
109,192,110756,1,0,0:0:0:0:
329,192,110918,1,0,0:0:0:0:
475,192,110918,1,2,0:0:0:0:
36,192,111080,128,0,111242:0:0:0:0:
402,192,111080,1,0,0:0:0:0:
182,192,111080,1,0,0:0:0:0:
256,192,111242,128,0,111404:0:0:0:0:
329,192,111242,1,2,0:0:0:0:
109,192,111242,1,0,0:0:0:0:
182,192,111404,1,0,0:0:0:0:
475,192,111404,1,0,0:0:0:0:
402,192,111566,128,0,112215:0:0:0:0:
329,192,111566,1,2,0:0:0:0:
36,192,111566,1,0,0:0:0:0:
109,192,111891,128,0,112215:0:0:0:0:
182,192,111891,1,2,0:0:0:0:
475,192,112215,128,0,113188:0:0:0:0:
36,192,112215,128,0,112377:0:0:0:0:
329,192,112215,1,2,0:0:0:0:
256,192,112377,1,0,0:0:0:0:
109,192,112539,128,0,112702:0:0:0:0:
402,192,112539,1,2,0:0:0:0:
256,192,112702,128,0,112864:0:0:0:0:
329,192,112702,1,0,0:0:0:0:
402,192,112864,128,0,113026:0:0:0:0:
109,192,112864,1,2,0:0:0:0:
329,192,113026,128,0,113188:0:0:0:0:
182,192,113026,1,0,0:0:0:0:
182,192,113188,128,0,113350:0:0:0:0:
36,192,113188,1,2,0:0:0:0:
256,192,113350,128,0,113512:0:0:0:0:
109,192,113350,1,0,0:0:0:0:
36,192,113512,1,2,0:0:0:0:
475,192,113512,1,0,0:0:0:0:
109,192,113675,1,0,0:0:0:0:
256,192,113837,128,0,114810:0:0:0:0:
182,192,113837,1,0,0:0:0:0:
402,192,113999,1,0,0:0:0:0:
36,192,114161,128,0,114323:0:0:0:0:
475,192,114161,128,0,114323:0:0:0:0:
329,192,114161,1,0,0:0:0:0:
402,192,114404,128,0,114566:0:0:0:0:
109,192,114404,128,0,114566:0:0:0:0:
329,192,114647,128,0,114810:0:0:0:0:
182,192,114647,128,0,114810:0:0:0:0:
475,192,114810,1,6,0:0:0:0:
36,192,114810,1,0,0:0:0:0:
