osu file format v8

[General]
AudioFilename: death note - 1 opening - nightmare - the world.mp3
AudioLeadIn: 0
PreviewTime: -1
Countdown: 1
SampleSet: Normal
StackLeniency: 0.7
Mode: 0
LetterboxInBreaks: 1

[Editor]
DistanceSpacing: 0.800000011920929
BeatDivisor: 8
GridSize: 32

[Metadata]
Title:opening 1
Artist:Death Note
Creator:panxo_x
Version:Hard
Source:
Tags:

[Difficulty]
HPDrainRate:5
CircleSize:5
OverallDifficulty:5
ApproachRate:5
SliderMultiplier:1.4
SliderTickRate:1

[Events]
//Background and Video events
0,0,"user107744_pic273162_1261582200.png"
//Break Periods
2,26531,37648
2,41014,45148
2,68737,70183
//Storyboard Layer 0 (Background)
//Storyboard Layer 1 (Fail)
//Storyboard Layer 2 (Pass)
//Storyboard Layer 3 (Foreground)
//Storyboard Sound Samples
//Background Colour Transformations
3,100,163,162,255

[TimingPoints]
8538.24137931034,413.793103448276,4,1,0,100,1,0

[Colours]
Combo1 : 64,0,0
Combo2 : 128,0,0
Combo3 : 0,0,0
Combo4 : 0,0,160

[HitObjects]
65,72,1917,1,0
184,101,2176,1,0
183,100,2279,1,0
98,284,2641,5,0
162,216,2900,1,0
237,274,3107,1,0
279,177,3417,1,0
331,105,3572,1,0
370,212,3831,1,0
432,289,4038,1,0
459,226,4193,2,0,C|456:60,1,157.5
352,64,4917,5,0
288,192,5176,1,0
256,288,5486,2,0,C|377:289,1,122.5
480,256,6055,1,0
416,192,6314,1,0
352,256,6572,1,0
338,188,6883,2,0,C|333:62|440:67,1,227.5
160,288,8020,1,0
224,282,8331,5,0
299,251,8589,1,0
368,214,8796,1,0
350,131,9003,1,0
255,146,9314,1,0
144,183,9676,1,0
189,61,10141,1,0
303,80,10400,1,0
413,70,10658,1,0
96,96,11434,5,0
160,192,11693,1,0
256,128,11900,2,0,C|320:192|320:96|384:96,1,245
224,256,13089,5,0
320,288,13400,1,0
416,256,13658,1,0
384,160,13865,1,0
384,160,14124,1,0
352,64,14383,1,0
256,64,14796,1,0
160,96,15158,1,0
128,256,15314,1,0
128,256,15520,1,0
160,160,16452,5,0
160,160,16607,1,0
256,192,16865,1,0
96,192,17900,5,0
160,224,18055,1,0
224,128,18314,1,0
288,192,18572,1,0
288,192,18779,1,0
416,256,18986,1,0
416,160,19503,1,0
352,96,19865,1,0
320,192,20227,1,0
288,128,20434,1,0
256,192,20796,2,0,C|64:256,1,192.5
96,128,21779,5,0
224,64,21986,1,0
384,192,22917,1,0
288,256,23176,1,0
256,192,23486,12,0,26331
160,96,38848,5,0
256,128,39107,1,0
256,192,39417,1,0
320,224,39727,1,0
416,256,40193,1,0
448,128,40503,1,0
352,64,40814,1,0
96,96,46348,5,0
160,96,46710,1,0
204,142,47072,1,0
224,64,47383,1,0
288,192,47693,1,0
320,128,47900,1,0
352,224,48210,1,0
352,320,48521,2,0,C|160:320,1,192.5
96,224,49555,1,0
160,160,49814,1,0
281,40,51521,5,0
391,65,51831,1,0
365,149,52193,1,0
386,236,52452,1,0
384,237,52710,1,0
254,199,53072,1,0
204,77,53383,1,0
96,64,53589,2,0,C|96:288|224:288,1,350
96,96,56538,5,0
160,96,56848,1,0
128,160,57158,1,0
192,192,57417,1,0
160,256,57831,1,0
224,320,58089,1,0
128,352,58400,1,0
64,352,58658,2,0,C|64:192,1,157.5
64,128,59796,5,0
160,128,60003,1,0
64,192,61038,6,0,C|192:192|192:320|352:320,1,420
288,160,62900,1,0
384,128,63210,1,0
416,256,63521,1,0
320,256,63779,1,0
96,64,65072,1,0
224,192,65745,1,0
160,320,66262,2,0,C|160:128|160:128|256:32,1,350
160,32,67555,2,0,C|160:128|160:128|256:320,1,332.5
64,128,71383,5,0
160,160,71952,1,0
288,96,72624,1,0
256,224,73245,1,0
352,160,73865,1,0
192,224,75831,5,0
192,224,76038,1,0
256,256,76245,1,0
320,192,77021,2,0,C|512:192,1,192.5
320,64,78158,2,0,C|512:64,1,192.5
224,64,79658,1,0
224,64,79865,1,0
160,128,80124,1,0
480,320,82141,5,0
416,256,82814,1,0
480,128,83383,1,0
288,32,83796,2,0,C|288:224|288:224|416:224,1,350
288,320,85555,1,0
224,288,85814,1,0
256,192,86124,1,0
352,128,86434,1,0
192,96,88245,5,0
256,96,88503,1,0
320,160,88762,1,0
384,32,88969,2,0,C|384:288|160:288,1,490
192,128,91089,5,0
352,96,91296,1,0
352,96,91503,1,0
416,160,91814,1,0
416,288,92021,1,0
416,288,92176,1,0
288,256,92434,1,0
256,192,92745,1,0
192,96,93055,1,0
384,64,93314,1,0
384,64,93572,1,0
480,192,93986,1,0
480,128,94400,5,0
448,64,94762,1,0
320,32,94969,1,0
256,64,95124,2,0,C|256:320,1,245
128,160,96521,5,0
224,160,96883,1,0
352,128,97089,1,0
416,160,97296,1,0
384,256,97658,1,0
288,320,98124,1,0
256,256,98538,1,0
256,160,98745,1,0
384,224,99055,1,0
96,128,99831,5,0
224,96,100038,1,0
224,192,100296,1,0
352,96,100452,2,0,C|352:288,1,227.5
256,96,101589,5,0
256,96,101796,1,0
384,32,102055,1,0
384,192,102262,1,0
384,192,102417,1,0
416,320,102727,1,0
288,288,103193,1,0
128,320,103607,1,0
32,192,103814,1,0
160,128,104072,1,0
192,160,104952,5,0
256,160,105158,1,0
320,256,105365,1,0
320,96,106193,5,0
384,192,106452,1,0
480,288,106814,1,0
352,352,106969,1,0
288,288,107176,1,0
224,192,107434,1,0
128,96,107796,1,0
224,32,108262,1,0
256,128,108572,1,0
352,160,108779,1,0
448,96,109089,1,0
96,96,110124,5,0
224,64,110383,2,0,C|224:224|320:224,1,262.5
416,256,111469,5,0
352,192,111831,1,0
320,128,112452,1,0
224,224,112710,1,0
224,224,112917,1,0
128,128,113279,1,0
192,32,113693,1,0
320,64,113900,1,0
416,64,114210,1,0
384,160,114986,2,0,C|256:160,1,122.5
256,224,115452,2,0,C|384:224,1,122.5
96,64,116641,5,0
352,160,116796,1,0
384,192,117158,1,0
448,256,117521,1,0
288,224,117779,1,0
192,64,117986,1,0
128,160,118710,1,0
288,96,119124,1,0
384,256,119279,1,0
