osu file format v13

[General]
AudioFilename: Death Grips - Exmilitary - 9 - 5D.mp3
AudioLeadIn: 0
PreviewTime: -1
Countdown: 0
SampleSet: None
StackLeniency: 0.7
Mode: 0
LetterboxInBreaks: 1
WidescreenStoryboard: 1

[Editor]
DistanceSpacing: 1.5
BeatDivisor: 2
GridSize: 16
TimelineZoom: 1

[Metadata]
Title:5D
TitleUnicode:5D
Artist:Death Grips
ArtistUnicode:Death Grips
Creator:brightside
Version:Hella
Source:
Tags:MEME RAP, NOIDED, eeeeeeeeEEEEEEEEEEEEH, Geath Drips
BeatmapID:622421
BeatmapSetID:260515

[Difficulty]
HPDrainRate:2
CircleSize:3.5
OverallDifficulty:5
ApproachRate:10
SliderMultiplier:1.4
SliderTickRate:1

[Events]
//Background and Video events
0,0,"4760734719_724c36ce1a_o.jpg",0,0
//Break Periods
//Storyboard Layer 0 (Background)
//Storyboard Layer 1 (Fail)
//Storyboard Layer 2 (Pass)
//Storyboard Layer 3 (Foreground)
//Storyboard Sound Samples

[TimingPoints]
500,288.461538461538,4,1,0,100,1,0
500,-200,4,1,0,100,0,0
5115,-66.6666666666667,4,1,0,100,0,0
12903,-133.333333333333,4,1,0,100,0,0

[Colours]
Combo1 : 255,255,255
Combo2 : 255,255,255
Combo3 : 255,255,255
Combo4 : 255,255,255

[HitObjects]
256,192,355,12,0,4826,0:0:0:0:
176,192,5115,5,0,0:0:0:0:
256,112,5259,1,0,0:0:0:0:
336,192,5403,1,0,0:0:0:0:
256,272,5548,1,0,0:0:0:0:
128,48,5692,1,0,0:0:0:0:
384,48,5836,1,0,0:0:0:0:
384,320,5980,1,0,0:0:0:0:
128,320,6124,1,0,0:0:0:0:
256,64,6269,5,0,0:0:0:0:
176,128,6413,1,0,0:0:0:0:
272,96,6557,5,0,0:0:0:0:
352,32,6701,1,0,0:0:0:0:
288,128,6846,5,0,0:0:0:0:
224,208,6990,1,0,0:0:0:0:
352,160,7134,5,0,0:0:0:0:
48,112,7278,1,0,0:0:0:0:
240,368,7423,1,0,0:0:0:0:
32,96,7567,1,0,0:0:0:0:
48,96,7711,1,0,0:0:0:0:
368,144,7855,1,0,0:0:0:0:
256,352,7999,1,0,0:0:0:0:
416,32,8144,5,0,0:0:0:0:
272,80,8288,1,0,0:0:0:0:
336,32,8432,5,0,0:0:0:0:
240,160,8576,1,0,0:0:0:0:
272,80,8721,5,0,0:0:0:0:
272,240,8865,1,0,0:0:0:0:
240,160,9009,5,0,0:0:0:0:
336,288,9153,1,0,0:0:0:0:
272,240,9298,5,0,0:0:0:0:
416,288,9442,1,0,0:0:0:0:
240,160,9586,5,0,0:0:0:0:
336,288,9730,1,0,0:0:0:0:
384,192,9874,5,0,0:0:0:0:
256,272,10019,1,0,0:0:0:0:
256,112,10163,1,0,0:0:0:0:
384,192,10307,5,0,0:0:0:0:
160,64,10451,1,0,0:0:0:0:
224,368,10596,1,0,0:0:0:0:
384,192,10740,5,0,0:0:0:0:
240,384,10884,1,0,0:0:0:0:
112,0,11028,1,0,0:0:0:0:
48,160,11173,5,0,0:0:0:0:
160,48,11317,1,0,0:0:0:0:
288,176,11461,1,0,0:0:0:0:
176,304,11605,1,0,0:0:0:0:
64,176,11749,5,0,0:0:0:0:
160,288,11894,1,0,0:0:0:0:
272,160,12038,1,0,0:0:0:0:
176,64,12182,1,0,0:0:0:0:
192,48,12326,5,0,0:0:0:0:
176,272,12471,1,0,0:0:0:0:
64,160,12615,1,0,0:0:0:0:
288,144,12759,1,0,0:0:0:0:
208,144,12903,6,0,L|272:96,1,52.5000020027161
224,144,13192,6,0,L|272:112,1,52.5000020027161
208,144,13480,6,0,L|160:192,1,52.5000020027161
192,144,13769,6,0,L|144:192,1,52.5000020027161
208,144,14057,6,0,L|208:208,1,52.5000020027161
512,112,14346,5,0,0:0:0:0:
0,240,14490,1,0,0:0:0:0:
0,112,14634,1,0,0:0:0:0:
512,240,14778,1,0,0:0:0:0:
416,0,14923,5,0,0:0:0:0:
96,384,15067,1,0,0:0:0:0:
96,0,15211,1,0,0:0:0:0:
384,384,15355,1,0,0:0:0:0:
192,192,15499,5,0,0:0:0:0:
256,128,15644,1,0,0:0:0:0:
320,192,15788,1,0,0:0:0:0:
256,256,15932,1,0,0:0:0:0:
192,128,16076,5,0,0:0:0:0:
320,128,16221,1,0,0:0:0:0:
320,256,16365,1,0,0:0:0:0:
192,256,16509,1,0,0:0:0:0:
128,192,16653,5,0,0:0:0:0:
256,64,16798,1,0,0:0:0:0:
384,192,16942,1,0,0:0:0:0:
256,320,17086,1,0,0:0:0:0:
128,64,17230,5,0,0:0:0:0:
384,64,17374,1,0,0:0:0:0:
384,320,17519,1,0,0:0:0:0:
128,320,17663,1,0,0:0:0:0:
192,256,17807,5,0,0:0:0:0:
320,256,17951,1,0,0:0:0:0:
320,128,18096,1,0,0:0:0:0:
192,128,18240,1,0,0:0:0:0:
208,192,18384,5,0,0:0:0:0:
256,144,18528,1,0,0:0:0:0:
304,192,18673,1,0,0:0:0:0:
256,240,18817,1,0,0:0:0:0:
288,80,18961,5,0,0:0:0:0:
160,288,19105,1,0,0:0:0:0:
368,32,19249,1,0,0:0:0:0:
80,336,19394,1,0,0:0:0:0:
192,96,19538,5,0,0:0:0:0:
320,288,19683,1,0,0:0:0:0:
224,32,19827,1,0,0:0:0:0:
288,352,19971,1,0,0:0:0:0:
96,0,20115,5,0,0:0:0:0:
400,80,20259,1,0,0:0:0:0:
400,0,20403,5,0,0:0:0:0:
96,160,20547,1,0,0:0:0:0:
96,80,20692,5,0,0:0:0:0:
400,240,20836,1,0,0:0:0:0:
400,160,20980,5,0,0:0:0:0:
96,240,21124,1,0,0:0:0:0:
96,0,21269,5,0,0:0:0:0:
400,240,21413,1,0,0:0:0:0:
400,0,21557,1,0,0:0:0:0:
96,240,21701,1,0,0:0:0:0:
144,80,21846,5,0,0:0:0:0:
352,160,21990,1,0,0:0:0:0:
352,80,22134,1,0,0:0:0:0:
144,160,22278,1,0,0:0:0:0:
192,0,22423,5,0,0:0:0:0:
320,0,22567,1,0,0:0:0:0:
320,256,22711,1,0,0:0:0:0:
192,256,22855,1,0,0:0:0:0:
240,0,22999,5,0,0:0:0:0:
272,0,23144,1,0,0:0:0:0:
272,256,23288,1,0,0:0:0:0:
240,256,23432,1,0,0:0:0:0:
144,48,23576,5,0,0:0:0:0:
240,256,23721,1,0,0:0:0:0:
160,160,23865,5,0,0:0:0:0:
384,256,24009,1,0,0:0:0:0:
240,256,24153,5,0,0:0:0:0:
448,128,24298,1,0,0:0:0:0:
160,160,24442,5,0,0:0:0:0:
384,256,24586,1,0,0:0:0:0:
144,48,24730,5,0,0:0:0:0:
240,256,24874,1,0,0:0:0:0:
336,48,25019,5,0,0:0:0:0:
128,160,25163,1,0,0:0:0:0:
304,272,25306,1,0,0:0:0:0:
336,64,25450,5,0,0:0:0:0:
344,72,25594,1,0,0:0:0:0:
272,328,25738,1,0,0:0:0:0:
80,128,25882,1,0,0:0:0:0:
336,48,26028,5,0,0:0:0:0:
328,56,26173,1,0,0:0:0:0:
40,72,26317,1,0,0:0:0:0:
320,360,26461,1,0,0:0:0:0:
352,48,26605,5,0,0:0:0:0:
312,128,26749,1,0,0:0:0:0:
272,40,26894,5,0,0:0:0:0:
192,80,27038,1,0,0:0:0:0:
144,24,27182,5,0,0:0:0:0:
48,24,27326,1,0,0:0:0:0:
208,128,27471,5,0,0:0:0:0:
128,184,27615,1,0,0:0:0:0:
360,112,27759,5,0,0:0:0:0:
288,208,27903,1,0,0:0:0:0:
448,96,28048,5,0,0:0:0:0:
192,208,28192,5,0,0:0:0:0:
320,176,28336,1,0,0:0:0:0:
128,176,28480,1,0,0:0:0:0:
384,208,28624,1,0,0:0:0:0:
64,208,28769,5,0,0:0:0:0:
448,176,28913,1,0,0:0:0:0:
0,176,29057,1,0,0:0:0:0:
512,208,29201,1,0,0:0:0:0:
64,208,29346,5,0,0:0:0:0:
448,176,29490,1,0,0:0:0:0:
128,176,29634,1,0,0:0:0:0:
384,208,29778,1,0,0:0:0:0:
256,192,29923,5,0,0:0:0:0:
192,128,30067,1,0,0:0:0:0:
320,256,30211,1,0,0:0:0:0:
320,128,30355,1,0,0:0:0:0:
256,64,30499,6,0,L|192:96,1,52.5000020027161
192,96,30788,6,0,L|128:160,1,52.5000020027161
128,160,31076,6,0,L|96:224,1,52.5000020027161
128,256,31365,5,0,0:0:0:0:
160,192,31509,1,0,0:0:0:0:
192,160,31653,5,0,0:0:0:0:
224,96,31798,1,0,0:0:0:0:
256,96,31942,5,0,0:0:0:0:
320,64,32086,1,0,0:0:0:0:
352,96,32230,5,0,0:0:0:0:
416,64,32374,1,0,0:0:0:0:
384,128,32519,5,0,0:0:0:0:
480,128,32663,1,0,0:0:0:0:
256,64,32807,5,0,0:0:0:0:
384,192,32951,1,0,0:0:0:0:
256,320,33096,1,0,0:0:0:0:
128,192,33240,1,0,0:0:0:0:
128,64,33384,5,0,0:0:0:0:
128,320,33528,1,0,0:0:0:0:
384,320,33673,1,0,0:0:0:0:
384,64,33817,1,0,0:0:0:0:
80,48,33961,6,0,P|108:35|128:64,1,52.5000020027161
128,64,34249,2,0,P|144:80|176:48,1,52.5000020027161
176,96,34538,2,0,P|208:96|224:112,1,52.5000020027161
224,128,34826,2,0,P|240:144|272:144,1,52.5000020027161
320,64,35115,5,0,0:0:0:0:
400,128,35259,1,0,0:0:0:0:
320,80,35403,5,0,0:0:0:0:
400,192,35548,1,0,0:0:0:0:
320,96,35692,5,0,0:0:0:0:
400,256,35836,1,0,0:0:0:0:
320,112,35980,5,0,0:0:0:0:
400,320,36124,1,0,0:0:0:0:
176,16,36269,5,0,0:0:0:0:
112,96,36413,1,0,0:0:0:0:
176,176,36557,1,0,0:0:0:0:
112,256,36701,1,0,0:0:0:0:
176,336,36846,1,0,0:0:0:0:
112,256,36990,1,0,0:0:0:0:
176,176,37134,1,0,0:0:0:0:
112,96,37278,1,0,0:0:0:0:
256,16,37423,5,0,0:0:0:0:
432,48,37567,1,0,0:0:0:0:
304,64,37711,1,0,0:0:0:0:
480,176,37855,1,0,0:0:0:0:
256,16,37999,5,0,0:0:0:0:
80,48,38144,1,0,0:0:0:0:
208,64,38288,1,0,0:0:0:0:
32,176,38432,1,0,0:0:0:0:
256,64,38576,5,0,0:0:0:0:
256,192,38721,1,0,0:0:0:0:
256,128,38865,1,0,0:0:0:0:
256,256,39009,1,0,0:0:0:0:
256,128,39153,5,0,0:0:0:0:
256,256,39298,1,0,0:0:0:0:
256,64,39442,1,0,0:0:0:0:
256,192,39586,1,0,0:0:0:0:
368,64,39730,5,0,0:0:0:0:
448,64,39874,1,0,0:0:0:0:
320,112,40019,1,0,0:0:0:0:
496,112,40163,1,0,0:0:0:0:
368,160,40307,1,0,0:0:0:0:
448,160,40451,1,0,0:0:0:0:
384,112,40596,1,0,0:0:0:0:
432,112,40740,1,0,0:0:0:0:
208,192,40884,5,0,0:0:0:0:
256,112,41028,1,0,0:0:0:0:
256,272,41173,1,0,0:0:0:0:
304,192,41317,1,0,0:0:0:0:
176,192,41461,5,0,0:0:0:0:
256,304,41605,1,0,0:0:0:0:
256,80,41749,1,0,0:0:0:0:
336,192,41894,1,0,0:0:0:0:
256,256,42038,5,0,0:0:0:0:
208,128,42182,1,0,0:0:0:0:
336,192,42326,1,0,0:0:0:0:
256,320,42471,5,0,0:0:0:0:
384,144,42615,1,0,0:0:0:0:
176,48,42759,1,0,0:0:0:0:
0,384,42903,5,0,0:0:0:0:
512,0,43048,1,0,0:0:0:0:
