osu file format v13

[General]
AudioFilename: Death Grips - Exmilitary - 9 - 5D.mp3
AudioLeadIn: 0
PreviewTime: -1
Countdown: 0
SampleSet: None
StackLeniency: 0.7
Mode: 0
LetterboxInBreaks: 1
WidescreenStoryboard: 1

[Editor]
DistanceSpacing: 1
BeatDivisor: 2
GridSize: 4
TimelineZoom: 1

[Metadata]
Title:5D
TitleUnicode:5D
Artist:Death Grips
ArtistUnicode:Death Grips
Creator:brightside
Version:FIVE DIMENSIONS
Source:
Tags:MEME RAP, NOIDED, eeeeeeeeEEEEEEEEEEEEH, Geath Drips
BeatmapID:597569
BeatmapSetID:260515

[Difficulty]
HPDrainRate:7
CircleSize:4
OverallDifficulty:8
ApproachRate:10
SliderMultiplier:1.4
SliderTickRate:1

[Events]
//Background and Video events
0,0,"4760734719_724c36ce1a_o.jpg",0,0
//Break Periods
//Storyboard Layer 0 (Background)
//Storyboard Layer 1 (Fail)
//Storyboard Layer 2 (Pass)
//Storyboard Layer 3 (Foreground)
//Storyboard Sound Samples

[TimingPoints]
500,288.461538461538,4,1,0,100,1,0

[Colours]
Combo1 : 255,255,255
Combo2 : 255,255,255
Combo3 : 255,255,255
Combo4 : 255,255,255

[HitObjects]
256,192,500,12,0,4105,0:0:0:0:
304,48,5115,5,0,0:0:0:0:
160,160,5259,1,0,0:0:0:0:
288,192,5403,1,0,0:0:0:0:
384,128,5548,1,0,0:0:0:0:
176,288,5692,1,0,0:0:0:0:
368,240,5836,1,0,0:0:0:0:
256,112,5980,1,0,0:0:0:0:
288,336,6124,1,0,0:0:0:0:
112,128,6269,1,0,0:0:0:0:
432,80,6413,1,0,0:0:0:0:
224,192,6557,5,0,0:0:0:0:
304,48,6701,1,0,0:0:0:0:
432,320,6846,1,0,0:0:0:0:
64,272,6990,1,0,0:0:0:0:
256,288,7134,1,0,0:0:0:0:
224,96,7278,1,0,0:0:0:0:
368,160,7423,1,0,0:0:0:0:
160,304,7567,1,0,0:0:0:0:
176,176,7711,1,0,0:0:0:0:
320,240,7855,1,0,0:0:0:0:
48,48,7999,5,0,0:0:0:0:
144,224,8144,1,0,0:0:0:0:
256,48,8288,1,0,0:0:0:0:
384,224,8432,1,0,0:0:0:0:
464,48,8576,1,0,0:0:0:0:
448,336,8721,1,0,0:0:0:0:
336,48,8865,1,0,0:0:0:0:
256,336,9009,1,0,0:0:0:0:
160,48,9153,1,0,0:0:0:0:
96,336,9298,1,0,0:0:0:0:
256,192,9442,5,0,0:0:0:0:
336,128,9586,1,0,0:0:0:0:
160,256,9730,1,0,0:0:0:0:
176,128,9874,1,0,0:0:0:0:
336,256,10019,1,0,0:0:0:0:
256,112,10163,1,0,0:0:0:0:
256,272,10307,1,0,0:0:0:0:
112,192,10451,1,0,0:0:0:0:
384,192,10596,1,0,0:0:0:0:
256,192,10740,1,0,0:0:0:0:
32,352,10884,5,0,0:0:0:0:
96,288,11028,1,0,0:0:0:0:
256,272,11173,1,0,0:0:0:0:
256,352,11317,1,0,0:0:0:0:
480,352,11461,1,0,0:0:0:0:
424,288,11605,1,0,0:0:0:0:
152,212,11749,1,0,0:0:0:0:
372,212,11894,1,0,0:0:0:0:
200,112,12038,1,0,0:0:0:0:
304,112,12182,1,0,0:0:0:0:
256,192,12326,5,0,0:0:0:0:
180,288,12471,1,0,0:0:0:0:
348,344,12615,1,0,0:0:0:0:
312,260,12759,1,0,0:0:0:0:
252,344,12903,1,0,0:0:0:0:
152,176,13048,1,0,0:0:0:0:
356,44,13192,1,0,0:0:0:0:
240,48,13336,1,0,0:0:0:0:
352,172,13480,1,0,0:0:0:0:
432,104,13624,1,0,0:0:0:0:
436,244,13769,5,0,0:0:0:0:
276,268,13913,1,0,0:0:0:0:
276,128,14057,1,0,0:0:0:0:
368,340,14201,1,0,0:0:0:0:
376,124,14346,1,0,0:0:0:0:
444,344,14490,1,0,0:0:0:0:
300,232,14634,1,0,0:0:0:0:
440,200,14778,1,0,0:0:0:0:
244,344,14923,1,0,0:0:0:0:
192,120,15067,1,0,0:0:0:0:
124,252,15211,5,0,0:0:0:0:
184,72,15355,1,0,0:0:0:0:
256,252,15499,1,0,0:0:0:0:
60,140,15644,1,0,0:0:0:0:
292,140,15788,1,0,0:0:0:0:
96,304,15932,1,0,0:0:0:0:
180,40,16076,1,0,0:0:0:0:
300,304,16221,1,0,0:0:0:0:
36,136,16365,1,0,0:0:0:0:
352,120,16509,1,0,0:0:0:0:
432,264,16653,5,0,0:0:0:0:
344,52,16798,1,0,0:0:0:0:
248,268,16942,1,0,0:0:0:0:
432,264,17086,1,0,0:0:0:0:
344,52,17230,1,0,0:0:0:0:
248,268,17374,1,0,0:0:0:0:
432,264,17519,1,0,0:0:0:0:
344,52,17663,1,0,0:0:0:0:
248,268,17807,1,0,0:0:0:0:
432,264,17951,1,0,0:0:0:0:
344,180,18096,5,0,0:0:0:0:
240,144,18240,1,0,0:0:0:0:
152,72,18384,1,0,0:0:0:0:
68,208,18528,1,0,0:0:0:0:
336,340,18673,1,0,0:0:0:0:
192,208,18817,1,0,0:0:0:0:
432,104,18961,1,0,0:0:0:0:
120,340,19105,1,0,0:0:0:0:
312,72,19249,1,0,0:0:0:0:
260,344,19394,1,0,0:0:0:0:
420,268,19538,5,0,0:0:0:0:
292,156,19682,1,0,0:0:0:0:
84,100,19826,1,0,0:0:0:0:
404,48,19971,1,0,0:0:0:0:
204,268,20115,1,0,0:0:0:0:
204,120,20259,1,0,0:0:0:0:
312,256,20403,1,0,0:0:0:0:
360,128,20548,1,0,0:0:0:0:
472,216,20692,1,0,0:0:0:0:
188,204,20836,1,0,0:0:0:0:
392,328,20980,5,0,0:0:0:0:
280,328,21124,1,0,0:0:0:0:
384,224,21269,1,0,0:0:0:0:
272,216,21413,1,0,0:0:0:0:
400,104,21557,1,0,0:0:0:0:
236,88,21701,1,0,0:0:0:0:
472,40,21846,1,0,0:0:0:0:
152,40,21990,1,0,0:0:0:0:
316,156,22134,1,0,0:0:0:0:
328,268,22278,1,0,0:0:0:0:
48,340,22423,5,0,0:0:0:0:
256,192,22567,1,0,0:0:0:0:
368,292,22711,1,0,0:0:0:0:
144,276,22855,1,0,0:0:0:0:
248,332,22999,1,0,0:0:0:0:
376,184,23144,1,0,0:0:0:0:
136,156,23288,1,0,0:0:0:0:
268,44,23432,1,0,0:0:0:0:
256,192,23576,1,0,0:0:0:0:
304,284,23721,1,0,0:0:0:0:
420,48,23865,5,0,0:0:0:0:
456,300,24009,1,0,0:0:0:0:
352,104,24153,1,0,0:0:0:0:
368,292,24298,1,0,0:0:0:0:
296,160,24442,1,0,0:0:0:0:
288,252,24586,1,0,0:0:0:0:
224,188,24730,1,0,0:0:0:0:
228,232,24874,1,0,0:0:0:0:
180,200,25019,1,0,0:0:0:0:
180,212,25163,1,0,0:0:0:0:
248,208,25307,5,0,0:0:0:0:
140,340,25451,1,0,0:0:0:0:
336,340,25596,1,0,0:0:0:0:
420,56,25740,1,0,0:0:0:0:
88,64,25884,1,0,0:0:0:0:
448,284,26028,1,0,0:0:0:0:
268,80,26173,1,0,0:0:0:0:
52,280,26317,1,0,0:0:0:0:
356,216,26461,1,0,0:0:0:0:
244,300,26605,1,0,0:0:0:0:
100,152,26749,5,0,0:0:0:0:
220,212,26894,1,0,0:0:0:0:
388,112,27038,1,0,0:0:0:0:
340,320,27182,1,0,0:0:0:0:
256,116,27326,1,0,0:0:0:0:
140,320,27471,1,0,0:0:0:0:
168,96,27615,1,0,0:0:0:0:
248,336,27759,1,0,0:0:0:0:
412,204,27903,1,0,0:0:0:0:
164,244,28048,1,0,0:0:0:0:
320,236,28192,5,0,0:0:0:0:
416,336,28336,1,0,0:0:0:0:
464,248,28480,1,0,0:0:0:0:
440,92,28624,1,0,0:0:0:0:
300,124,28769,1,0,0:0:0:0:
396,176,28913,1,0,0:0:0:0:
232,216,29057,1,0,0:0:0:0:
108,100,29201,1,0,0:0:0:0:
88,304,29346,1,0,0:0:0:0:
284,320,29490,1,0,0:0:0:0:
208,108,29634,5,0,0:0:0:0:
152,296,29778,1,0,0:0:0:0:
344,232,29923,1,0,0:0:0:0:
388,336,30067,1,0,0:0:0:0:
216,192,30211,1,0,0:0:0:0:
244,324,30355,1,0,0:0:0:0:
296,92,30499,1,0,0:0:0:0:
420,216,30644,1,0,0:0:0:0:
304,232,30788,1,0,0:0:0:0:
140,264,30932,1,0,0:0:0:0:
104,140,31076,5,0,0:0:0:0:
200,80,31221,1,0,0:0:0:0:
368,116,31365,1,0,0:0:0:0:
360,296,31509,1,0,0:0:0:0:
460,112,31653,1,0,0:0:0:0:
456,328,31798,1,0,0:0:0:0:
244,192,31942,1,0,0:0:0:0:
244,324,32086,1,0,0:0:0:0:
344,216,32230,1,0,0:0:0:0:
132,248,32374,1,0,0:0:0:0:
332,324,32519,5,0,0:0:0:0:
432,232,32663,1,0,0:0:0:0:
240,112,32807,1,0,0:0:0:0:
212,268,32951,1,0,0:0:0:0:
312,184,33096,1,0,0:0:0:0:
432,52,33240,1,0,0:0:0:0:
440,336,33384,1,0,0:0:0:0:
352,96,33528,1,0,0:0:0:0:
308,304,33673,1,0,0:0:0:0:
420,208,33817,1,0,0:0:0:0:
108,200,33961,5,0,0:0:0:0:
112,308,34105,1,0,0:0:0:0:
188,196,34249,1,0,0:0:0:0:
192,320,34394,1,0,0:0:0:0:
256,196,34538,1,0,0:0:0:0:
260,320,34682,1,0,0:0:0:0:
336,48,34826,1,0,0:0:0:0:
340,344,34971,1,0,0:0:0:0:
424,152,35115,1,0,0:0:0:0:
424,332,35259,1,0,0:0:0:0:
48,44,35403,5,0,0:0:0:0:
144,216,35548,1,0,0:0:0:0:
132,40,35692,1,0,0:0:0:0:
224,212,35836,1,0,0:0:0:0:
212,40,35980,1,0,0:0:0:0:
300,216,36124,1,0,0:0:0:0:
228,124,36269,1,0,0:0:0:0:
136,136,36413,1,0,0:0:0:0:
52,136,36557,1,0,0:0:0:0:
56,224,36701,1,0,0:0:0:0:
324,56,36846,5,0,0:0:0:0:
476,56,36990,1,0,0:0:0:0:
472,244,37134,1,0,0:0:0:0:
316,236,37278,1,0,0:0:0:0:
392,144,37423,1,0,0:0:0:0:
392,312,37567,1,0,0:0:0:0:
400,56,37711,1,0,0:0:0:0:
296,152,37855,1,0,0:0:0:0:
472,160,37999,1,0,0:0:0:0:
388,232,38144,1,0,0:0:0:0:
136,128,38288,5,0,0:0:0:0:
184,284,38432,1,0,0:0:0:0:
240,100,38576,1,0,0:0:0:0:
284,264,38721,1,0,0:0:0:0:
340,104,38865,1,0,0:0:0:0:
84,240,39009,1,0,0:0:0:0:
312,208,39153,1,0,0:0:0:0:
344,320,39298,1,0,0:0:0:0:
204,200,39442,1,0,0:0:0:0:
216,324,39586,1,0,0:0:0:0:
92,72,39730,5,0,0:0:0:0:
456,64,39874,1,0,0:0:0:0:
436,272,40019,1,0,0:0:0:0:
364,96,40163,1,0,0:0:0:0:
440,176,40307,1,0,0:0:0:0:
208,100,40451,1,0,0:0:0:0:
256,280,40596,1,0,0:0:0:0:
280,112,40740,1,0,0:0:0:0:
344,240,40884,1,0,0:0:0:0:
68,216,41028,1,0,0:0:0:0:
152,252,41173,5,0,0:0:0:0:
272,184,41317,1,0,0:0:0:0:
364,324,41461,1,0,0:0:0:0:
420,112,41605,1,0,0:0:0:0:
452,296,41749,1,0,0:0:0:0:
312,88,41894,1,0,0:0:0:0:
312,240,42038,1,0,0:0:0:0:
108,120,42182,1,0,0:0:0:0:
212,288,42326,1,0,0:0:0:0:
256,192,42471,12,0,43138,0:0:0:0:
