osu file format v14

[General]
AudioFilename: PMD_ Explorers of Sky OST_ The Power of Darkness.mp3
AudioLeadIn: 0
PreviewTime: -1
Countdown: 1
SampleSet: None
StackLeniency: 0.7
Mode: 0
LetterboxInBreaks: 1
WidescreenStoryboard: 1

[Editor]
DistanceSpacing: 0.8
BeatDivisor: 4
GridSize: 32
TimelineZoom: 1

[Metadata]
Title:The Power of Darkness
TitleUnicode:The Power of Darkness
Artist:Death
ArtistUnicode:Death
Creator:Sticky-sama
Version:Your Partner
Source:Pokemon Mystery Dungeon: Explorers of Sky/Time/Darkness
Tags:
BeatmapID:680675
BeatmapSetID:303771

[Difficulty]
HPDrainRate:0
CircleSize:4
OverallDifficulty:4
ApproachRate:4
SliderMultiplier:1.4
SliderTickRate:1

[Events]
//Background and Video events
0,0,"osubg.png",0,0
//Break Periods
//Storyboard Layer 0 (Background)
//Storyboard Layer 1 (Fail)
//Storyboard Layer 2 (Pass)
//Storyboard Layer 3 (Foreground)
//Storyboard Sound Samples

[TimingPoints]
684.585365853658,600,5,1,0,100,1,0

[Colours]
Combo1 : 255,255,255
Combo2 : 0,0,0
Combo3 : 255,255,0
Combo4 : 255,0,0
Combo5 : 128,128,128
Combo6 : 225,225,255

[HitObjects]
96,256,384,5,0,0:0:0:0:
96,256,684,1,0,0:0:0:0:
256,192,2784,1,0,0:0:0:0:
256,192,3084,1,0,0:0:0:0:
128,192,5334,1,0,0:0:0:0:
352,128,5634,1,0,0:0:0:0:
256,192,8184,1,0,0:0:0:0:
256,192,8634,5,0,0:0:0:0:
256,96,10734,1,0,0:0:0:0:
256,256,11034,1,0,0:0:0:0:
256,96,13584,1,0,0:0:0:0:
256,256,13884,1,0,0:0:0:0:
256,256,15984,1,0,0:0:0:0:
256,160,16434,1,0,0:0:0:0:
256,96,18234,1,0,0:0:0:0:
256,224,18834,1,0,0:0:0:0:
256,288,19134,1,0,0:0:0:0:
256,288,20634,5,0,0:0:0:0:
256,192,21234,1,0,0:0:0:0:
256,128,21684,1,0,0:0:0:0:
256,96,23484,5,0,0:0:0:0:
256,160,24084,5,0,0:0:0:0:
256,256,24834,5,0,0:0:0:0:
160,192,25584,5,0,0:0:0:0:
192,96,26184,5,0,0:0:0:0:
288,128,26784,1,0,0:0:0:0:
256,192,27084,5,0,0:0:0:0:
256,96,29334,1,0,0:0:0:0:
256,192,29784,1,0,0:0:0:0:
256,352,31434,1,0,0:0:0:0:
256,288,32184,1,0,0:0:0:0:
256,160,32484,1,0,0:0:0:0:
256,96,34734,1,0,0:0:0:0:
256,192,35034,1,0,0:0:0:0:
256,192,36834,1,0,0:0:0:0:
256,128,37134,1,0,0:0:0:0:
256,96,37584,1,0,0:0:0:0:
256,192,39984,1,0,0:0:0:0:
288,128,40284,1,0,0:0:0:0:
256,192,42834,5,0,0:0:0:0:
256,288,43134,5,0,0:0:0:0:
160,192,44934,1,0,0:0:0:0:
256,192,45384,1,0,0:0:0:0:
352,192,45684,1,0,0:0:0:0:
256,64,47484,5,0,0:0:0:0:
256,128,48084,1,0,0:0:0:0:
256,192,48384,1,0,0:0:0:0:
256,288,49884,1,0,0:0:0:0:
256,160,50484,5,0,0:0:0:0:
256,96,51234,5,0,0:0:0:0:
256,224,51834,5,0,0:0:0:0:
192,160,52584,5,0,0:0:0:0:
320,160,53184,5,0,0:0:0:0:
288,192,53484,1,0,0:0:0:0:
256,192,56034,1,0,0:0:0:0:
160,192,56334,1,0,0:0:0:0:
32,192,58584,5,0,0:0:0:0:
480,192,58884,1,0,0:0:0:0:
256,192,61434,1,0,0:0:0:0:
128,96,61734,1,0,0:0:0:0:
256,288,63984,1,0,0:0:0:0:
256,192,64284,1,0,0:0:0:0:
256,192,66684,5,0,0:0:0:0:
256,288,66984,1,0,0:0:0:0:
256,288,69384,1,0,0:0:0:0:
256,224,69684,5,0,0:0:0:0:
256,128,71334,1,0,0:0:0:0:
256,192,71934,1,0,0:0:0:0:
256,256,72234,1,0,0:0:0:0:
256,288,73884,1,0,0:0:0:0:
256,224,74634,1,0,0:0:0:0:
288,128,74934,1,0,0:0:0:0:
256,128,76584,5,0,0:0:0:0:
256,192,77334,1,0,0:0:0:0:
256,288,77784,5,0,0:0:0:0:
128,288,78684,5,0,0:0:0:0:
160,128,79134,1,0,0:0:0:0:
288,96,79884,5,0,0:0:0:0:
288,160,80184,1,0,0:0:0:0:
256,192,82734,1,0,0:0:0:0:
192,192,83034,1,0,0:0:0:0:
256,192,84684,5,0,0:0:0:0:
192,192,85284,1,0,0:0:0:0:
64,192,85584,1,0,0:0:0:0:
256,192,88134,1,0,0:0:0:0:
256,128,88434,1,0,0:0:0:0:
256,192,90534,1,0,0:0:0:0:
224,192,90834,1,0,0:0:0:0:
256,192,93234,5,0,0:0:0:0:
160,160,93534,1,0,0:0:0:0:
256,192,95784,5,0,0:0:0:0:
256,96,96084,1,0,0:0:0:0:
256,96,98034,1,0,0:0:0:0:
256,160,98634,5,0,0:0:0:0:
288,224,98934,1,0,0:0:0:0:
256,224,100584,1,0,0:0:0:0:
256,192,101184,5,0,0:0:0:0:
256,128,101484,1,0,0:0:0:0:
256,64,103284,1,0,0:0:0:0:
256,128,103734,5,0,0:0:0:0:
256,192,104484,5,0,0:0:0:0:
256,256,105084,5,0,0:0:0:0:
128,224,105834,5,0,0:0:0:0:
128,128,106434,5,0,0:0:0:0:
192,128,106734,1,0,0:0:0:0:
224,192,109134,1,0,0:0:0:0:
320,192,109434,5,0,0:0:0:0:
256,192,111834,5,0,0:0:0:0:
192,192,112134,1,0,0:0:0:0:
256,128,114534,1,0,0:0:0:0:
256,192,114834,1,0,0:0:0:0:
