osu file format v14

[General]
AudioFilename: Deadmau5_feat_Chris_James_-_The_Veldt_Radio_Edit (1).mp3
AudioLeadIn: 0
PreviewTime: -1
Countdown: 0
SampleSet: Soft
StackLeniency: 0.7
Mode: 0
LetterboxInBreaks: 0
CountdownOffset: 1
WidescreenStoryboard: 0

[Editor]
Bookmarks: 15005,30005,34778
DistanceSpacing: 1.3
BeatDivisor: 4
GridSize: 4
TimelineZoom: 1

[Metadata]
Title:The Veldt (Radio Edit)
TitleUnicode:The Veldt (Radio Edit)
Artist:Deadmau5 ft. Chris James
ArtistUnicode:Deadmau5 ft. Chris James
Creator:YellowManul
Version:Hard
Source:
Tags:mau5trap recordings MAU5051B progressive house male vocal relax deadmaus bakari
BeatmapID:199525
BeatmapSetID:69106

[Difficulty]
HPDrainRate:7
CircleSize:4
OverallDifficulty:7
ApproachRate:7
SliderMultiplier:1.6
SliderTickRate:1

[Events]
//Background and Video events
0,0,"21750-1024x768.jpg",0,0
//Break Periods
2,122080,130355
//Storyboard Layer 0 (Background)
//Storyboard Layer 1 (Fail)
//Storyboard Layer 2 (Pass)
//Storyboard Layer 3 (Foreground)
//Storyboard Sound Samples

[TimingPoints]
15005,468.75,4,2,0,60,1,0
44770,-100,4,2,0,70,0,1
59770,-100,4,2,0,60,0,0
60005,-100,4,2,0,50,0,0
89770,-100,4,2,0,70,0,1
119067,-100,4,2,0,60,0,0
134770,-100,4,2,0,70,0,1
164770,-100,4,2,0,50,0,0
165005,-100,4,2,0,45,0,0
165473,-100,4,2,0,40,0,0
165942,-100,4,2,0,30,0,0
166411,-100,4,2,0,20,0,0
166880,-100,4,2,0,15,0,0
167348,-100,4,2,0,10,0,0
167817,-100,4,2,0,5,0,0

[Colours]
Combo1 : 255,232,243
Combo2 : 204,230,255
Combo3 : 204,204,255

[HitObjects]
436,72,15005,6,0,P|396:144|400:232,1,160
468,284,15708,1,0,0:0:0:0:
376,312,15942,1,0,0:0:0:0:
360,304,16411,1,0,0:0:0:0:
344,300,16880,6,0,P|280:304|240:328,1,80
256,184,17348,1,0,0:0:0:0:
152,200,17583,2,0,P|164:276|136:360,2,160
56,212,18755,5,0,0:0:0:0:
80,120,18989,1,0,0:0:0:0:
176,108,19223,1,0,0:0:0:0:
236,32,19458,2,0,P|276:104|232:192,1,160
320,240,20161,1,0,0:0:0:0:
404,84,20630,6,0,P|428:120|456:168,1,80
424,244,21098,1,2,0:0:0:0:
320,240,21567,2,0,P|304:280|280:332,1,80
196,340,22036,1,2,0:0:0:0:
128,272,22270,1,2,0:0:0:0:
36,240,22505,6,0,P|80:188|176:192,1,160,0|2,0:0|0:0,0:0:0:0:
256,148,23208,1,0,0:0:0:0:
176,96,23442,1,0,0:0:0:0:
256,148,23676,2,0,L|344:160,1,80,0|2,0:0|0:0,0:0:0:0:
408,72,24380,5,0,0:0:0:0:
452,184,24614,1,0,0:0:0:0:
380,248,24848,2,0,L|300:284,1,80,2|0,0:0|0:0,0:0:0:0:
132,356,25551,1,0,0:0:0:0:
32,312,25786,1,2,0:0:0:0:
120,248,26020,1,2,0:0:0:0:
120,248,26255,6,0,L|40:196,1,80
124,140,26723,1,2,0:0:0:0:
40,96,26958,2,0,P|92:48|176:60,1,160
268,48,27661,1,2,0:0:0:0:
232,136,27895,1,0,0:0:0:0:
268,48,28130,6,0,L|324:112,1,80,2|2,0:0|0:0,0:0:0:0:
392,64,28598,1,2,0:0:0:0:
360,188,28833,1,2,0:0:0:0:
272,176,29067,2,0,L|192:208,2,80,2|2|2,0:0|0:0|0:0,0:0:0:0:
156,284,29770,1,2,0:0:0:0:
100,204,30005,6,0,L|20:236,1,80,0|0,1:0|0:0,0:0:0:0:
8,92,30473,1,8,0:0:0:0:
80,28,30708,1,0,0:0:0:0:
168,68,30942,2,0,P|240:88|328:64,1,160,0|8,0:0|0:0,0:0:0:0:
416,80,31645,1,0,0:0:0:0:
352,152,31880,5,0,1:0:0:0:
412,224,32114,2,0,B|400:252|424:304|424:304|384:316|328:360,1,160,0|8,0:0|0:0,0:0:0:0:
260,344,32817,1,0,0:0:0:0:
260,344,33051,1,0,0:0:0:0:
196,272,33285,1,8,0:0:0:0:
108,312,33520,1,0,0:0:0:0:
196,272,33755,6,0,L|252:216,2,80,0|0|8,1:0|0:0|0:0,0:0:0:0:
112,224,34458,1,0,0:0:0:0:
88,104,34692,2,0,P|52:92|-8:68,2,80,0|0|8,0:0|0:0|0:0,0:0:0:0:
252,208,35395,1,0,0:0:0:0:
252,208,35630,5,0,1:0:0:0:
316,140,35864,1,0,0:0:0:0:
412,148,36098,2,0,L|464:212,1,80,10|2,0:0|0:0,0:0:0:0:
468,308,36567,1,2,0:0:0:0:
376,260,36801,1,2,0:0:0:0:
316,140,37036,2,0,L|248:216,2,80,10|2|0,0:0|0:0|1:0,0:0:0:0:
152,40,37739,5,0,0:0:0:0:
208,116,37973,1,8,0:0:0:0:
116,124,38208,1,0,0:0:0:0:
116,124,38442,2,0,P|128:200|108:280,1,160,0|8,0:0|0:0,0:0:0:0:
20,260,39145,1,0,0:0:0:0:
108,280,39380,6,0,L|180:316,1,80,0|0,1:0|0:0,0:0:0:0:
260,344,39848,1,8,0:0:0:0:
292,256,40083,2,0,B|348:244|384:288|384:288|432:268|472:272,1,160
484,188,40786,1,8,0:0:0:0:
388,172,41020,1,0,0:0:0:0:
332,93,41255,6,0,L|252:137,1,80,0|2,1:0|0:0,0:0:0:0:
292,220,41723,1,8,0:0:0:0:
292,220,41958,2,0,B|232:232|200:284|164:252|132:248,1,160
72,184,42661,1,8,0:0:0:0:
256,192,42895,12,0,44301,0:0:0:0:
384,124,44770,6,0,P|360:208|216:172,1,240,0|8,0:0|0:0,0:0:0:0:
220,100,45708,1,0,0:0:0:0:
148,164,45942,1,0,0:0:0:0:
108,76,46176,2,0,L|32:116,1,80,0|8,0:0|0:0,0:0:0:0:
52,224,46645,1,0,0:0:0:0:
128,280,46880,5,0,0:0:0:0:
128,280,47114,2,0,L|200:320,1,80,0|8,0:0|0:0,0:0:0:0:
200,216,47583,2,0,P|260:176|344:196,1,160
296,280,48286,1,8,0:0:0:0:
452,336,48755,6,0,L|376:312,2,80,0|0|8,0:0|0:0|0:0,0:0:0:0:
440,240,49458,1,0,0:0:0:0:
372,172,49692,1,0,0:0:0:0:
464,152,49926,1,0,0:0:0:0:
464,152,50161,2,0,P|412:88|340:84,1,160,8|0,0:0|0:0,0:0:0:0:
244,48,50864,5,0,0:0:0:0:
236,144,51098,1,8,0:0:0:0:
136,112,51333,2,0,P|136:184|200:244,1,160
284,228,52036,2,0,L|360:200,1,80,8|0,0:0|0:0,0:0:0:0:
392,112,52505,6,0,P|444:172|432:264,1,160,0|8,0:0|0:0,0:0:0:0:
432,348,53208,2,0,L|516:324,2,80
348,300,53911,1,8,0:0:0:0:
264,252,54145,1,0,0:0:0:0:
348,204,54380,6,0,L|272:152,2,80,0|0|8,0:0|0:0|0:0,0:0:0:0:
408,100,55083,2,0,L|248:80,1,160
168,40,55786,1,8,0:0:0:0:
172,136,56020,1,0,0:0:0:0:
172,136,56255,6,0,P|140:228|72:280,1,160,0|8,0:0|0:0,0:0:0:0:
56,180,56958,2,0,L|16:108,2,80
96,268,57661,1,8,0:0:0:0:
184,232,57895,1,0,0:0:0:0:
148,144,58130,5,0,0:0:0:0:
148,144,58364,2,0,P|216:144|276:228,1,160
360,156,59067,1,0,0:0:0:0:
352,248,59301,2,0,P|371:282|400:312,2,80,0|8|0,0:0|0:0|0:0,0:0:0:0:
440,208,60005,6,0,P|376:160|292:148,1,160,0|8,0:0|0:0,0:0:0:0:
136,48,60708,1,0,0:0:0:0:
124,144,60942,1,0,0:0:0:0:
236,208,61176,1,8,0:0:0:0:
248,112,61410,1,8,0:0:0:0:
380,152,61645,6,0,L|448:212,1,80,0|0,0:0|1:0,0:0:0:0:
484,280,62114,1,0,0:0:0:0:
392,300,62348,1,8,0:0:0:0:
316,244,62583,2,0,P|244:208|148:224,1,160
104,288,63286,1,8,0:0:0:0:
72,200,63520,1,0,0:0:0:0:
72,200,63755,6,0,L|20:136,1,80,0|0,1:0|0:0,0:0:0:0:
80,68,64223,1,8,0:0:0:0:
176,84,64458,2,0,L|232:152,2,80
264,44,65161,1,8,0:0:0:0:
264,44,65395,1,0,0:0:0:0:
356,76,65630,5,2,0:0:0:0:
356,76,65864,2,2,L|464:56,1,80,2|10,0:0|0:0,0:0:0:0:
480,148,66333,1,2,0:0:0:0:
412,216,66567,1,2,0:0:0:0:
320,188,66801,2,2,L|256:252,2,80,2|10|2,0:0|0:0|0:0,0:0:0:0:
228,152,67505,6,0,L|160:92,1,80,0|0,1:0|0:0,0:0:0:0:
84,140,67973,1,10,0:0:0:0:
88,44,68208,1,0,0:0:0:0:
84,140,68442,2,0,P|108:204|92:296,1,160,0|10,0:0|0:0,0:0:0:0:
184,256,69145,1,0,0:0:0:0:
212,348,69380,5,0,1:0:0:0:
296,300,69614,2,8,L|372:272,1,80,0|10,0:0|0:0,0:0:0:0:
312,184,70083,2,0,B|368:176|384:160|384:160|412:172|481:172,2,160,2|0|2,0:0|0:0|0:0,0:0:0:0:
204,160,71255,5,2,0:0:0:0:
276,96,71489,1,0,0:0:0:0:
276,96,71723,1,10,0:0:0:0:
184,68,71958,2,0,P|116:108|108:184,1,160
204,160,72661,1,10,0:0:0:0:
168,248,72895,6,2,L|224:312,1,80,0|0,0:0|0:0,0:0:0:0:
312,340,73364,1,2,0:0:0:0:
384,276,73598,1,10,0:0:0:0:
344,188,73833,1,2,0:0:0:0:
440,193,74067,2,2,L|400:104,1,80
312,116,74536,2,2,L|352:208,1,80,10|2,0:0|0:0,0:0:0:0:
264,248,75005,5,0,1:0:0:0:
176,212,75239,1,0,0:0:0:0:
204,100,75473,2,0,P|120:104|72:160,1,160,8|0,0:0|0:0,0:0:0:0:
88,260,76176,1,0,0:0:0:0:
168,312,76411,1,8,0:0:0:0:
256,280,76645,1,0,0:0:0:0:
308,200,76880,6,0,L|384:256,2,80,0|0|8,1:0|0:0|0:0,0:0:0:0:
256,120,77583,2,0,P|328:96|408:120,2,160
168,84,78755,6,0,L|84:24,2,80,0|0|8,1:0|0:0|0:0,0:0:0:0:
200,176,79458,2,0,P|160:232|164:332,1,160
236,264,80161,2,0,P|296:240|384:272,1,160,0|0,0:0|1:0,0:0:0:0:
436,192,80864,5,2,0:0:0:0:
384,272,81098,1,10,0:0:0:0:
436,192,81333,2,2,L|368:136,1,80
208,96,81801,2,2,L|124:120,2,80,2|10|2,0:0|0:0|0:0,0:0:0:0:
188,192,82505,5,0,1:0:0:0:
276,160,82739,1,0,0:0:0:0:
368,140,82973,1,8,0:0:0:0:
452,188,83208,1,0,0:0:0:0:
396,264,83442,2,0,L|496:312,2,80,0|0|8,0:0|0:0|0:0,0:0:0:0:
104,228,84380,6,0,L|20:268,2,80,0|0|8,0:0|0:0|0:0,0:0:0:0:
64,140,85083,2,0,P|152:144|196:200,1,160
248,124,85786,1,8,1:0:0:0:
332,80,86020,1,0,0:0:0:0:
328,168,86255,6,0,L|388:252,2,80,0|0|8,1:0|0:0|0:0,0:0:0:0:
224,236,86958,2,0,P|256:300|348:312,1,160
408,248,87661,1,8,0:0:0:0:
256,192,87895,12,0,89301,0:0:0:0:
80,80,89770,6,0,P|104:132|80:240,1,160
92,328,90473,1,8,0:0:0:0:
180,292,90708,1,0,0:0:0:0:
272,260,90942,1,0,0:0:0:0:
360,224,91176,2,0,L|452:188,2,80,0|8|0,0:0|0:0|0:0,0:0:0:0:
292,140,91880,5,0,0:0:0:0:
340,60,92113,1,0,0:0:0:0:
244,64,92348,1,8,0:0:0:0:
244,64,92583,2,0,P|208:112|244:216,2,160
308,148,93755,6,0,L|396:184,2,80,0|0|8,0:0|0:0|0:0,0:0:0:0:
244,220,94458,1,0,0:0:0:0:
164,168,94692,2,0,B|108:248|160:340,1,160,0|8,0:0|0:0,0:0:0:0:
244,316,95395,1,0,0:0:0:0:
328,268,95630,5,0,0:0:0:0:
376,184,95864,2,0,P|312:136|224:136,1,160
164,64,96567,1,0,0:0:0:0:
88,120,96801,1,0,0:0:0:0:
140,196,97036,2,0,P|152:224|208:264,1,80,8|0,0:0|0:0,0:0:0:0:
256,180,97505,6,0,P|276:256|256:340,1,160,0|8,0:0|0:0,0:0:0:0:
352,308,98208,2,0,P|416:280|460:280,2,80
460,212,98911,1,8,0:0:0:0:
402,134,99145,1,0,0:0:0:0:
432,60,99380,6,0,L|396:152,1,80
332,192,99848,1,8,0:0:0:0:
300,100,100083,2,0,P|240:156|248:240,1,160
160,276,100786,1,8,0:0:0:0:
152,180,101020,1,0,0:0:0:0:
88,108,101255,6,0,L|0:60,2,80,0|0|8,0:0|0:0|0:0,0:0:0:0:
60,200,101958,1,0,0:0:0:0:
152,180,102192,2,0,P|216:208|264:292,1,160,0|8,0:0|0:0,0:0:0:0:
324,356,102895,1,0,0:0:0:0:
356,264,103130,6,0,L|464:232,2,80,0|0|8,0:0|0:0|0:0,0:0:0:0:
360,168,103833,1,0,0:0:0:0:
224,144,104067,1,0,0:0:0:0:
224,144,104301,2,0,L|152:180,1,80,0|8,0:0|0:0,0:0:0:0:
32,76,104770,6,0,B|56:128|56:196|28:248,1,160
100,304,105473,1,8,0:0:0:0:
160,228,105708,2,0,P|240:236|296:292,1,160
336,200,106411,1,8,0:0:0:0:
396,276,106645,1,0,0:0:0:0:
432,188,106880,6,0,L|492:136,2,80,0|0|8,0:0|0:0|0:0,0:0:0:0:
368,108,107583,2,0,P|292:112|236:176,2,160
320,204,108755,5,0,0:0:0:0:
320,204,108989,2,0,P|362:267|350:358,1,160
276,292,109692,2,0,L|200:332,2,80,0|0|8,0:0|0:0|0:0,0:0:0:0:
220,212,110395,1,0,0:0:0:0:
320,204,110630,6,0,L|404:228,1,80
364,124,111098,1,8,0:0:0:0:
300,68,111333,2,0,P|216:80|160:132,1,160
64,108,112036,5,8,0:0:0:0:
64,108,112270,1,0,0:0:0:0:
64,108,112505,2,0,P|72:176|32:264,1,160,0|8,0:0|0:0,0:0:0:0:
136,324,113208,2,0,L|216:296,2,80
160,232,113911,1,8,0:0:0:0:
252,212,114145,1,0,0:0:0:0:
252,212,114380,6,0,P|344:172|420:184,1,160,0|8,0:0|0:0,0:0:0:0:
364,264,115083,2,0,P|272:304|196:292,1,160
160,232,115786,1,8,0:0:0:0:
80,276,116020,1,0,0:0:0:0:
80,188,116255,6,0,L|44:116,2,80,0|0|8,0:0|0:0|0:0,0:0:0:0:
216,136,116958,1,0,0:0:0:0:
308,168,117192,2,0,P|380:136|456:168,1,160,0|8,0:0|0:0,0:0:0:0:
488,252,117895,1,0,0:0:0:0:
392,232,118130,6,0,L|316:280,1,80
264,352,118598,1,8,0:0:0:0:
220,264,118833,1,0,0:0:0:0:
256,192,119067,12,0,121880,0:0:0:0:
256,192,131255,12,0,134301,0:0:0:0:
80,152,134770,6,0,P|96:196|68:308,1,160
148,364,135473,1,8,0:0:0:0:
176,272,135708,2,0,P|220:272|256:292,1,80
364,320,136176,1,0,0:0:0:0:
340,228,136411,1,8,0:0:0:0:
264,164,136645,1,0,0:0:0:0:
188,96,136880,6,0,P|156:76|96:64,2,80,0|0|8,0:0|0:0|0:0,0:0:0:0:
172,192,137583,2,0,P|116:240|88:328,2,160
200,284,138755,5,0,0:0:0:0:
272,220,138989,1,0,0:0:0:0:
352,272,139223,1,8,0:0:0:0:
412,196,139458,2,0,L|488:148,2,80
336,136,140161,1,8,0:0:0:0:
244,112,140395,1,0,0:0:0:0:
160,156,140630,6,0,L|72:188,1,80
148,252,141098,1,8,0:0:0:0:
52,252,141333,2,0,P|80:328|172:352,1,160
260,288,142036,1,8,0:0:0:0:
260,288,142270,1,0,0:0:0:0:
260,288,142505,6,0,P|320:248|404:256,1,160,0|8,0:0|0:0,0:0:0:0:
432,148,143208,2,0,L|368:88,2,80
368,232,143911,1,8,0:0:0:0:
304,164,144145,1,0,0:0:0:0:
224,220,144380,6,0,L|132:172,1,80
216,112,144848,1,8,0:0:0:0:
120,104,145083,2,0,P|76:148|96:244,2,160
192,40,146255,6,0,L|280:68,1,80
296,144,146723,1,8,0:0:0:0:
368,80,146958,1,0,0:0:0:0:
368,80,147192,2,0,P|400:156|384:244,1,160,0|8,0:0|0:0,0:0:0:0:
292,236,147895,2,0,L|212:304,1,80
84,324,148364,5,0,0:0:0:0:
96,228,148598,1,8,0:0:0:0:
180,280,148833,2,0,P|220:288|276:268,2,80
140,124,149536,1,8,0:0:0:0:
212,188,149770,6,0,B|260:176|272:136|272:136|308:184|308:184|332:148|372:148|392:148,1,240,0|8,0:0|0:0,0:0:0:0:
380,244,150708,2,0,P|328:304|248:312,2,160
456,176,151880,5,0,0:0:0:0:
388,112,152114,1,0,0:0:0:0:
320,180,152348,1,8,0:0:0:0:
260,100,152583,2,0,P|224:164|264:252,2,160
164,88,153755,5,0,0:0:0:0:
84,36,153989,1,0,0:0:0:0:
72,132,154223,2,0,L|24:216,1,80,8|0,0:0|0:0,0:0:0:0:
108,260,154692,2,0,P|172:224|264:228,1,160,0|8,0:0|0:0,0:0:0:0:
316,300,155395,1,0,0:0:0:0:
352,212,155630,5,0,0:0:0:0:
440,172,155864,2,0,L|388:88,2,80,0|8|0,0:0|0:0|0:0,0:0:0:0:
288,56,156801,1,0,0:0:0:0:
232,136,157036,1,8,0:0:0:0:
168,64,157270,6,0,P|140:136|192:224,1,160
340,300,157974,1,8,0:0:0:0:
432,280,158208,1,0,0:0:0:0:
256,164,158676,1,0,0:0:0:0:
184,232,158911,1,8,0:0:0:0:
184,232,159145,1,0,0:0:0:0:
96,272,159380,6,0,L|172:344,2,80,0|0|8,0:0|0:0|0:0,0:0:0:0:
44,192,160083,2,0,P|76:124|48:40,2,160
140,192,161255,5,0,0:0:0:0:
232,164,161489,1,0,0:0:0:0:
208,260,161723,1,8,0:0:0:0:
232,164,161958,1,0,0:0:0:0:
264,72,162192,2,0,P|320:136|304:216,1,160,0|8,0:0|0:0,0:0:0:0:
388,260,162895,1,0,0:0:0:0:
296,292,163130,5,0,0:0:0:0:
220,236,163364,1,0,0:0:0:0:
204,324,163598,1,8,0:0:0:0:
296,292,163833,1,0,0:0:0:0:
220,116,164301,1,0,0:0:0:0:
120,92,164536,2,0,L|148:168,1,80,8|0,0:0|0:0,0:0:0:0:
256,192,165005,12,0,167817,0:0:0:0:
