osu file format v14

[General]
AudioFilename: Deadmau5_feat_Chris_James_-_The_Veldt_Radio_Edit (1).mp3
AudioLeadIn: 0
PreviewTime: -1
Countdown: 0
SampleSet: Soft
StackLeniency: 0.7
Mode: 0
LetterboxInBreaks: 0
CountdownOffset: 1
WidescreenStoryboard: 0

[Editor]
Bookmarks: 15005,30005,34778
DistanceSpacing: 0.8
BeatDivisor: 2
GridSize: 4
TimelineZoom: 1

[Metadata]
Title:The Veldt (Radio Edit)
TitleUnicode:The Veldt (Radio Edit)
Artist:Deadmau5 ft. Chris James
ArtistUnicode:Deadmau5 ft. Chris James
Creator:YellowManul
Version:Easy
Source:
Tags:mau5trap recordings MAU5051B progressive house male vocal relax deadmaus bakari
BeatmapID:324688
BeatmapSetID:69106

[Difficulty]
HPDrainRate:2
CircleSize:3
OverallDifficulty:1
ApproachRate:2
SliderMultiplier:1.2
SliderTickRate:1

[Events]
//Background and Video events
0,0,"21750-1024x768.jpg",0,0
//Break Periods
2,121845,133210
//Storyboard Layer 0 (Background)
//Storyboard Layer 1 (Fail)
//Storyboard Layer 2 (Pass)
//Storyboard Layer 3 (Foreground)
//Storyboard Sound Samples

[TimingPoints]
15005,468.75,4,2,0,60,1,0
44770,-100,4,2,0,70,0,1
59770,-100,4,2,0,60,0,0
60005,-100,4,2,0,50,0,0
89770,-100,4,2,0,70,0,1
119067,-100,4,2,0,60,0,0
134770,-100,4,2,0,70,0,1
164770,-100,4,2,0,50,0,0
165473,-100,4,2,0,45,0,0
165942,-100,4,2,0,40,0,0
166411,-100,4,2,0,30,0,0
166880,-100,4,2,0,20,0,0
167348,-100,4,2,0,10,0,0
167817,-100,4,2,0,5,0,0

[Colours]
Combo1 : 255,232,243
Combo2 : 204,230,255
Combo3 : 204,204,255

[HitObjects]
158,283,15005,5,0,0:0:0:0:
80,192,15473,2,0,B|132:136|224:176,1,120
286,105,16411,1,0,0:0:0:0:
396,140,16880,2,0,P|420:212|372:316,2,180
308,244,18755,6,0,P|252:276|184:268,1,120
128,204,19692,2,0,P|184:172|252:180,1,120
260,76,20630,5,0,0:0:0:0:
156,96,21098,1,2,0:0:0:0:
4,240,22036,1,2,0:0:0:0:
20,136,22505,1,0,0:0:0:0:
104,196,22973,6,0,L|80:320,2,120,0|0|0,0:0|0:0|0:0,0:0:0:0:
196,160,24380,2,0,P|288:144|348:212,2,180
256,236,26255,5,2,0:0:0:0:
132,240,26723,2,2,P|88:180|108:128,1,120
160,52,27661,2,2,P|232:48|284:104,1,120
292,180,28598,5,2,0:0:0:0:
384,204,29067,2,0,P|448:220|524:184,1,120,2|2,0:0|0:0,0:0:0:0:
292,180,30473,1,8,0:0:0:0:
228,88,30942,6,0,P|184:156|96:176,1,120,0|8,0:0|0:0,0:0:0:0:
44,140,31880,2,0,P|24:216|48:280,2,120,0|8|0,1:0|0:0|0:0,0:0:0:0:
124,72,33286,1,8,0:0:0:0:
208,132,33755,6,0,P|272:156|388:120,2,180,0|0|8,0:0|0:0|0:0,0:0:0:0:
144,212,35630,2,2,L|180:344,1,120,2|2,0:0|0:0,0:0:0:0:
276,300,36567,2,2,L|296:168,2,120,2|2|0,0:0|0:0|1:0,0:0:0:0:
192,240,37973,5,8,0:0:0:0:
104,296,38442,1,0,0:0:0:0:
104,192,38911,1,8,0:0:0:0:
192,144,39380,2,0,P|272:160|304:272,2,180,0|0|8,1:0|0:0|0:0,0:0:0:0:
256,192,41255,12,0,42661,0:0:0:0:
104,228,43598,6,0,L|144:344,2,120,8|0|8,0:0|0:0|0:0,0:0:0:0:
116,136,44770,2,0,P|192:116|244:128,2,120
248,220,46411,1,8,0:0:0:0:
248,220,46880,2,0,P|336:256|440:224,2,180,0|0|8,0:0|0:0|0:0,0:0:0:0:
164,280,48755,5,0,0:0:0:0:
140,124,49458,1,0,0:0:0:0:
288,68,50161,1,8,0:0:0:0:
376,108,50630,2,0,P|396:192|348:296,2,180,0|0|8,0:0|0:0|0:0,0:0:0:0:
212,128,52505,6,0,P|124:172|24:136,2,180,0|0|8,0:0|0:0|0:0,0:0:0:0:
284,60,54380,1,0,0:0:0:0:
372,172,55083,1,0,0:0:0:0:
228,188,55786,5,8,0:0:0:0:
256,276,56255,2,0,P|308:300|432:276,2,180,0|8|0,0:0|0:0|0:0,0:0:0:0:
304,168,58130,2,0,P|356:144|480:168,2,180,0|8|0,0:0|0:0|0:0,0:0:0:0:
132,96,60005,5,4,2:0:0:0:
104,196,60473,1,8,0:0:0:0:
196,248,60942,2,0,P|252:264|352:232,1,120,0|8,0:0|0:0,0:0:0:0:
384,168,61880,2,0,P|432:224|420:336,2,180,0|0|8,0:0|0:0|0:0,0:0:0:0:
284,148,63755,6,0,P|224:176|140:156,1,120,0|8,0:0|0:0,0:0:0:0:
96,88,64692,1,0,0:0:0:0:
60,184,65161,2,0,P|72:252|52:312,2,120,2|2|2,0:0|0:0|0:0,0:0:0:0:
96,88,66567,2,0,P|192:72|320:156,1,240,2|0,0:0|0:0,0:0:0:0:
416,204,67973,5,8,0:0:0:0:
320,244,68442,2,0,P|264:280|192:276,1,120,0|8,0:0|0:0,0:0:0:0:
160,200,69380,2,0,P|128:128|4:92,2,180,0|0|8,0:0|0:0|0:0,0:0:0:0:
256,204,71255,6,0,L|268:272,2,60,0|0|8,0:0|0:0|0:0,0:0:0:0:
352,188,72192,2,0,L|408:52,2,120,0|8|2,0:0|0:0|0:0,0:0:0:0:
268,236,73598,1,10,0:0:0:0:
184,176,74067,1,2,0:0:0:0:
176,268,74536,2,0,P|104:304|44:296,1,120,2|0,0:0|1:0,0:0:0:0:
92,196,75473,6,0,L|36:76,2,120,8|0|8,0:0|0:0|0:0,0:0:0:0:
176,172,76880,2,0,P|248:128|356:180,2,180,0|0|8,1:0|0:0|0:0,0:0:0:0:
264,240,78755,6,0,P|328:280|404:244,1,120,0|8,1:0|0:0,0:0:0:0:
456,208,79692,1,0,0:0:0:0:
404,116,80161,2,0,P|340:100|268:128,1,120,8|2,0:0|0:0,0:0:0:0:
196,168,81098,2,0,P|140:204|72:208,2,120,2|2|0,0:0|0:0|0:0,1:0:0:0:
268,244,82505,5,0,1:0:0:0:
356,188,82973,1,8,0:0:0:0:
268,112,83442,2,0,P|324:80|400:80,1,120,0|8,0:0|0:0,0:0:0:0:
356,188,84380,2,0,P|264:272|168:240,1,180
108,140,85786,1,0,0:0:0:0:
256,192,86255,12,0,88130,0:0:0:0:
256,248,88598,6,0,P|192:260|136:248,2,120
284,240,89770,6,0,P|360:276|288:176,1,300,4|0,2:0|0:0,0:0:0:0:
212,92,91411,2,0,P|128:100|84:140,1,120,8|0,0:0|0:0,0:0:0:0:
180,196,92348,2,0,P|204:264|192:336,2,120,8|0|8,0:0|0:0|0:0,0:0:0:0:
280,172,93755,6,0,P|388:156|488:220,2,180,0|0|8,0:0|0:0|0:0,0:0:0:0:
192,208,95630,1,0,0:0:0:0:
104,152,96098,1,8,0:0:0:0:
296,76,97036,1,8,0:0:0:0:
388,136,97505,6,0,P|340:180|268:180,1,120,0|8,0:0|0:0,0:0:0:0:
144,148,98442,2,0,P|76:136|8:172,1,120,0|8,0:0|0:0,0:0:0:0:
88,268,99380,2,0,P|180:304|280:264,2,180,0|0|8,0:0|0:0|0:0,0:0:0:0:
172,204,101255,6,0,L|148:136,2,60,0|0|8,0:0|0:0|0:0,0:0:0:0:
252,140,102192,2,0,L|260:76,2,60,0|0|8,0:0|0:0|0:0,0:0:0:0:
340,196,103130,1,0,0:0:0:0:
296,288,103598,1,8,0:0:0:0:
184,264,104067,2,0,P|120:260|52:296,1,120,0|8,0:0|0:0,0:0:0:0:
8,208,105005,5,0,0:0:0:0:
156,140,105708,2,0,P|220:164|260:72,1,180,0|8,0:0|0:0,0:0:0:0:
380,140,106880,2,0,P|412:208|368:312,2,180,0|0|8,0:0|0:0|0:0,0:0:0:0:
284,176,108755,5,0,0:0:0:0:
192,300,109458,1,0,0:0:0:0:
52,264,110161,1,0,0:0:0:0:
0,132,110630,5,0,0:0:0:0:
80,68,111098,2,0,P|164:64|220:96,1,120,8|0,0:0|0:0,0:0:0:0:
304,68,112036,1,8,0:0:0:0:
280,168,112505,6,0,P|316:228|432:256,2,180,0|0|8,1:0|0:0|0:0,0:0:0:0:
188,120,114380,1,0,1:0:0:0:
68,220,115083,1,0,0:0:0:0:
212,280,115786,1,8,0:0:0:0:
300,224,116255,6,0,P|400:216|492:272,2,180,0|0|8,1:0|0:0|0:0,0:0:0:0:
208,176,118130,1,0,1:0:0:0:
108,196,118598,2,0,L|64:264,1,60
256,192,119067,12,0,121645,0:0:0:0:
264,108,134770,6,0,P|328:132|400:112,1,120
480,172,135708,1,0,0:0:0:0:
376,288,136411,1,8,0:0:0:0:
280,240,136880,2,0,P|184:228|108:288,2,180,0|0|8,1:0|0:0|0:0,0:0:0:0:
360,188,138755,5,0,1:0:0:0:
192,64,139458,1,0,0:0:0:0:
48,128,140161,2,0,L|56:256,2,120,8|0|8,0:0|1:0|0:0,0:0:0:0:
148,164,141567,2,0,P|224:192|300:152,1,120,0|8,0:0|0:0,0:0:0:0:
364,136,142505,6,0,P|392:232|324:312,2,180,0|0|8,1:0|0:0|0:0,0:0:0:0:
268,96,144380,1,0,1:0:0:0:
132,252,145083,1,0,0:0:0:0:
280,304,145786,1,8,0:0:0:0:
372,260,146255,6,0,P|436:272|504:236,2,120,0|8|0,1:0|0:0|0:0,0:0:0:0:
340,160,147661,1,8,0:0:0:0:
200,92,148598,1,8,0:0:0:0:
104,132,149067,1,0,0:0:0:0:
116,236,149536,1,8,0:0:0:0:
208,288,150005,6,0,P|292:300|368:256,1,120,0|8,1:0|0:0,0:0:0:0:
384,196,150942,1,0,0:0:0:0:
332,104,151411,2,0,P|264:88|180:128,1,120,8|0,0:0|1:0,0:0:0:0:
56,68,152583,1,0,0:0:0:0:
148,180,153286,1,0,0:0:0:0:
104,284,153755,6,0,P|180:304|284:260,1,180,0|0,1:0|0:0,0:0:0:0:
392,148,155161,1,8,0:0:0:0:
300,100,155630,2,0,L|280:228,1,120,0|8,1:0|0:0,0:0:0:0:
184,196,156567,2,0,L|156:72,1,120,0|8,0:0|0:0,0:0:0:0:
56,108,157505,6,0,B|33:206|79:206|52:308,1,180,0|0,1:0|0:0,0:0:0:0:
228,316,158911,1,8,0:0:0:0:
300,240,159380,2,0,P|364:216|488:248,2,180,0|0|8,1:0|0:0|0:0,0:0:0:0:
240,156,161255,6,0,L|300:104,2,60,0|0|8,1:0|0:0|0:0,0:0:0:0:
136,144,162192,2,0,L|144:72,2,60,0|0|8,0:0|0:0|0:0,0:0:0:0:
36,172,163130,2,0,L|4:116,2,60,0|0|8,1:0|0:0|0:0,0:0:0:0:
112,248,164067,2,0,P|180:280|320:224,1,180,0|2,0:0|2:0,0:0:0:0:
256,192,165005,12,0,167817,0:0:0:0:
