osu file format v10

[General]
AudioFilename: ONN.mp3
AudioLeadIn: 0
PreviewTime: -1
Countdown: 1
SampleSet: Normal
StackLeniency: 0.7
Mode: 0
LetterboxInBreaks: 1

[Editor]
Bookmarks: 21314
DistanceSpacing: 2
BeatDivisor: 4
GridSize: 4

[Metadata]
Title:Christmas hitori botchi
TitleUnicode:Christmas hitori botchi
Artist:DeadballP feat. Hatsune Miku
ArtistUnicode:DeadballP feat. Hatsune Miku
Creator:Himekaido Hatate
Version:Oldnary Night, Amazing Night, Indeed
Source:Vocaloid, DeadballP, Christmas
Tags:
BeatmapID:199051
BeatmapSetID:68895

[Difficulty]
HPDrainRate:6
CircleSize:4
OverallDifficulty:6
ApproachRate:8
SliderMultiplier:1.69999990463257
SliderTickRate:1

[Events]
//Background and Video events
0,0,"deadball_is_sugoi.jpg"
//Break Periods
2,80120,88805
2,147706,157771
//Storyboard Layer 0 (Background)
//Storyboard Layer 1 (Fail)
//Storyboard Layer 2 (Pass)
//Storyboard Layer 3 (Foreground)
//Storyboard Sound Samples
//Background Colour Transformations
3,100,163,162,255

[TimingPoints]
1300,344.827586206897,4,2,1,100,1,0
1300,-200,4,2,1,100,0,0
11989,-100,4,1,0,70,0,0
23368,-100,4,2,1,100,0,0
45437,-100,4,2,1,100,0,0
158541,-200,4,2,1,100,0,0
186472,-100,4,1,1,70,0,0

[Colours]
Combo1 : 15,145,145
Combo2 : 159,0,4
Combo3 : 196,201,5
Combo4 : 32,136,2

[HitObjects]
80,80,1300,2,0,P|136:96,1,42.4999976158143,2|0,0:0|0:0,0:0:0
148,148,1644,2,0,P|192:132,1,42.4999976158143
244,104,1989,2,0,P|308:108|332:128,1,84.9999952316285
356,196,2506,5,0,0:0:0
428,244,2679,1,2,0:0:0
500,196,2851,1,0,0:0:0
476,116,3024,2,0,P|464:76|416:76,1,84.9999952316285,0|0,0:0|0:0,0:0:0
404,196,3886,5,0,0:0:0
328,232,4058,1,2,0:0:0
252,196,4231,1,0,0:0:0
316,140,4403,2,0,P|288:88|256:96,1,84.9999952316285
188,260,5265,5,0,0:0:0
112,300,5437,1,2,0:0:0
40,256,5610,1,0,0:0:0
100,196,5782,2,0,P|88:152|48:148,1,84.9999952316285
200,60,6817,6,0,P|256:80,1,42.4999976158143,2|0,0:0|0:0,0:0:0
264,156,7162,2,0,P|320:136,1,42.4999976158143
372,92,7506,2,0,P|424:88|424:88|448:124,1,84.9999952316285
440,200,8024,5,0,0:0:0
484,272,8196,1,2,0:0:0
428,336,8368,1,0,0:0:0
352,296,8541,2,0,P|304:328|264:312,1,84.9999952316285
328,72,9403,5,0,0:0:0
384,132,9575,1,2,0:0:0
332,200,9748,1,0,0:0:0
256,164,9920,2,0,P|224:128|180:140,1,84.9999952316285
188,216,10782,5,0,0:0:0
228,292,10955,1,2,0:0:0
176,360,11127,1,0,0:0:0
116,300,11300,2,0,P|56:312|48:292,1,84.9999952316285
96,92,11989,5,0,0:0:0
132,68,12075,1,0,0:0:0
176,64,12162,1,0,0:0:0
216,76,12248,1,0,0:0:0
252,100,12334,2,0,P|296:128|400:88,1,169.999990463257,0|8,0:0|0:0,0:0:0
456,204,12851,5,0,0:0:0
428,236,12937,1,0,0:0:0
392,260,13024,2,0,P|332:280|304:260,1,84.9999952316285
276,152,13368,2,0,P|236:132|200:156,1,84.9999952316285,8|0,0:0|0:0,0:0:0
92,212,13713,6,0,P|144:248|144:248|200:244|200:244|244:288,2,169.999990463257,0|8|0,0:0|0:0|0:0,0:0:0
220,100,14748,1,8,0:0:0
368,184,15093,6,0,P|460:216|452:284,1,169.999990463257,0|8,0:0|0:0,0:0:0
372,264,15610,1,0,0:0:0
320,332,15782,2,0,P|244:360|160:324,1,169.999990463257,0|8,0:0|0:0,0:0:0
92,176,16472,6,0,P|96:120|120:100,1,84.9999952316285
188,148,16817,2,0,P|216:112|208:64,1,84.9999952316285,8|0,0:0|0:0,0:0:0
292,44,17162,1,8,0:0:0
332,52,17248,1,0,0:0:0
360,84,17334,1,0,0:0:0
304,148,17506,1,8,0:0:0
328,184,17593,1,0,0:0:0
372,188,17679,1,0,0:0:0
448,148,17851,1,0,0:0:0
328,324,18368,5,0,0:0:0
288,340,18455,1,0,0:0:0
248,324,18541,2,0,P|204:340|168:312,1,84.9999952316285
68,248,18886,2,0,P|108:232|156:272,1,84.9999952316285,8|0,0:0|0:0,0:0:0
196,184,19231,2,0,P|228:144|228:144|280:140|280:140|288:108|348:120,2,169.999990463257,0|8|0,0:0|0:0|0:0,0:0:0
308,312,20265,1,8,0:0:0
432,196,20610,6,0,P|440:108|348:64,1,169.999990463257,0|8,0:0|0:0,0:0:0
344,148,21127,1,0,0:0:0
276,196,21300,2,0,P|212:216|104:188,1,169.999990463257,0|8,0:0|0:0,0:0:0
184,40,21989,5,0,0:0:0
184,84,22075,1,0,0:0:0
304,124,22248,1,0,0:0:0
304,168,22334,1,0,0:0:0
196,236,22506,1,0,0:0:0
196,280,22593,1,0,0:0:0
308,340,22851,2,0,P|308:288,2,42.4999976158143
424,216,23368,5,2,0:0:0
316,84,23713,1,8,0:0:0
256,144,23886,2,0,P|204:160|204:160|177:208|177:208|108:228,1,169.999990463257
80,148,24403,2,0,P|64:96|96:64,1,84.9999952316285,8|0,0:0|0:0,0:0:0
164,64,24748,2,0,P|216:104|216:104|216:128|216:128|280:180,1,169.999990463257,2|8,0:0|0:0,0:0:0
348,128,25265,5,0,0:0:0
364,212,25437,1,0,0:0:0
352,252,25524,1,0,0:0:0
336,292,25610,1,8,0:0:0
208,292,25782,1,0,0:0:0
192,252,25868,1,0,0:0:0
172,216,25955,1,8,0:0:0
196,64,26127,6,0,P|380:64,1,169.999990463257,2|8,0:0|0:0,0:0:0
428,124,26817,2,0,P|428:304,1,169.999990463257,0|8,0:0|0:0,0:0:0
356,336,27506,2,0,P|184:336,1,169.999990463257,2|8,0:0|0:0,0:0:0
112,292,28024,5,0,0:0:0
176,236,28196,1,0,0:0:0
204,204,28282,1,0,0:0:0
236,176,28368,1,8,0:0:0
192,56,28541,1,0,0:0:0
192,56,28627,1,0,0:0:0
192,56,28713,1,8,0:0:0
316,84,28886,6,0,P|372:84|444:184,1,169.999990463257,2|8,0:0|0:0,0:0:0
356,168,29403,1,0,0:0:0
272,176,29575,1,0,0:0:0
272,176,29662,1,0,0:0:0
272,176,29748,2,0,P|220:200|220:220,2,84.9999952316285,0|8|0,0:0|0:0|0:0,0:0:0
328,240,30265,6,0,P|400:280|480:228,1,169.999990463257,2|0,0:0|0:0,0:0:0
400,196,30782,1,0,0:0:0
428,116,30955,2,0,P|456:84|460:80,4,42.4999976158143,0|0|8|0|0,0:0|0:0|0:0|0:0|0:0,0:0:0
252,64,31644,5,2,0:0:0
128,288,31989,1,8,0:0:0
384,284,32334,1,0,0:0:0
252,64,32679,1,8,0:0:0
176,176,33024,2,0,P|240:200|272:168|344:180,1,169.999990463257,2|8,0:0|0:0,0:0:0
324,264,33541,1,0,0:0:0
256,312,33713,1,0,0:0:0
188,260,33886,1,0,0:0:0
256,132,34058,1,0,0:0:0
256,176,34144,1,0,0:0:0
256,220,34231,1,0,0:0:0
256,264,34317,1,0,0:0:0
256,312,34403,6,0,P|332:324|400:260,1,169.999990463257,2|8,0:0|0:0,0:0:0
352,196,34920,2,0,P|368:112|456:104,1,169.999990463257,0|8,0:0|0:0,0:0:0
472,176,35437,1,0,0:0:0
468,220,35524,1,0,0:0:0
452,260,35610,1,0,0:0:0
420,288,35696,1,0,0:0:0
380,300,35782,6,0,P|208:304,1,169.999990463257,2|8,0:0|0:0,0:0:0
120,156,36300,2,0,P|208:156|208:156|224:116|224:120|284:120,1,169.999990463257,0|8,0:0|0:0,0:0:0
328,184,36817,1,0,0:0:0
256,32,37162,5,2,0:0:0
392,132,37506,1,8,0:0:0
256,236,37851,1,0,0:0:0
120,136,38196,1,8,0:0:0
256,32,38541,6,0,P|272:116|272:116|232:128|232:128|244:180,1,169.999990463257,2|8,0:0|0:0,0:0:0
296,236,39058,2,0,P|408:244|428:168,1,169.999990463257,0|8,0:0|0:0,0:0:0
420,120,39575,1,0,0:0:0
384,100,39662,1,0,0:0:0
344,88,39748,1,0,0:0:0
304,96,39834,1,0,0:0:0
268,120,39920,6,0,P|212:120|212:120|192:152|148:152|104:108,1,169.999990463257,2|8,0:0|0:0,0:0:0
244,264,40437,2,0,P|300:264|300:264|320:232|364:232|408:276,1,169.999990463257,0|8,0:0|0:0,0:0:0
344,332,40955,1,0,0:0:0
264,304,41127,1,0,0:0:0
332,252,41300,6,0,P|348:192|348:192|376:188|360:120|360:120|392:104,1,169.999990463257,2|8,0:0|0:0,0:0:0
332,40,41817,2,0,P|280:80|224:48|160:84,1,169.999990463257,0|8,0:0|0:0,0:0:0
120,152,42334,1,0,0:0:0
124,196,42420,1,0,0:0:0
144,232,42506,1,0,0:0:0
180,252,42593,1,0,0:0:0
220,264,42679,2,0,P|308:240|384:272,1,169.999990463257,2|8,0:0|0:0,0:0:0
376,96,43368,2,0,P|296:124|220:92,1,169.999990463257,2|8,0:0|0:0,0:0:0
56,136,44058,5,2,0:0:0
124,188,44231,1,0,0:0:0
204,156,44403,1,0,0:0:0
272,208,44575,1,0,0:0:0
356,192,44748,1,2,0:0:0
396,208,44834,1,0,0:0:0
440,204,44920,1,0,0:0:0
476,180,45006,1,0,0:0:0
496,140,45093,2,0,P|492:92|456:64,1,84.9999952316285
340,44,45437,6,0,P|300:124,1,84.9999952316285,2|0,0:0|0:0,0:0:0
301,120,45782,1,0,0:0:0
224,92,45955,2,0,P|184:168,1,84.9999952316285,2|0,0:0|0:0,0:0:0
184,167,46300,1,0,0:0:0
100,180,46472,2,0,P|52:256,1,84.9999952316285,2|0,0:0|0:0,0:0:0
54,251,46817,6,2,P|136:292|216:240,1,169.999990463257,2|0,0:0|0:0,0:0:0
272,212,47334,1,0,0:0:0
344,256,47506,2,2,P|388:292,4,42.4999976158143,2|0|0|0|0,0:0|0:0|0:0|0:0|0:0,0:0:0
352,172,48024,5,4,0:0:0
320,48,48196,1,4,0:0:0
176,260,48541,1,0,0:0:0
212,136,48713,1,4,0:0:0
468,136,49058,1,4,0:0:0
212,136,49403,1,4,0:0:0
96,260,49748,5,0,0:0:0
172,300,49920,1,0,0:0:0
256,280,50093,1,0,0:0:0
336,312,50265,1,2,0:0:0
376,300,50351,1,0,0:0:0
412,280,50437,1,0,0:0:0
436,244,50524,1,0,0:0:0
448,204,50610,1,2,0:0:0
420,36,50955,6,0,P|332:36,1,84.9999952316285,2|0,0:0|0:0,0:0:0
335,36,51300,1,0,0:0:0
364,108,51472,2,0,P|276:108,1,84.9999952316285,2|0,0:0|0:0,0:0:0
279,108,51817,1,0,0:0:0
300,180,51989,2,0,P|216:180,1,84.9999952316285,2|0,0:0|0:0,0:0:0
215,180,52334,6,0,P|172:136|228:52,1,169.999990463257,2|0,0:0|0:0,0:0:0
264,116,52851,1,0,0:0:0
308,180,53024,2,0,P|360:232|300:288,1,169.999990463257,2|0,0:0|0:0,0:0:0
248,236,53541,5,0,0:0:0
148,316,53713,1,2,0:0:0
168,132,54058,1,0,0:0:0
276,64,54231,1,2,0:0:0
276,320,54575,1,2,0:0:0
276,64,54920,1,0,0:0:0
352,104,55093,6,0,P|400:124,3,42.4999976158143,8|0|0|0,0:0|0:0|0:0|0:0,0:0:0
328,176,55437,2,0,P|276:200,3,42.4999976158143
356,256,55782,2,0,P|400:276,3,42.4999976158143,8|0|0|0,0:0|0:0|0:0|0:0,0:0:0
308,264,56127,1,0,0:0:0
268,256,56213,1,0,0:0:0
224,264,56300,1,0,0:0:0
184,252,56386,1,0,0:0:0
144,260,56472,1,8,0:0:0
104,96,56817,5,8,0:0:0
104,96,57075,1,0,0:0:0
148,100,57162,1,8,0:0:0
184,124,57248,1,0,0:0:0
224,108,57334,1,0,0:0:0
256,136,57420,1,0,0:0:0
296,124,57506,1,8,0:0:0
332,148,57593,1,0,0:0:0
372,136,57679,1,0,0:0:0
400,260,57851,6,0,P|416:216|464:192,1,84.9999952316285,2|0,0:0|0:0,0:0:0
492,124,58196,2,0,P|480:60|456:44,1,84.9999952316285,8|0,0:0|0:0,0:0:0
404,104,58541,2,0,P|320:120|308:204,1,169.999990463257,0|8,0:0|0:0,0:0:0
388,188,59058,1,0,0:0:0
348,264,59231,1,2,0:0:0
272,228,59403,1,0,0:0:0
196,268,59575,2,0,P|152:308|60:264,1,169.999990463257,8|2,0:0|0:0,0:0:0
44,228,60006,1,0,0:0:0
40,184,60093,1,0,0:0:0
52,144,60179,1,0,0:0:0
80,112,60265,1,8,0:0:0
248,88,60610,6,0,P|288:52|328:60,1,84.9999952316285,2|0,0:0|0:0,0:0:0
328,140,60955,2,0,P|376:120|416:156,1,84.9999952316285,8|0,0:0|0:0,0:0:0
380,216,61300,2,0,P|464:208|500:276,1,169.999990463257,2|8,0:0|0:0,0:0:0
416,292,61817,1,0,0:0:0
340,328,61989,1,2,0:0:0
280,268,62162,1,0,0:0:0
200,288,62334,2,0,P|156:272|112:288,1,84.9999952316285,8|0,0:0|0:0,0:0:0
208,188,62679,1,2,0:0:0
180,156,62765,1,0,0:0:0
164,116,62851,1,0,0:0:0
180,76,62937,1,0,0:0:0
212,44,63024,1,8,0:0:0
424,84,63713,5,2,0:0:0
332,324,64058,1,8,0:0:0
244,84,64403,1,0,0:0:0
164,328,64748,1,8,0:0:0
420,324,65093,1,0,0:0:0
180,236,65437,1,8,0:0:0
436,240,65782,1,0,0:0:0
292,28,66127,1,8,0:0:0
388,264,66472,1,0,0:0:0
168,132,66817,1,8,0:0:0
424,112,67162,1,0,0:0:0
228,276,67506,1,2,0:0:0
352,304,67679,5,0,0:0:0
352,304,67765,1,0,0:0:0
352,304,67851,1,0,0:0:0
416,192,68024,1,0,0:0:0
356,80,68196,1,2,0:0:0
328,112,68282,1,0,0:0:0
288,124,68368,1,0,0:0:0
248,112,68455,1,0,0:0:0
224,76,68541,2,0,P|184:48|152:72,1,84.9999952316285
84,216,68886,6,0,P|136:200|168:228,1,84.9999952316285,2|0,0:0|0:0,0:0:0
200,288,69231,2,0,P|248:304|296:276,1,84.9999952316285,8|0,0:0|0:0,0:0:0
344,240,69575,2,0,P|412:240|452:140,1,169.999990463257,0|8,0:0|0:0,0:0:0
372,160,70093,1,0,0:0:0
436,104,70265,1,2,0:0:0
380,40,70437,1,0,0:0:0
308,84,70610,2,0,P|252:68|224:80,1,84.9999952316285,8|0,0:0|0:0,0:0:0
252,160,70955,1,2,0:0:0
216,180,71041,1,0,0:0:0
176,192,71127,1,0,0:0:0
136,176,71213,1,0,0:0:0
100,156,71300,6,0,P|56:196|60:244,1,84.9999952316285
144,308,71644,2,0,P|192:324|228:304,1,84.9999952316285,2|0,0:0|0:0,0:0:0
184,232,71989,2,0,P|240:228|264:196,1,84.9999952316285,8|0,0:0|0:0,0:0:0
212,136,72334,1,2,0:0:0
248,112,72420,1,0,0:0:0
260,72,72506,1,0,0:0:0
252,28,72593,1,0,0:0:0
216,4,72679,2,0,P|176:20|176:20|132:8,1,84.9999952316285
100,88,73024,6,0,P|64:120|72:160,1,84.9999952316285,2|0,0:0|0:0,0:0:0
152,168,73368,2,0,P|156:220|112:252,1,84.9999952316285,8|0,0:0|0:0,0:0:0
248,184,73713,1,0,0:0:0
288,168,73800,1,0,0:0:0
324,148,73886,2,0,P|368:120,2,42.4999976158143,8|0|0,0:0|0:0|0:0,0:0:0
256,40,74748,6,0,P|256:132,1,84.9999952316285,2|0,0:0|0:0,0:0:0
84,192,75093,2,0,P|184:192,1,84.9999952316285,8|0,0:0|0:0,0:0:0
256,344,75437,2,0,P|256:252,1,84.9999952316285,2|0,0:0|0:0,0:0:0
428,192,75782,6,0,P|328:192,1,84.9999952316285,8|0,0:0|0:0,0:0:0
256,192,76127,1,2,0:0:0
200,128,76300,1,0,0:0:0
80,60,76472,2,0,P|176:60,1,84.9999952316285
240,96,76817,1,2,0:0:0
292,164,76989,1,0,0:0:0
256,240,77162,5,8,0:0:0
256,240,77248,1,0,0:0:0
256,240,77334,1,0,0:0:0
136,204,77506,1,0,0:0:0
192,88,77679,1,8,0:0:0
192,88,77765,1,0,0:0:0
192,88,77851,1,0,0:0:0
320,68,78024,1,8,0:0:0
440,112,78196,5,0,0:0:0
464,148,78282,1,0,0:0:0
468,192,78368,1,0,0:0:0
448,228,78455,1,0,0:0:0
416,256,78541,2,0,P|384:288,3,42.4999976158143,8|0|0|0,0:0|0:0|0:0|0:0,0:0:0
344,212,78886,2,0,P|308:184,3,42.4999976158143,0|0|0|0,0:0|0:0|0:0|0:0,0:0:0
268,260,79231,2,0,P|232:296,3,42.4999976158143,8|0|0|0,0:0|0:0|0:0|0:0,0:0:0
192,216,79575,2,0,P|148:188,3,42.4999976158143,0|0|0|0,0:0|0:0|0:0|0:0,0:0:0
120,272,79920,1,2,0:0:0
80,96,89575,5,8,0:0:0
124,96,89662,1,0,0:0:0
160,216,89834,1,8,0:0:0
204,216,89920,1,0,0:0:0
292,124,90093,1,8,0:0:0
336,124,90179,1,0,0:0:0
412,228,90437,2,0,P|480:228,2,42.4999976158143
260,308,90955,6,0,P|216:292|216:292|216:256|216:256|128:224,1,169.999990463257,2|8,0:0|0:0,0:0:0
80,160,91472,2,0,P|108:80|212:80,1,169.999990463257
168,148,91989,2,0,P|208:136|256:152,1,84.9999952316285,8|0,0:0|0:0,0:0:0
204,220,92334,2,0,P|276:244|384:204,1,169.999990463257,2|0,0:0|0:0,0:0:0
332,140,92851,2,0,P|400:116|400:116|400:84|400:84|488:56,1,169.999990463257
472,148,93368,1,8,0:0:0
472,148,93455,1,0,0:0:0
472,148,93541,1,0,0:0:0
440,272,93713,5,2,0:0:0
328,144,94058,1,8,0:0:0
244,292,94403,1,0,0:0:0
132,164,94748,1,8,0:0:0
236,28,95093,6,0,P|292:24|320:44,1,84.9999952316285,2|0,0:0|0:0,0:0:0
260,100,95437,2,0,P|300:120|348:108,1,84.9999952316285
420,92,95782,1,8,0:0:0
420,92,95868,1,0,0:0:0
420,92,95955,1,0,0:0:0
364,208,96127,1,8,0:0:0
364,208,96213,1,0,0:0:0
364,208,96300,1,0,0:0:0
248,256,96472,5,2,0:0:0
164,240,96644,1,0,0:0:0
216,172,96817,1,0,0:0:0
132,156,96989,2,0,P|184:92|184:92|236:104|236:104|292:92,1,169.999990463257,0|0,0:0|0:0,0:0:0
356,52,97506,2,0,P|400:36|436:60,1,84.9999952316285,8|0,0:0|0:0,0:0:0
392,128,97851,2,0,P|468:188|424:248,1,169.999990463257,2|0,0:0|0:0,0:0:0
364,208,98368,2,0,P|348:292|348:292|284:316|244:276,1,169.999990463257
196,344,98886,5,8,0:0:0
160,320,98972,1,0,0:0:0
140,280,99058,1,0,0:0:0
144,236,99144,1,0,0:0:0
164,200,99231,2,0,P|188:140|252:108,1,127.499992847443,2|0,0:0|0:0,0:0:0
280,96,99575,2,0,P|368:92|416:132,1,127.499992847443,8|0,0:0|0:0,0:0:0
424,148,99920,2,0,P|448:220|424:268,1,127.499992847443,0|0,0:0|0:0,0:0:0
396,292,100265,1,8,0:0:0
228,256,100610,5,2,0:0:0
208,220,100696,1,0,0:0:0
184,184,100782,1,0,0:0:0
164,148,100868,1,0,0:0:0
144,112,100955,1,0,0:0:0
264,72,101127,1,8,0:0:0
284,36,101213,1,0,0:0:0
300,180,101386,1,0,0:0:0
328,148,101472,1,8,0:0:0
260,304,101644,5,0,0:0:0
224,328,101731,1,0,0:0:0
184,336,101817,1,0,0:0:0
144,324,101903,1,0,0:0:0
112,296,101989,2,0,P|68:240|64:216,1,84.9999952316285,2|0,0:0|0:0,0:0:0
144,192,102334,2,0,P|148:144|120:104,1,84.9999952316285
188,52,102679,1,0,0:0:0
188,52,102765,1,0,0:0:0
188,52,102851,1,8,0:0:0
212,136,103024,2,0,P|264:100|272:56,1,84.9999952316285
348,44,103368,6,0,P|424:32|472:112,1,169.999990463257,2|0,0:0|0:0,0:0:0
420,168,103886,2,0,P|488:224|488:224|472:264|508:308,1,169.999990463257,0|8,0:0|0:0,0:0:0
424,336,104403,1,0,0:0:0
384,344,104489,1,0,0:0:0
344,352,104575,1,0,0:0:0
272,304,104748,6,0,P|208:320|148:308,1,127.499992847443,2|0,0:0|0:0,0:0:0
120,276,105093,2,0,P|184:240|256:248,1,127.499992847443,8|0,0:0|0:0,0:0:0
264,208,105437,2,0,P|204:156|120:168,1,169.999990463257,0|8,0:0|0:0,0:0:0
232,40,106127,2,0,P|276:28|332:56,1,84.9999952316285,2|0,0:0|0:0,0:0:0
352,60,106386,1,0,0:0:0
384,88,106472,1,8,0:0:0
324,148,106644,1,0,0:0:0
400,188,106817,1,0,0:0:0
380,272,106989,1,0,0:0:0
460,296,107162,1,8,0:0:0
204,308,107506,5,2,0:0:0
132,260,107679,1,0,0:0:0
208,220,107851,1,0,0:0:0
136,172,108024,2,0,P|80:152|112:60,1,169.999990463257
188,40,108541,5,8,0:0:0
232,44,108627,1,0,0:0:0
268,64,108713,1,0,0:0:0
288,100,108800,1,0,0:0:0
288,144,108886,2,0,P|280:208|364:248,1,169.999990463257,2|0,0:0|0:0,0:0:0
384,164,109403,2,0,P|468:200|448:288,1,169.999990463257
400,324,109920,5,8,0:0:0
360,340,110006,1,0,0:0:0
316,336,110093,1,0,0:0:0
284,308,110179,1,0,0:0:0
272,268,110265,2,0,P|308:216|300:152,1,127.499992847443,2|0,0:0|0:0,0:0:0
272,124,110610,2,0,P|224:92|156:120,1,127.499992847443,8|0,0:0|0:0,0:0:0
136,144,110955,2,0,P|104:212|120:272,1,127.499992847443
144,292,111300,1,8,0:0:0
316,336,111644,5,2,0:0:0
360,328,111731,1,0,0:0:0
396,304,111817,1,0,0:0:0
416,260,111903,1,0,0:0:0
416,216,111989,1,0,0:0:0
364,148,112162,2,0,P|360:88,1,42.4999976158143,0|8,0:0|0:0,0:0:0
284,208,112420,2,0,P|240:176,1,42.4999976158143,0|8,0:0|0:0,0:0:0
344,268,112679,5,8,0:0:0
308,288,112765,1,0,0:0:0
268,300,112851,1,0,0:0:0
228,292,112937,1,0,0:0:0
188,272,113024,6,0,P|132:208,1,84.9999952316285,2|0,0:0|0:0,0:0:0
84,140,113368,1,0,0:0:0
156,96,113541,2,0,P|208:164,1,84.9999952316285,2|0,0:0|0:0,0:0:0
264,228,113886,1,0,0:0:0
316,160,114058,2,0,P|372:92,1,84.9999952316285,2|0,0:0|0:0,0:0:0
424,28,114403,1,2,0:0:0
480,92,114575,1,0,0:0:0
480,92,114748,1,0,0:0:0
480,92,114920,1,0,0:0:0
444,168,115093,1,0,0:0:0
436,208,115179,1,0,0:0:0
444,248,115265,1,0,0:0:0
464,284,115351,1,0,0:0:0
472,324,115437,2,0,P|444:344|408:308|364:340,1,84.9999952316285
328,268,115782,5,2,0:0:0
176,60,116127,1,0,0:0:0
132,180,116300,1,2,0:0:0
388,180,116644,1,0,0:0:0
132,180,116989,1,2,0:0:0
268,76,117334,1,0,0:0:0
336,128,117506,1,0,0:0:0
416,92,117679,1,0,0:0:0
468,156,117851,5,8,0:0:0
492,192,117937,1,0,0:0:0
500,236,118024,1,0,0:0:0
488,276,118110,1,0,0:0:0
472,316,118196,6,0,P|448:344|392:344,1,84.9999952316285
284,300,118541,2,0,P|184:300,1,84.9999952316285,2|0,0:0|0:0,0:0:0
199,300,118886,1,0,0:0:0
140,188,119058,2,0,P|236:188,1,84.9999952316285,2|0,0:0|0:0,0:0:0
312,188,119403,1,0,0:0:0
240,84,119575,2,0,P|156:84,1,84.9999952316285,2|0,0:0|0:0,0:0:0
155,84,119920,1,2,0:0:0
76,136,120093,1,0,0:0:0
28,216,120265,1,0,0:0:0
108,268,120437,1,0,0:0:0
60,348,120610,1,2,0:0:0
108,340,120696,1,0,0:0:0
156,336,120782,1,0,0:0:0
200,344,120868,1,0,0:0:0
244,356,120955,2,0,P|284:368|336:344,1,84.9999952316285
376,236,121300,6,0,P|456:192|456:192|416:144|476:108,1,169.999990463257,2|0,0:0|0:0,0:0:0
436,40,121817,2,0,P|360:72|320:12|232:60,1,169.999990463257,0|8,0:0|0:0,0:0:0
104,88,122506,1,0,0:0:0
60,160,122679,1,2,0:0:0
88,192,122765,1,0,0:0:0
88,236,122851,1,0,0:0:0
120,264,122937,1,0,0:0:0
144,300,123024,1,8,0:0:0
188,300,123110,1,0,0:0:0
228,320,123196,1,0,0:0:0
272,320,123282,1,0,0:0:0
308,340,123368,1,0,0:0:0
348,328,123455,1,0,0:0:0
388,344,123541,1,0,0:0:0
428,332,123627,1,0,0:0:0
468,344,123713,2,0,P|500:288|500:264,1,84.9999952316285,8|0,0:0|0:0,0:0:0
496,184,124058,5,2,0:0:0
408,36,124403,1,0,0:0:0
368,156,124662,1,0,0:0:0
332,176,124748,2,0,P|288:176,3,42.4999976158143
368,204,125093,2,0,P|380:248,3,42.4999976158143
392,328,125437,6,0,P|344:340|288:312,1,84.9999952316285,2|0,0:0|0:0,0:0:0
268,256,125782,2,0,P|232:240|180:268,1,84.9999952316285,8|0,0:0|0:0,0:0:0
116,300,126127,2,0,P|84:216|124:152,1,169.999990463257,2|8,0:0|0:0,0:0:0
160,76,126644,1,0,0:0:0
236,112,126817,1,2,0:0:0
300,56,126989,1,0,0:0:0
368,108,127162,2,0,P|404:80|444:84,1,84.9999952316285,8|0,0:0|0:0,0:0:0
432,164,127506,1,2,0:0:0
464,192,127593,1,0,0:0:0
484,228,127679,1,0,0:0:0
484,272,127765,1,0,0:0:0
468,312,127851,2,0,P|432:344|380:328,1,84.9999952316285,8|0,0:0|0:0,0:0:0
328,296,128196,6,0,P|292:264|248:264,1,84.9999952316285,2|0,0:0|0:0,0:0:0
192,316,128541,2,0,P|124:296|104:272,1,84.9999952316285,8|0,0:0|0:0,0:0:0
76,212,128886,1,2,0:0:0
64,172,128972,1,0,0:0:0
64,128,129058,1,0,0:0:0
80,88,129144,1,0,0:0:0
108,56,129231,2,0,P|160:36|196:52,1,84.9999952316285,8|0,0:0|0:0,0:0:0
200,128,129575,2,0,P|252:136|296:120,1,84.9999952316285,2|0,0:0|0:0,0:0:0
348,72,129920,1,8,0:0:0
416,124,130093,2,0,P|448:152,4,42.4999976158143,0|0|2|0|0,0:0|0:0|0:0|0:0|0:0,0:0:0
356,184,130610,5,8,0:0:0
428,228,130782,1,0,0:0:0
388,304,130955,2,0,P|328:336|312:328,1,84.9999952316285
280,256,131300,2,0,P|208:248|188:272,1,84.9999952316285,2|0,0:0|0:0,0:0:0
144,312,131644,1,0,0:0:0
92,244,131817,1,0,0:0:0
160,192,131989,2,0,P|212:184|232:140,1,84.9999952316285,8|0,0:0|0:0,0:0:0
164,104,132334,6,0,P|196:60|232:68,1,84.9999952316285,2|0,0:0|0:0,0:0:0
304,88,132679,1,8,0:0:0
372,40,132851,1,0,0:0:0
408,116,133024,6,0,P|456:136|476:172,1,84.9999952316285
396,200,133368,2,0,P|432:244|472:236,1,84.9999952316285,8|0,0:0|0:0,0:0:0
312,192,133713,5,2,0:0:0
248,248,133886,1,0,0:0:0
168,216,134058,2,0,P|68:196,1,84.9999952316285,8|0,0:0|0:0,0:0:0
244,120,134403,5,2,0:0:0
184,60,134575,1,0,0:0:0
108,96,134748,2,0,P|24:96,1,84.9999952316285,8|0,0:0|0:0,0:0:0
76,212,135093,5,2,0:0:0
76,212,135179,1,0,0:0:0
76,212,135265,1,0,0:0:0
164,304,135437,1,8,0:0:0
284,260,135610,1,0,0:0:0
284,260,135696,1,0,0:0:0
284,260,135782,1,0,0:0:0
396,320,135955,1,8,0:0:0
428,292,136041,1,0,0:0:0
444,252,136127,1,0,0:0:0
440,208,136213,1,0,0:0:0
420,168,136299,1,0,0:0:0
320,92,136472,6,0,P|284:60|236:64,1,84.9999952316285,2|0,0:0|0:0,0:0:0
268,144,136817,2,0,P|216:128|176:164,1,84.9999952316285,8|0,0:0|0:0,0:0:0
240,212,137162,2,0,P|152:220|116:296,1,169.999990463257,2|0,0:0|0:0,0:0:0
200,288,137679,1,8,0:0:0
272,332,137851,1,2,0:0:0
348,292,138024,1,0,0:0:0
416,344,138196,2,0,P|464:344|496:308,1,84.9999952316285,8|0,0:0|0:0,0:0:0
476,236,138541,5,2,0:0:0
468,196,138627,1,0,0:0:0
448,160,138713,1,8,0:0:0
412,136,138799,1,0,0:0:0
372,128,138886,2,0,P|332:108|288:120,1,84.9999952316285
248,236,139231,6,0,P|180:260|152:252,1,84.9999952316285,2|0,0:0|0:0,0:0:0
188,176,139575,2,0,P|228:152|280:160,1,84.9999952316285,8|0,0:0|0:0,0:0:0
328,212,139920,1,2,0:0:0
352,248,140006,1,0,0:0:0
360,288,140093,1,0,0:0:0
348,328,140179,1,0,0:0:0
316,356,140265,2,0,P|272:372|232:364,1,84.9999952316285,8|0,0:0|0:0,0:0:0
208,284,140610,6,0,P|164:256|112:264,1,84.9999952316285,2|0,0:0|0:0,0:0:0
60,208,140955,2,0,P|160:184|232:204,1,169.999990463257,8|2,0:0|0:0,0:0:0
260,220,141386,1,0,0:0:0
292,248,141472,1,0,0:0:0
312,284,141558,1,0,0:0:0
312,328,141644,2,0,P|368:348|404:328,1,84.9999952316285,8|0,0:0|0:0,0:0:0
404,84,142334,5,2,0:0:0
124,280,142679,1,8,0:0:0
440,152,143024,1,0,0:0:0
104,208,143368,1,8,0:0:0
444,224,143713,1,0,0:0:0
116,132,144058,1,8,0:0:0
420,288,144403,1,0,0:0:0
156,72,144748,1,8,0:0:0
256,192,145093,12,0,146127,0:0:0
256,192,147162,5,8,0:0:0
256,192,147506,1,2,0:0:0
112,144,158541,6,0,P|164:112|200:112,1,84.9999952316285,2|0,0:0|0:0,0:0:0
400,144,159231,2,0,P|348:112|312:112,1,84.9999952316285
256,160,159920,2,0,P|256:260,1,84.9999952316285,2|0,0:0|0:0,0:0:0
260,332,160610,1,0,0:0:0
296,312,160782,1,0,0:0:0
332,288,160955,1,0,0:0:0
400,236,161299,6,0,P|440:196|436:164,1,84.9999952316285,2|0,0:0|0:0,0:0:0
368,124,161989,2,0,P|376:76|416:56,1,84.9999952316285,2|0,0:0|0:0,0:0:0
460,124,162679,1,2,0:0:0
484,160,162851,1,0,0:0:0
488,204,163024,1,0,0:0:0
480,244,163196,1,0,0:0:0
452,276,163368,1,0,0:0:0
296,212,164058,6,0,P|276:180|228:176,1,84.9999952316285,2|0,0:0|0:0,0:0:0
244,260,164748,2,0,P|204:228|160:236,1,84.9999952316285,2|0,0:0|0:0,0:0:0
200,312,165437,2,0,P|160:292|128:320,2,84.9999952316285,2|0|0,0:0|0:0|0:0,0:0:0
280,344,166472,5,0,0:0:0
316,268,166817,2,0,P|336:228|376:236,2,84.9999952316285,2|0|0,0:0|0:0|0:0,0:0:0
232,264,167851,1,0,0:0:0
180,200,168196,1,2,0:0:0
328,116,168886,1,2,0:0:0
464,216,169575,6,0,P|440:184|392:176,1,84.9999952316285,2|0,0:0|0:0,0:0:0
372,256,170265,2,0,P|340:272|280:248,1,84.9999952316285,0|0,0:0|0:0,0:0:0
320,180,170955,2,0,P|272:148|148:168,1,169.999990463257,2|0,0:0|0:0,0:0:0
112,92,172334,6,0,P|144:72|192:64,1,84.9999952316285,2|0,0:0|0:0,0:0:0
160,156,173024,2,0,P|216:136|244:156,1,84.9999952316285
212,228,173713,2,0,P|284:260|376:232,1,169.999990463257,2|0,0:0|0:0,0:0:0
412,176,175093,1,0,0:0:0
268,84,175782,6,0,P|240:68|184:88,1,84.9999952316285,2|0,0:0|0:0,0:0:0
212,164,176472,2,0,P|120:164,2,84.9999952316285,2|0|0,0:0|0:0|0:0,0:0:0
284,208,177506,1,0,0:0:0
288,124,177851,2,0,P|372:96|440:132,1,169.999990463257,2|0,0:0|0:0,0:0:0
336,268,179231,6,0,P|284:340,1,84.9999952316285,2|0,0:0|0:0,0:0:0
200,336,179920,2,0,P|152:264,1,84.9999952316285
132,184,180610,2,0,P|200:176|208:140|208:140|284:108,1,169.999990463257,2|0,0:0|0:0,0:0:0
344,220,182679,6,0,P|292:300,1,84.9999952316285,2|0,0:0|0:0,0:0:0
212,292,183368,2,0,P|168:206,1,84.9999952316285,2|0,0:0|0:0,0:0:0
220,144,184058,1,2,0:0:0
376,76,184748,1,0,0:0:0
440,132,185093,6,0,P|404:156|352:152,1,84.9999952316285,0|2,0:0|0:0,0:0:0
496,184,185782,2,0,P|460:208|400:212,1,84.9999952316285,0|2,0:0|0:0,0:0:0
504,256,186472,2,0,P|424:276|312:248,1,169.999990463257,0|2,0:0|0:0,0:0:0
300,244,186903,1,0,0:0:0
272,216,186989,1,0,0:0:0
256,176,187075,1,0,0:0:0
256,132,187162,2,0,P|280:92,2,42.4999976158143
136,84,187506,6,0,P|88:96|72:128,1,84.9999952316285,6|0,0:0|0:0,0:0:0
148,168,187851,2,0,P|200:156|212:116,1,84.9999952316285
256,60,188196,1,6,0:0:0
296,44,188282,1,0,0:0:0
332,64,188368,2,0,P|376:80|408:64,2,84.9999952316285
296,140,188886,6,0,P|248:148|200:128,1,84.9999952316285,6|0,0:0|0:0,0:0:0
148,248,189231,2,0,P|192:232|232:272,1,84.9999952316285
292,296,189575,1,12,0:0:0
336,300,189662,1,0,0:0:0
376,284,189748,1,0,0:0:0
408,256,189834,1,0,0:0:0
416,216,189920,1,0,0:0:0
408,176,190006,1,0,0:0:0
384,140,190093,1,0,0:0:0
260,108,190265,6,0,P|208:96|192:64,1,84.9999952316285,4|0,0:0|0:0,0:0:0
128,180,190610,2,0,P|80:156|40:184,1,84.9999952316285,8|0,0:0|0:0,0:0:0
100,284,190955,1,4,0:0:0
136,304,191041,1,0,0:0:0
176,316,191127,1,0,0:0:0
220,316,191213,1,0,0:0:0
260,304,191299,2,0,P|304:280|328:248,1,84.9999952316285,8|0,0:0|0:0,0:0:0
384,140,191644,6,0,P|408:88|440:80,1,84.9999952316285,4|0,0:0|0:0,0:0:0
468,204,191989,2,0,P|456:248|400:264,1,84.9999952316285,8|0,0:0|0:0,0:0:0
344,296,192334,1,4,0:0:0
304,284,192420,1,0,0:0:0
272,256,192506,1,0,0:0:0
252,220,192593,1,0,0:0:0
248,176,192679,2,0,P|248:120,2,42.4999976158143,8|0|0,0:0|0:0|0:0,0:0:0
128,132,193024,6,0,P|64:164|68:192,1,84.9999952316285
132,212,193368,2,0,P|92:248|56:248,1,84.9999952316285,12|0,0:0|0:0,0:0:0
104,324,193713,1,0,0:0:0
184,292,193886,1,0,0:0:0
260,332,194058,1,12,0:0:0
336,292,194231,1,0,0:0:0
412,328,194403,2,0,P|472:292|480:264,1,84.9999952316285
400,248,194748,2,0,P|444:224|456:192,1,84.9999952316285,12|0,0:0|0:0,0:0:0
372,172,195093,2,0,P|388:112|288:56,1,169.999990463257,0|12,0:0|0:0,0:0:0
152,108,195782,6,0,P|100:100|72:124,1,84.9999952316285
144,172,196127,2,0,P|92:184|72:224,1,84.9999952316285,12|0,0:0|0:0,0:0:0
156,236,196472,2,0,P|120:272|136:316,1,84.9999952316285
204,272,196817,2,0,P|224:328|340:328,1,169.999990463257,12|2,0:0|0:0,0:0:0
360,320,197248,1,0,0:0:0
396,296,197334,1,0,0:0:0
416,260,197420,1,0,0:0:0
432,220,197506,1,0,0:0:0
436,176,197593,1,0,0:0:0
424,136,197679,1,2,0:0:0
408,96,197765,1,0,0:0:0
380,64,197851,2,0,P|348:32,3,42.4999976158143
324,116,198196,2,0,P|280:120,3,42.4999976158143,2|0|0|0,0:0|0:0|0:0|0:0,0:0:0
336,188,198541,6,0,P|288:192|256:224,1,84.9999952316285
328,268,198886,2,0,P|272:304|228:296,1,84.9999952316285,12|0,0:0|0:0,0:0:0
172,288,199231,1,0,0:0:0
132,272,199317,1,0,0:0:0
108,236,199403,1,0,0:0:0
96,196,199489,1,0,0:0:0
100,152,199575,2,0,P|112:112|148:88,1,84.9999952316285,4|0,0:0|0:0,0:0:0
188,164,199920,2,0,P|232:140|240:92,1,84.9999952316285
256,24,200265,2,0,P|368:24|416:68,1,169.999990463257,4|0,0:0|0:0,0:0:0
420,100,200696,1,0,0:0:0
408,140,200782,1,0,0:0:0
384,176,200868,1,0,0:0:0
348,196,200955,1,8,0:0:0
208,296,201299,6,0,P|144:272|136:240,1,84.9999952316285,0|0,0:0|0:0,0:0:0
212,220,201644,2,0,P|188:188|140:180,1,84.9999952316285,12|0,0:0|0:0,0:0:0
96,108,201989,1,0,0:0:0
128,84,202075,1,0,0:0:0
168,72,202162,1,0,0:0:0
208,84,202248,1,0,0:0:0
240,112,202334,2,0,P|288:136|324:104,1,84.9999952316285,12|0,0:0|0:0,0:0:0
388,84,202679,5,0,0:0:0
428,92,202765,1,0,0:0:0
456,124,202851,1,0,0:0:0
384,168,203024,2,0,P|428:208|472:192,1,84.9999952316285,4|0,0:0|0:0,0:0:0
460,292,203368,5,0,0:0:0
428,320,203455,1,0,0:0:0
388,332,203541,1,8,0:0:0
344,332,203627,1,0,0:0:0
304,316,203713,2,0,P|252:288|208:304,1,84.9999952316285,4|0,0:0|0:0,0:0:0
100,176,204403,6,0,P|28:112,1,84.9999952316285,4|0,0:0|0:0,0:0:0
204,140,204748,2,0,P|192:48,1,84.9999952316285,0|0,0:0|0:0,0:0:0
308,140,205093,2,0,P|320:48,1,84.9999952316285,4|0,0:0|0:0,0:0:0
412,176,205437,2,0,P|484:112,1,84.9999952316285
396,272,205782,6,0,P|352:296|296:280,1,84.9999952316285,4|0,0:0|0:0,0:0:0
312,208,206127,2,0,P|260:196|208:220,1,84.9999952316285
216,288,206472,2,0,P|160:296|104:268,1,84.9999952316285,4|0,0:0|0:0,0:0:0
68,232,206817,5,8,0:0:0
68,232,206903,1,0,0:0:0
68,232,206989,1,0,0:0:0
132,120,207162,1,0,0:0:0
232,200,207334,1,8,0:0:0
232,200,207420,1,0,0:0:0
232,200,207506,1,0,0:0:0
276,80,207679,1,0,0:0:0
404,80,207851,5,8,0:0:0
432,112,207937,1,0,0:0:0
452,148,208024,1,0,0:0:0
440,188,208110,1,0,0:0:0
412,220,208196,2,0,P|364:256,12,42.4999976158143,8|0|0|0|0|0|8|0|0|0|0|0|8,0:0|0:0|0:0|0:0|0:0|0:0|0:0|0:0|0:0|0:0|0:0|0:0|0:0,0:0:0
256,192,209575,12,0,214748,0:0:0
368,120,215093,5,4,0:0:0
204,80,215265,5,4,0:0:0
316,208,215437,5,4,0:0:0
308,36,215610,5,4,0:0:0
212,176,215782,5,4,0:0:0
48,216,215955,5,4,0:0:0
204,280,216127,5,4,0:0:0
116,136,216299,5,4,0:0:0
100,304,216644,5,4,0:0:0
100,304,216817,1,4,0:0:0
100,304,216989,1,4,0:0:0
