osu file format v5

[General]
AudioFilename: H_69855.mp3
AudioLeadIn: 0
PreviewTime: 101782
Countdown: 3
SampleSet: Normal
StackLeniency: 0.7
Mode: 0
LetterboxInBreaks: 1
SkinPreference:Default

[Editor]
Bookmarks: 52461,101782
DistanceSpacing: 1
BeatDivisor: 1
GridSize: 8

[Metadata]
Title:Wash My Blood
Artist:Deadball-P
Creator:JarJarJacob
Version:Heavy Flow
Source:
Tags:Megurine Luka

[Difficulty]
HPDrainRate:7
CircleSize:5
OverallDifficulty:7
SliderMultiplier:1.6
SliderTickRate:1

[Events]
//Background and Video events
0,0,"wash_my_blood01.png"
//Break Periods
2,74760,83714
//Storyboard Layer 0 (Background)
//Storyboard Layer 1 (Fail)
//Storyboard Layer 2 (Pass)
//Storyboard Layer 3 (Foreground)
//Storyboard Sound Samples
//Background Colour Transformations
3,100,163,162,255

[TimingPoints]
26560,324.324324324324,4,1,0,100,1,0
103100,-100,4,1,0,100,0,1
110884,-100,4,1,0,100,0,1
113438,-100,4,1,0,100,0,0
113474,-100,4,1,0,100,0,1
119995,-100,4,1,0,100,0,0
121262,-100,4,1,0,100,0,1

[Colours]
Combo1 : 106,0,0
Combo2 : 255,21,21

[HitObjects]
40,152,52505,2,2,B|40:400|472:400|472:136,1,640,2|6
256,112,54127,5,0
128,80,54451,1,2
256,32,54776,1,0
384,80,55100,1,2
384,80,55262,1,0
384,80,55424,1,0
128,80,55749,1,2
128,80,55911,1,0
128,80,56073,1,0
96,352,56397,6,4,B|240:384|176:320|432:352,1,320,4|0
256,240,57370,1,0
120,288,57695,2,2,B|120:-56|408:-56|408:296,1,640,2|6
336,352,59316,6,0,B|144:352,1,160,0|2
176,224,59965,2,0,B|368:224,2,160,0|2|0
256,112,60938,1,2
256,112,61100,1,0
256,112,61262,1,0
128,336,61587,5,4
192,336,61749,1,0
256,336,61911,1,0
384,336,62235,1,0
320,336,62397,1,0
256,336,62559,1,0
256,96,62884,5,0
216,144,63046,1,0
176,192,63208,1,2
256,272,63532,1,0
296,232,63695,1,0
336,192,63857,1,2
256,96,64181,1,4
416,192,64505,6,0,B|416:144|464:160|464:112|512:128|512:64,2,160,0|2|0
416,320,65478,1,2
416,320,65641,1,0
416,320,65803,1,0
256,320,66127,1,2
256,320,66289,1,0
256,320,66451,1,0
32,272,66776,6,0,B|32:16,1,240,0|0
96,32,67424,2,0,B|368:32,1,240,0|0
400,32,68073,2,2,B|544:32|544:224|400:224,1,320,6|2
272,224,69046,1,2
208,224,69208,1,0
144,224,69370,1,4
80,336,69695,5,0
144,336,69857,1,0
208,336,70019,1,2
336,336,70343,1,0
400,336,70505,1,0
464,336,70668,1,2
208,336,70992,1,0
144,336,71154,1,0
80,336,71316,1,2
224,32,71965,2,6,B|64:80|64:160|192:304|336:304|480:160|480:80|288:32|224:32,1,640,2|6
256,320,73911,5,0
256,320,74073,1,0
256,320,74235,1,0
256,320,74397,1,0
256,320,74560,1,4
256,320,84614,5,0
112,288,84938,2,0,B|112:-48|416:-48|416:288,3,640,4|2|2|2
256,336,89478,1,0
256,336,89641,1,0
256,336,89803,1,0
256,336,89965,1,0
256,336,90127,5,4
112,224,90451,1,2
160,48,90776,1,0
352,48,91100,1,2
400,224,91424,1,0
256,336,91749,1,2
112,224,92073,1,0
160,48,92397,1,2
256,112,92614,1,0
256,112,92722,1,4
256,192,92762,12,4,97911
256,192,97951,12,0,100505
32,48,101803,5,2
32,160,102019,1,0
112,64,102235,1,2
112,176,102451,1,0
192,80,102668,1,2
192,192,102884,1,0
264,88,103100,2,4,B|328:-24|440:-24|552:40|552:200|440:328|328:328|264:200,1,640,4|0
144,192,104722,5,0
32,128,105046,2,2,B|32:272,1,106.666666666667
32,352,105478,1,2
128,352,105695,2,0,B|128:96,1,240,4|0
192,128,106343,2,2,B|424:208|192:336,1,320,2|2
464,304,107316,5,0
464,240,107478,1,0
464,176,107641,2,2,B|304:176,2,106.666666666667
464,64,108289,2,0,B|336:32|240:128|128:48,1,320,4|2
16,80,109262,5,0
72,112,109424,1,0
128,144,109587,1,2
16,224,109911,1,0
128,288,110235,1,2
72,320,110397,1,0
16,352,110560,1,0
256,192,110884,5,6
256,192,111100,1,0
256,192,111316,1,0
256,192,111532,1,6
256,192,111749,1,0
256,192,111965,1,0
256,192,112181,1,6
56,352,112830,5,2
120,256,113046,1,0
0,256,113262,1,2
0,144,113478,2,0,B|96:96|176:176|320:144,1,320,4|0
464,160,114451,1,2
464,224,114614,1,0
464,288,114776,1,2
256,320,114992,6,0,B|256:160|256:160|200:160|200:96|200:40|258:40|320:40|320:160|256:160,1,426.666666666667,0|0
336,224,116073,2,2,B|128:224,4,160,6|2|2|2|2
464,48,117695,5,2
464,208,118019,1,0
416,304,118235,1,2
368,208,118451,1,0
320,304,118668,2,0,B|128:336|-16:208,1,320,4|0
256,192,119641,1,0
256,192,119803,1,0
256,192,119965,1,4
128,64,120614,5,0
192,64,120776,1,0
256,64,120938,1,0
320,64,121100,1,0
384,64,121262,1,6
256,192,121303,12,0,123532
