osu file format v5

[General]
AudioFilename: Dead or Alive - You Spin Me Round.mp3
AudioLeadIn: 0
PreviewTime: -1
Countdown: 2
SampleSet: Normal
StackLeniency: 0.7
Mode: 0

[Metadata]
Title:You spin me right round
Artist:Dead or Alive
Creator:Lord Hagen
Version:Insane
Source:
Tags:

[Difficulty]
HPDrainRate:7
CircleSize:6
OverallDifficulty:7
SliderMultiplier:1.4
SliderTickRate:2

[Events]
//Background and Video events
0,0,"cover-dancelg.jpg"
//Break Periods
2,49612,56757
2,72002,78800
2,109319,114902
//Storyboard Layer 0 (Background)
//Storyboard Layer 1 (Failing)
//Storyboard Layer 2 (Passing)
//Storyboard Layer 3 (Foreground)
//Storyboard Sound Samples
//Background Colour Transformations
3,100,248,11,17

[TimingPoints]
380,694.2686462,4,1,0,100

[HitObjects]
96,160,11661,1,4
96,160,11922,2,4,B|480:160,1,367.5
320,64,14352,5,2
256,128,14612,1,2
384,192,14872,1,2
160,192,15133,2,2,B|192:160,1,35
256,64,15653,2,2,B|256:320,1,245
256,192,17042,12,4,18691
256,192,18951,1,4
480,320,19385,1,4
256,32,19819,2,4,B|384:192|256:320|192:288,1,332.5
480,32,21815,5,0
480,96,21989,1,0
480,160,22162,1,0
416,160,22336,1,0
416,96,22509,1,0
416,32,22683,1,0
352,32,22856,1,0
352,96,23030,1,0
352,224,23204,2,0,B|480:224,5,122.5
224,64,27109,5,2
256,128,27369,1,2
288,192,27630,1,2
320,256,27890,2,2,B|448:320,1,140
256,160,29192,1,2
192,288,29365,1,2
320,288,29626,1,2
256,224,29799,1,2
320,192,30059,1,2
192,160,30319,1,2
224,96,30493,1,2
384,96,30927,5,4
416,256,31188,1,4
320,128,31448,1,4
448,192,31708,1,4
320,256,31969,1,4
384,160,32142,1,4
256,128,32403,2,4,B|256:224,4,87.5
256,32,34399,2,4,B|416:32,1,157.5
256,192,35353,12,0,36829
256,192,36915,5,0
256,192,37002,1,0
256,128,37263,1,0
256,128,37349,1,0
320,128,37523,1,0
320,128,37610,1,0
320,192,37870,1,0
320,64,38217,2,0,B|320:256,1,175
352,64,39259,6,0,B|480:256|288:320|192:128|32:224,1,507.5
43,217,41949,1,0
256,192,42209,12,0,44292
256,160,44552,5,2
256,160,44639,1,2
128,192,44899,1,2
128,192,44986,1,2
224,320,45247,1,2
224,320,45333,1,2
320,224,45594,1,2
320,224,45681,1,2
384,96,45941,1,2
384,96,46028,1,2
256,96,46288,1,2
256,96,46375,1,2
256,192,46635,1,2
192,160,46809,1,4
352,160,47069,1,4
416,288,47329,1,4
192,256,47590,1,4
160,96,47850,1,4
320,96,48110,1,4
256,96,48371,1,4
288,224,48631,1,4
192,160,48892,1,4
96,192,49152,1,4
352,192,49412,1,4
256,192,57657,5,0
256,64,58004,2,0,B|416:224|224:352|96:192|96:160,1,420
160,64,60260,2,0,B|320:256,2,245
160,64,62864,1,4
320,64,63298,1,4
320,288,63732,1,4
128,288,64252,1,4
256,32,65207,2,4,B|32:288|256:352|448:320|480:192|448:64|320:32|288:160|256:224|256:192,1,700
128,64,68939,1,0
192,64,69199,1,0
256,64,69459,1,0
320,64,69720,1,0
384,64,69893,1,0
448,64,70153,1,0
448,128,70327,1,0
448,128,70414,1,0
288,192,70674,1,0
288,192,70761,1,0
160,160,71021,1,0
160,160,71108,1,0
288,384,71542,1,0
192,288,71802,1,0
256,192,79700,5,2
192,96,80220,1,2
416,128,80568,1,2
192,288,81001,1,2
192,128,81869,1,0
256,128,82043,1,0
320,128,82303,1,0
384,128,82564,2,0,B|384:224,1,87.5
320,224,83171,2,0,B|256:224,1,52.5
224,128,83692,2,0,B|224:192,1,52.5
192,288,84126,2,0,B|256:224,1,87.5
320,160,84820,2,0,B|352:224,1,70
192,192,85341,2,0,B|224:128,1,70
224,64,85861,2,0,B|288:64,1,52.5
288,128,86729,5,2
288,128,86903,1,2
384,96,87684,1,2
384,192,88118,1,2
256,224,88552,2,2,B|192:224,1,52.5
192,96,89246,1,4
224,96,89419,1,4
192,128,89593,1,4
224,128,89767,1,4
192,160,89940,1,4
224,160,90114,1,4
192,192,90287,1,4
224,192,90461,1,4
192,224,90634,1,4
224,224,90808,1,4
192,288,90982,2,4,B|256:288,13,52.5
160,64,94713,5,4
224,128,94974,1,4
288,192,95234,1,4
352,224,95494,1,4
384,288,95841,1,4
256,96,96536,5,2
224,192,96796,1,2
320,192,97056,1,2
448,288,97317,1,2
288,288,97577,1,2
352,288,97837,1,2
160,64,98271,6,0,B|224:64,1,52.5
160,160,98792,2,0,B|160:224,1,52.5
224,192,99226,2,0,B|288:192,1,52.5
384,64,99660,2,0,B|384:128,1,52.5
160,288,100094,2,0,B|384:288|224:64|160:192|288:352|352:288|416:224|352:192,1,367.5
384,224,102090,1,0
96,64,102611,5,4
192,64,103044,1,4
288,64,103478,1,4
352,64,103912,2,4,B|352:192,1,122.5
224,128,104954,1,4
288,128,105214,1,4
384,128,105474,1,4
448,128,105735,1,4
448,192,105908,1,4
448,256,106082,1,4
320,224,106429,5,2
224,192,106689,1,2
256,288,106863,1,2
160,256,107037,1,2
256,256,107297,1,2
256,256,107470,1,2
256,32,107731,1,2
256,352,108251,1,2
480,192,108685,1,2
64,192,109119,1,2
288,160,115802,5,4
352,160,116236,5,4
416,160,116669,5,4
480,32,117103,6,4,B|32:352|32:32|288:64|224:352|480:320|288:32|128:64|32:96,1,805
47,91,121182,6,4,B|256:352,1,315
288,224,122918,5,4
288,32,123265,5,4
288,160,123699,5,4
288,288,124133,5,4
224,96,124567,1,2
416,96,124827,1,2
416,256,125088,1,2
224,256,125348,1,2
320,160,125608,1,2
192,192,125869,1,2
320,96,126129,1,2
352,288,126389,1,2
448,192,126650,1,2
224,128,126910,1,2
352,160,127170,1,2
128,160,127431,1,2
192,192,127691,1,2
352,64,127951,1,2
320,288,128212,1,2
128,288,128472,1,2
224,64,128732,1,2
352,224,128993,1,2
64,128,129253,1,2
320,128,129513,1,2
224,256,129774,1,2
160,160,130034,1,2
384,160,130295,1,2
160,64,130555,1,2
256,128,130815,1,2
288,224,131076,1,2
288,64,131336,1,2
160,224,131596,1,2
160,96,131857,1,2
224,32,132030,5,4
352,128,132291,1,4
384,192,132551,1,4
384,288,132811,1,4
320,320,133072,1,4
224,288,133332,1,4
288,224,133592,1,4
224,128,133853,1,4
352,128,134113,1,4
416,192,134373,1,4
224,192,134634,1,4
416,288,134894,1,4
160,288,135154,1,4
320,64,135415,1,4
448,128,135675,1,4
320,224,135935,1,4
224,320,136196,1,4
192,160,136456,1,4
320,160,136717,1,4
352,256,136977,1,4
224,224,137238,1,4
288,96,137498,1,4
192,96,137758,1,4
384,224,138018,1,4
160,256,138279,1,4
256,160,138539,1,4
128,160,138799,1,4
352,160,139060,1,4
288,320,139320,1,4
256,160,139580,1,4
256,64,140101,5,0
160,256,140535,1,0
384,224,140969,1,0
256,160,141403,1,0
256,224,141576,1,0
352,128,141750,1,0
224,128,141924,1,0
320,256,142531,1,0
192,224,142965,1,0
160,96,143138,1,0
256,160,143312,1,0
160,160,143486,1,0
256,192,143746,12,0,147217
