osu file format v6

[General]
AudioFilename: 24480362.mp3
AudioLeadIn: 0
PreviewTime: -1
Countdown: 1
SampleSet: Soft
StackLeniency: 0.7
Mode: 0
LetterboxInBreaks: 1

[Editor]
Bookmarks: 106694,181225
DistanceSpacing: 0.800000011920929
BeatDivisor: 2
GridSize: 32

[Metadata]
Title:You Spin Me Round(Like a Reccord)
Artist:Dead or Alive
Creator:ebebeby
Version:not so hard
Source:
Tags:

[Difficulty]
HPDrainRate:7
CircleSize:5
OverallDifficulty:5
SliderMultiplier:1
SliderTickRate:1

[Events]
//Background and Video events
Video,299,"24268816.flv"
//Break Periods
2,132206,138775
//Storyboard Layer 0 (Background)
//Storyboard Layer 1 (Fail)
//Storyboard Layer 2 (Pass)
//Storyboard Layer 3 (Foreground)
//Storyboard Sound Samples
//Background Colour Transformations
3,100,163,162,255

[TimingPoints]
12475.3918632008,468.75,4,2,0,100,1,0

[HitObjects]
32,32,12006,1,0
64,32,12241,1,0
32,96,14584,1,0
64,96,14819,1,0
96,96,15053,1,0
128,96,15287,1,0
160,96,15522,1,0
224,96,15991,1,0
480,32,19272,5,0
480,64,19506,1,0
480,96,19741,1,0
416,32,22084,1,0
384,32,22319,1,0
352,32,22553,1,0
320,32,22787,1,0
288,32,23022,1,0
224,32,23491,1,0
160,32,23959,1,0
96,32,24428,1,0
32,32,24897,1,0
32,192,27475,5,0
64,192,27709,1,0
96,192,27944,1,0
128,192,28178,1,0
160,192,28412,1,0
224,192,28764,1,0
224,256,29350,1,0
256,256,29584,1,0
288,256,29819,1,0
320,256,30053,1,0
352,256,30287,1,0
384,256,30522,1,0
416,256,30756,1,0
416,320,31225,5,0
384,320,31459,1,0
352,320,31694,1,0
320,320,31928,1,0
288,320,32162,1,0
256,320,32397,1,0
224,320,32631,1,0
160,320,33100,2,0,B|128:288|128:256,4,100
192,224,37084,5,0
224,224,37319,1,0
256,224,37553,1,0
288,224,37787,1,0
320,224,38022,1,0
384,224,38491,1,0
256,208,39194,12,0,41537
256,192,42006,5,0
224,192,42241,1,0
64,192,44584,1,0
64,160,44819,1,0
64,128,45053,1,0
64,96,45287,1,0
64,64,45522,1,0
128,64,45991,1,0
192,64,46459,1,0
256,64,46928,1,0
320,64,47397,1,0
416,32,49975,5,0
416,64,50209,1,0
416,96,50444,1,0
416,128,50678,1,0
416,160,50912,1,0
416,224,51264,1,0
416,288,51850,1,0
384,288,52084,1,0
352,288,52319,1,0
320,288,52553,1,0
288,288,52787,1,0
256,288,53022,1,0
224,288,53256,1,0
160,288,53725,5,0
128,256,53959,1,0
96,224,54194,1,0
96,192,54428,1,0
96,160,54662,1,0
128,128,54897,1,0
160,96,55131,1,0
224,64,55600,2,0,B|256:96|256:128,2,100
160,64,57006,1,0
96,64,57475,1,0
32,128,57944,5,0
32,192,58412,1,0
32,256,58881,1,0
32,320,59350,1,0
96,320,59819,1,0
160,320,60287,1,0
192,320,60522,1,0
224,320,60756,1,0
288,320,61225,1,0
352,320,61694,1,0
384,320,61928,1,0
416,320,62162,1,0
448,320,62397,1,0
480,320,62631,1,0
480,288,62866,1,0
480,256,63100,1,0
480,192,63569,1,0
480,128,64037,1,0
480,64,64506,1,0
416,32,65444,5,0
352,32,65912,1,0
288,32,66381,1,0
224,32,66850,1,0
160,32,67319,1,0
96,32,67787,1,0
64,32,68022,1,0
32,32,68256,1,0
32,96,68725,1,0
32,160,69194,1,0
32,192,69428,1,0
32,224,69662,1,0
32,256,69897,1,0
32,288,70131,1,0
32,320,70366,1,0
32,352,70600,1,0
96,352,71069,1,0
160,352,71537,1,0
224,352,72006,1,0
288,352,72475,5,0
352,352,72944,1,8
416,352,73412,1,0
480,352,73881,1,8
480,288,74350,1,0
480,224,74819,1,8
480,160,75287,1,0
480,96,75756,1,8
256,208,76225,12,0,79037
192,128,79975,5,0
320,128,80444,1,0
192,224,80912,1,0
320,224,81381,1,0
384,224,82084,1,0
416,224,82319,1,0
416,192,82553,1,0
416,160,82787,1,0
384,160,83022,1,0
320,160,83491,1,0
256,160,83959,1,0
192,160,84428,1,0
128,160,84897,1,0
96,192,87006,1,0
128,192,87241,1,0
160,192,87475,5,0
256,192,87944,1,0
160,256,88412,1,0
256,256,88881,1,0
224,256,89584,1,0
192,256,89819,1,0
160,256,90053,1,0
160,224,90287,1,0
192,224,90522,1,0
192,192,90756,1,0
160,192,90991,1,0
128,192,91225,2,0,B|96:192,1,50
96,128,91694,1,0
96,96,91928,1,0
96,64,92162,1,0
128,64,92397,1,0
128,96,92631,1,0
128,128,92866,1,0
160,128,93100,2,0,B|160:96|192:96,1,50
224,96,93569,1,0
256,96,93803,2,0,B|256:128,1,50
192,128,94272,1,0
192,192,94975,5,0
192,224,95209,1,0
192,256,95444,1,0
192,288,95678,1,0
192,320,95912,1,0
256,320,96264,1,0
256,256,96850,1,0
224,256,97084,1,0
224,224,97319,1,0
256,224,97553,1,0
256,192,97787,1,0
224,192,98022,1,0
192,192,98256,1,0
192,224,98725,1,0
192,256,98959,1,0
224,256,99194,1,0
224,224,99428,1,0
224,192,99662,1,0
192,192,99897,1,0
160,192,100131,1,0
96,192,100600,2,0,B|96:160,12,25
96,128,102475,1,0
96,96,102944,5,0
160,96,103412,1,0
160,160,103881,1,0
96,160,104350,1,0
32,160,104819,1,0
32,96,105287,1,0
32,64,105522,1,0
32,32,105756,1,0
96,32,106225,1,0
160,32,106694,1,0
192,32,106928,1,0
224,32,107162,1,0
224,64,107397,1,0
224,96,107631,1,0
224,128,107866,1,0
224,160,108100,1,0
224,224,108569,1,0
160,224,109037,1,0
96,224,109506,1,0
32,224,110444,5,0
32,288,110912,1,0
32,352,111381,1,0
96,352,111850,1,0
160,352,112319,1,0
224,352,112787,1,0
224,320,113022,1,0
224,288,113256,1,0
224,224,113725,1,0
224,160,114662,1,0
224,128,114897,1,0
256,128,115131,1,0
256,160,115366,1,0
224,160,115600,1,0
224,128,115834,1,0
224,96,116069,1,0
224,32,116537,1,0
288,32,117006,1,0
256,208,117475,12,0,120756
256,208,121225,12,0,124506
256,208,124975,12,0,128256
256,208,128725,12,0,132006
256,208,139975,12,0,143725
256,192,144194,5,0
224,192,144428,1,0
224,160,144662,1,0
256,160,144897,1,0
288,160,145131,1,0
288,192,145366,1,0
288,224,145600,1,0
256,224,145834,1,0
224,224,146069,1,0
224,192,146303,1,0
224,160,146537,1,0
256,160,146772,1,0
288,160,147006,1,0
288,192,147241,1,0
256,192,147475,1,0
256,208,147709,12,0,151225
256,192,151694,5,0
288,192,151928,1,0
288,160,152162,1,0
256,160,152397,1,0
224,160,152631,1,0
224,192,152866,1,0
224,224,153100,1,0
256,224,153334,1,0
288,224,153569,1,0
288,192,153803,1,0
288,160,154037,1,0
256,160,154272,1,0
224,160,154506,1,0
224,192,154741,1,0
256,192,154975,1,0
256,208,155209,12,0,162475
256,208,162709,12,0,169975
256,208,170209,12,0,177475
256,192,177944,5,0
320,192,178412,1,0
320,256,178881,1,0
256,256,179350,1,0
192,256,179819,1,0
192,192,180287,1,0
192,160,180522,1,0
192,128,180756,1,0
256,128,181225,1,0
