osu file format v9

[General]
AudioFilename: Dead By April - Losing You.mp3
AudioLeadIn: 2982
PreviewTime: 44949
Countdown: 0
SampleSet: Normal
StackLeniency: 0.4
Mode: 0
LetterboxInBreaks: 0
EpilepsyWarning: 1

[Editor]
Bookmarks: 28949,198279,208211
DistanceSpacing: 1
BeatDivisor: 4
GridSize: 16

[Metadata]
Title:Losing You
Artist:Dead by April
Creator:hitmefast
Version:Hard
Source:
Tags:rock pop doom

[Difficulty]
HPDrainRate:6
CircleSize:5
OverallDifficulty:6
ApproachRate:8
SliderMultiplier:1.3
SliderTickRate:1

[Events]
//Background and Video events
0,0,"background.png"
Video,0,"Dead By April - Losing You (HQ).flv"
//Break Periods
2,33149,35199
2,41149,44199
2,64816,68533
2,89149,92199
2,142149,145199
//Storyboard Layer 0 (Background)
//Storyboard Layer 1 (Fail)
//Storyboard Layer 2 (Pass)
//Storyboard Layer 3 (Foreground)
//Storyboard Sound Samples
//Background Colour Transformations
3,100,163,162,255

[TimingPoints]
950,333.333333333333,3,1,0,50,1,0
24949,-100,3,2,0,50,0,1
32949,-100,3,2,0,50,0,0
35949,-100,3,2,0,50,0,1
40949,-100,3,2,0,30,0,0
44949,-166.666666666667,3,2,0,30,0,1
63949,-100,3,2,0,50,0,0
92949,-100,3,2,0,50,0,1
124949,-100,3,2,0,50,0,0
135949,-66.6666666666667,3,1,0,50,0,0
149949,-100,3,2,0,50,0,1
197949,-100,3,1,0,50,0,0

[Colours]
Combo1 : 240,111,15
Combo2 : 128,0,0
Combo3 : 128,64,64
Combo4 : 255,128,64

[HitObjects]
256,192,8949,1,4
256,192,9116,1,0
160,192,9949,1,4
160,192,10116,1,0
352,192,10949,1,4
352,192,11116,1,0
256,288,12949,5,4
256,288,13116,1,0
256,96,13949,1,4
256,96,14116,1,0
256,192,14949,1,4
256,192,15116,1,0
160,96,16949,5,4
160,96,17116,1,0
352,288,17949,1,4
352,288,18116,1,0
256,192,18949,1,4
256,192,19116,1,0
352,96,20949,5,4
352,96,21116,1,0
160,288,21949,1,4
160,288,22116,1,0
256,192,22949,1,4
256,192,23116,1,0
112,320,25283,5,0
128,256,25449,1,0
176,304,25616,2,0,B|240:304|240:368|320:352,1,130
400,320,26283,5,0
384,256,26449,1,0
336,304,26616,2,0,B|272:304|272:368|192:352,1,130
256,224,27283,5,0
256,96,27617,1,0
256,224,27949,2,0,B|176:224|176:96|256:96,1,195
96,64,28949,5,0
128,112,29116,1,0
160,64,29283,1,0
256,144,29616,1,0
352,64,29949,5,0
416,64,30116,1,0
384,112,30283,1,0
256,144,30616,1,0
256,272,30949,5,0
128,272,31283,1,0
192,272,31449,2,0,B|256:272,1,65
384,272,31949,5,0
320,272,32116,1,0
256,240,32283,1,0
256,112,32616,1,0
256,240,32949,1,0
128,64,35949,6,0,B|160:64|160:128|192:128,2,65
80,112,36449,1,0
128,160,36616,1,0
64,272,36949,1,0
128,384,37283,1,0
368,384,37949,1,0
448,272,38283,1,0
368,160,38616,1,0
400,96,38783,2,0,B|384:48|336:48,2,65
336,112,39283,1,0
256,192,39616,12,0,40949
256,96,44949,5,0
256,336,45949,1,0
96,176,46949,1,0
320,240,47949,1,0
160,64,48949,1,0
176,96,49116,5,2
240,144,49449,1,0
272,160,49616,1,8
272,192,49782,1,0
304,208,49949,1,2
384,288,50449,5,0
416,288,50616,2,0,B|400:208,1,78.000001859665
384,192,51116,1,8
352,176,51283,2,0,B|272:126|192:176,1,156.00000371933
176,192,52116,1,8
160,224,52283,2,0,B|144:300,1,78.000001859665
192,304,52949,5,2
256,80,53949,1,0
384,272,54949,1,2
160,224,55949,1,0
384,144,56949,1,2
384,144,57116,1,0
304,96,57449,1,0
256,80,57616,1,0
208,96,57783,1,0
160,144,58116,5,0
192,112,58283,1,0
256,192,58616,1,0
176,240,58949,1,0
256,288,59283,1,0
336,240,59616,1,0
336,144,59949,1,0
304,112,60116,1,0
256,192,60283,12,0,64616
256,96,69283,5,0
272,160,69449,1,2
320,208,69616,1,0
256,192,69783,1,2
192,208,69949,1,0
240,160,70116,1,2
288,288,70283,2,0,B|352:336,2,65
256,192,70949,1,0
224,288,71283,2,0,B|160:336,2,65
256,160,71949,5,0
224,208,72116,1,0
288,208,72283,1,0
256,160,72949,5,0
128,112,73283,6,0,B|192:160|192:160|192:80|256:48|320:80|320:160|320:160|384:112,1,390
256,160,74616,2,0,B|256:320,1,130
192,240,77283,5,0
320,240,77616,1,0
256,352,77949,1,0
256,224,78283,2,0,B|240:256|336:272|144:288|368:304|160:320|288:336|256:352|256:352,1,130
128,128,79283,5,0
176,80,79449,1,0
224,32,79616,1,0
384,128,80116,1,0
336,80,80283,1,0
256,176,80616,1,0
256,240,80949,2,0,B|256:304,2,65
256,192,81616,12,0,82616
144,192,82949,5,0
192,144,83116,2,0,B|224:128|256:144,1,65
368,192,83616,1,0
320,240,83783,2,0,B|288:256|256:240,1,65
256,112,84283,1,0
384,128,84616,1,0
336,80,84783,1,0
288,32,84949,1,0
176,80,85283,1,0
128,128,85449,1,0
288,224,85949,5,0
224,224,86116,1,0
256,288,86283,2,0,B|256:160,1,130
224,112,86783,1,0
288,112,86949,1,0
256,64,87283,1,0
192,64,87449,1,0
160,112,87616,1,0
128,64,87783,1,0
192,64,87949,1,0
320,64,88283,1,0
352,112,88449,1,0
384,64,88616,1,0
256,112,88949,1,0
192,96,92949,5,0
320,96,93283,1,0
192,320,93949,1,0
320,320,94283,1,0
256,64,94949,1,0
256,192,95283,1,0
256,192,95949,5,0
256,256,96116,1,0
256,320,96283,1,0
256,192,96616,1,0
256,304,98283,2,0,B|256:240,1,65
144,304,98783,1,0
192,272,98949,1,0
320,272,99283,1,0
256,304,99449,2,0,B|256:240,1,65
368,304,99949,1,0
160,272,100949,6,0,B|96:176|160:80,1,195
352,80,101949,6,0,B|410:167|346:263,1,195
352,272,102949,6,0,B|264:330|168:266,1,195
160,64,103949,6,0,B|247:5|343:69,1,195
256,192,104949,12,0,106283
192,224,106783,1,0
256,192,106949,1,0
320,160,107116,1,0
256,128,107449,1,0
256,192,107616,1,0
256,256,107783,1,0
320,224,107949,2,0,B|192:160|192:160,1,130
192,224,108449,2,0,B|320:160|320:160,1,130
224,224,109283,1,0
288,224,109449,1,0
256,160,109616,2,0,B|352:64,1,130
256,160,110283,1,0
288,224,110449,1,0
224,224,110616,2,0,B|128:128,1,130
224,224,111283,1,0
256,160,111449,1,0
288,224,111616,2,0,B|384:320,1,130
288,224,112283,1,0
256,160,112449,1,0
256,192,112616,12,0,114283
256,192,116283,5,0
128,224,116950,1,0
160,288,117116,1,0
192,224,117283,2,0,B|240:256|192:304|288:304,1,130
384,224,117949,1,0
352,288,118115,1,0
320,224,118283,2,0,B|272:256|320:304|224:304,1,130
256,176,118949,2,0,B|256:48,1,130
256,46,119616,5,0
320,64,119783,2,0,B|384:112,1,65
320,144,120116,2,0,B|384:192,1,65
256,46,120616,2,0,B|256:176,1,130
192,64,121283,2,0,B|128:112,1,65
192,144,121617,2,0,B|128:192,1,65
256,224,122283,1,0
256,192,123283,12,0,124949
224,64,125949,5,0
288,64,126116,1,0
256,192,126449,1,0
256,192,126616,1,0
288,320,126949,1,0
224,320,127116,1,0
256,192,127449,1,0
256,192,127616,1,0
96,224,127949,1,0
96,160,128116,1,0
256,192,128449,1,0
256,192,128616,1,0
416,160,128949,1,0
416,224,129116,1,0
256,192,129449,1,0
256,192,129616,1,0
416,272,129949,5,0
368,320,130116,1,0
256,192,130449,1,0
256,192,130616,1,0
160,80,130949,1,0
112,128,131116,1,0
256,192,131449,1,0
256,192,131616,1,0
432,112,131949,1,0
384,64,132116,1,0
256,192,132449,1,0
256,192,132616,1,0
112,256,132949,1,0
160,304,133116,1,0
256,192,133449,1,0
256,192,133616,1,0
256,192,133949,12,0,135616
256,192,135949,6,0,B|208:208|176:160|192:80|272:48|352:80|384:160|368:256|304:320|208:304|128:240|128:160|160:112,2,536.249984018505
256,192,137949,6,0,B|240:144|288:112|368:128|400:208|368:288|288:320|192:304|128:240|144:144|208:64|288:64|336:96,2,536.249984018505
256,192,139949,6,0,B|304:176|336:224|320:304|240:336|160:304|128:224|144:128|208:64|304:80|384:144|384:224|352:272,2,536.249984018505
256,192,141949,1,0
160,144,145949,6,0,B|192:80,4,65
352,144,146949,6,0,B|320:80,4,65
144,288,147949,1,0
368,288,148949,1,0
224,160,149949,5,0
208,128,150116,1,0
208,96,150283,1,0
224,64,150449,1,0
256,48,150616,1,0
288,160,150949,5,0
320,144,151116,1,0
352,144,151283,1,0
384,160,151449,1,0
400,192,151616,1,0
288,224,151949,5,0
304,256,152116,1,0
304,288,152283,1,0
288,320,152449,1,0
256,336,152616,1,0
224,224,152949,5,0
192,240,153116,1,0
160,240,153283,1,0
128,224,153449,1,0
112,192,153616,1,0
192,112,153949,2,0,B|208:176|240:192|288:176|304:112|304:112|320:256|256:288|192:256,1,390
352,144,155283,1,0
256,80,155616,1,0
144,144,155949,1,0
272,192,156283,2,0,B|304:240|352:240|368:272|384:272,1,130
240,192,156949,2,0,B|208:240|160:240|144:272|128:272,1,130
256,272,157616,1,0
256,208,157783,1,0
256,144,157949,5,0
256,80,158949,1,0
256,288,159949,1,0
256,192,160949,1,0
304,112,161949,2,0,B|272:128|272:128|336:160|336:240|304:288|208:288|160:240|160:176|208:128|256:128,1,390
192,368,163283,1,0
128,256,163616,1,0
144,128,163949,1,0
240,48,164283,2,0,B|305:29|362:73,1,130
288,112,164949,2,0,B|353:130|368:224,1,130
304,208,165616,1,0
256,192,165783,1,0
224,160,165949,5,0
208,128,166116,1,0
208,96,166283,1,0
224,64,166449,1,0
256,48,166616,1,0
288,160,166949,5,0
320,144,167116,1,0
352,144,167283,1,0
384,160,167449,1,0
400,192,167616,1,0
288,224,167949,5,0
304,256,168116,1,0
304,288,168283,1,0
288,320,168449,1,0
256,336,168616,1,0
224,224,168949,5,0
192,240,169116,1,0
160,240,169283,1,0
128,224,169449,1,0
112,192,169616,1,0
304,128,169949,2,0,B|304:144|368:256|304:336|192:336|128:256|192:128|192:128,1,390
384,112,171283,1,0
256,80,171616,1,0
128,112,171949,1,0
208,224,172283,2,0,B|192:256|192:288|144:304|112:288|112:288|96:304,1,130
304,224,172949,2,0,B|320:256|320:288|368:304|400:288|400:288|416:304,1,130
256,256,173616,1,0
256,320,173783,1,0
224,160,173949,5,0
112,80,174116,1,0
224,160,174283,1,0
352,192,174449,1,0
224,160,174616,1,0
224,160,174949,5,0
144,192,175116,1,0
224,160,175283,1,0
368,112,175449,1,0
224,160,175616,1,0
224,224,175949,5,0
224,160,176116,1,0
368,304,176283,1,0
224,160,176449,1,0
112,96,176616,1,0
224,160,176949,5,0
288,208,177116,1,0
224,160,177283,1,0
144,272,177449,1,0
224,160,177616,1,0
80,336,177949,2,0,B|112:304|112:304|144:320|144:320|160:208|272:320|368:128|368:128,1,390
256,192,179283,12,0,181616
416,144,181949,6,0,B|384:208|384:208|304:144|272:336|272:336|144:288,1,390
208,176,183283,1,0
320,112,183616,1,0
400,208,183949,1,0
352,336,184283,2,0,B|272:336|240:272,1,130
320,256,184949,2,0,B|288:176|192:176,1,130
96,208,185616,1,0
112,144,185783,1,0
160,96,185949,5,0
256,112,186949,5,0
256,256,187949,1,0
96,192,188949,1,0
256,144,189949,2,0,B|320:96|368:176|256:256|256:256|144:176|192:96|256:144,1,390
320,320,191283,2,0,B|256:368|192:320,2,130
208,240,192283,2,0,B|96:320,1,130
304,240,192949,2,0,B|416:320,1,130
256,272,193616,2,0,B|256:337,2,65
256,112,194949,1,0
144,112,195283,5,0
256,48,195616,1,0
368,112,195949,1,0
320,256,196283,1,0
256,240,196449,1,0
192,256,196616,1,0
256,336,196949,6,4,B|256:192|256:192|144:112|256:48|368:112|256:192,1,390
