osu file format v5

[General]
AudioFilename: David Wise - Gang-Plank Galleon.mp3
AudioLeadIn: 1621
PreviewTime: -1
Countdown: 0
SampleSet: Soft
StackLeniency: 0.6
Mode: 0
LetterboxInBreaks: 1
StoryFireInFront: 0
EditorBookmarks: 37865,89892
EditorDistanceSpacing: 0.800000011920929

[Metadata]
Title:Gang-Plank Galleon
Artist:David Wise
Creator:Hara
Version:N0_ormal
Source:Donkey Kong Country
Tags:dkc donkey kong country david wise game nintendo rare awesome 0_o O_o o_0

[Difficulty]
HPDrainRate:5
CircleSize:4
OverallDifficulty:6
SliderMultiplier:1.8
SliderTickRate:2

[Events]
//Background and Video events
0,0,"Let's try this2.jpg"
//Break Periods
2,22629,29450
2,53147,59379
//Storyboard Layer 0 (Background)
//Storyboard Layer 1 (Failing)
//Storyboard Layer 2 (Passing)
//Storyboard Layer 3 (Foreground)
//Storyboard Sound Samples
//Background Colour Transformations
3,100,255,255,255

[TimingPoints]
4000.47317448147,546.445255474455,4,2,0,79,1,0
13836,545.454545454545,4,2,0,70,1,0
18200,528.63436123348,4,2,0,69,1,0
22460,508.474576271186,4,2,0,89,1,0
28556,497.92531120332,4,2,0,100,1,0
29551,478.697941598851,4,2,0,100,1,0
30266,-100,4,1,0,100,0,0
30500,467.653936087295,4,1,0,41,1,0
52713,-100,4,2,0,31,0,0
59611,-100,4,1,0,41,0,0
74225,-100,4,1,0,33,0,0
75277,-100,4,1,0,42,0,0

[Colours]
Combo1 : 143,67,58
Combo2 : 244,0,0
Combo3 : 234,238,81

[HitObjects]
96,88,4000,1,0
184,128,4273,1,2
272,88,4546,1,0
272,184,4820,1,2
184,224,5093,2,0,B|120:216|104:136,2,90,0|2|2
120,296,5913,1,2
208,336,6186,5,0
304,328,6459,2,0,B|368:304|352:240,1,90,2|0
448,296,7005,1,2
400,208,7279,2,0,B|344:152|424:104,2,90,0|2|2
304,240,8098,1,2
216,192,8372,5,2
128,232,8645,2,0,B|112:160|176:120,1,90,0|0
48,160,9191,1,2
80,64,9464,2,0,B|128:40|176:88,3,90,0|2|2|2
224,160,10557,6,0,B|272:216|344:192,1,90,0|2
392,168,11104,2,0,B|408:240|320:264,1,90,0|2
272,296,11650,1,0
176,264,11923,1,2
80,296,12197,1,2
256,192,12743,12,0,13836
465,61,14108,6,0,B|465:157,1,90,8|0
368,216,14654,1,8
288,152,14926,1,0
208,216,15199,2,0,B|144:216,2,45,0|0|10
120,280,15745,1,10
48,216,16017,5,0
120,152,16290,1,8
208,216,16563,2,0,B|208:272,2,45,2|2|10
304,216,17108,1,8
368,296,17381,5,4
432,216,17654,1,4
448,120,17926,1,4
360,64,18200,5,6
272,120,18464,2,0,B|200:184|136:104,1,90,2|0
128,56,18992,2,0,B|64:128|128:200,1,90,2|0
168,208,19521,2,2,B|216:288|288:192,2,90,6|2|6
144,304,20314,5,0
232,344,20578,2,2,B|280:288|368:376,1,90,6|2
408,368,21107,1,6
352,272,21371,5,0
408,176,21636,1,6
352,80,21900,1,0
296,176,22164,1,6
184,176,22429,1,0
424,312,30500,5,4
352,240,30733,1,0
280,312,30967,2,0,B|168:312,1,90
112,248,31435,2,0,B|56:304,4,45
160,160,32136,6,0,B|56:160,2,90,0|4|0
222,82,32838,1,0
280,160,33072,1,0
368,112,33305,2,0,B|400:56,4,45
368,208,34007,5,4
432,280,34241,1,4
336,312,34475,1,0
240,280,34708,1,0
144,312,34942,1,0
56,248,35176,2,0,B|-24:248,4,45
144,184,35878,5,4
144,72,36111,1,4
240,120,36345,1,0
336,72,36579,1,0
440,120,36813,1,0
356,205,37047,2,0,B|356:149,6,45
432,280,37982,6,0,B|320:344|248:312|224:280|208:256|184:200|216:136,1,360,0|0
312,192,39385,1,0
408,144,39853,2,0,B|368:56|328:32|248:16|160:16|72:104,1,360,0|8
56,168,41256,5,0
104,264,41723,2,0,B|136:336|224:368|328:384|392:368|440:352|456:320,1,360,0|8
352,264,43126,5,4
455,239,43594,2,4,B|451:230|472:176|456:112|392:80|264:120|241:214|224:304|120:296|64:224|56:120,1,540,4|0
376,56,45464,6,2,B|472:112|472:240|456:288|360:368,1,360,2|2
256,192,46867,1,8
64,152,47335,2,2,B|112:56|176:40|248:32|304:40|352:40|384:64,1,360
256,192,48738,5,8
64,152,49206,2,0,B|56:232|104:328|176:344|328:344,1,360,0|0
256,192,50609,1,0
256,192,51076,12,0,52947
440,64,60429,5,0
440,160,60663,2,0,B|496:160,2,45
328,336,61365,1,4
264,128,61832,1,8
200,336,62300,5,0
88,336,62534,2,0,B|32:336,2,45
328,336,63235,1,4
152,192,63703,1,8
256,32,64171,5,0
256,136,64404,2,0,B|256:192,1,45
256,232,64638,1,0
368,48,65106,1,4
256,32,65340,1,4
144,48,65574,1,8
256,192,66041,12,4,67444
88,296,67912,5,0
168,224,68146,1,0
248,296,68379,1,0
304,88,68847,2,2,B|416:104|440:216,1,180
136,56,69782,5,0
56,136,70016,1,0
136,216,70250,1,0
320,312,70718,2,2,B|216:312,2,90,2|2|10
152,56,71653,5,0
256,40,71887,1,0
360,56,72121,1,0
256,240,72588,2,2,B|256:144,1,90,2|0
256,40,73056,1,12
40,224,73524,5,0
256,224,73991,1,0
472,224,74459,1,0
384,160,74693,1,0
432,64,74927,1,0
320,64,75160,1,0
208,72,75394,6,2,B|128:128|184:184,1,90,2|2
96,232,75862,2,2,B|96:312|224:296,1,90,2|10
216,208,76330,2,0,B|288:160|360:272,2,90,0|2|2
260,256,76914,2,2,B|260:352|388:320,1,135,10|10
416,240,77499,6,2,B|480:208|408:128,1,90
352,88,77966,2,0,B|256:40|192:112,1,90,8|0
160,120,78434,2,2,B|200:208|104:216,1,90,2|10
104,160,78785,2,2,B|48:232|112:320,1,135,2|10
192,352,79369,6,0,B|256:328|304:368,1,90
400,352,79837,1,10
480,264,80071,2,0,B|432:208|496:160,1,90,0|10
392,96,80538,1,2
272,112,80772,1,10
192,24,81006,2,4,B|104:56|56:120|48:208|56:272|72:304|88:336|128:344|184:368|224:360|304:360|320:360,1,540,4|8
400,80,82877,5,0
272,80,83111,2,2,B|280:168|352:144,1,90,6|2
400,224,83578,1,0
320,296,83812,2,4,B|264:328|264:272,4,45,4|4|4|4|4
264,304,84397,2,6,B|160:264|192:176,1,135
64,168,84981,6,0,B|96:112|176:112,1,90,4|0
216,32,85449,1,12
288,120,85683,2,4,B|296:160|360:152,4,45,6|6|4|4|4
336,152,86267,2,2,B|440:208|400:280,1,135
304,312,86852,6,4,B|248:288|184:328,1,90,12|4
120,192,87319,2,2,B|176:232|232:168,1,90,10|2
392,192,87787,2,2,B|336:232|280:168,1,90,10|2
256,80,88255,1,2
256,192,88489,12,0,89892
160,112,90359,5,4
256,64,90593,1,0
352,112,90827,1,0
168,320,91295,6,2,B|376:320,1,180,2|10
104,128,92230,5,4
32,208,92464,1,0
104,288,92697,1,0
392,208,93165,6,2,B|482:208,2,90,2|2|10
256,120,94100,5,4
256,232,94334,1,4
256,344,94568,1,4
152,32,95036,5,10
256,32,95270,1,10
360,32,95504,1,10
256,192,95971,12,4,97842
