osu file format v5

[General]
AudioFilename: David Wise - Gang-Plank Galleon.mp3
AudioLeadIn: 0
PreviewTime: -1
Countdown: 0
SampleSet: Soft
StackLeniency: 0.6
Mode: 0
LetterboxInBreaks: 1
StoryFireInFront: 0
EditorBookmarks: 88048,88282,88516,88956,90125,90387
EditorDistanceSpacing: 0.800000011920929

[Metadata]
Title:Gang-Plank Galleon
Artist:David Wise
Creator:Hara
Version:Larry Kong
Source:Donkey Kong Country
Tags:dkc donkey kong country david wise game nintendo rare awesome larto lardo lardass larry lard

[Difficulty]
HPDrainRate:7
CircleSize:5
OverallDifficulty:7
SliderMultiplier:1.9
SliderTickRate:2

[Events]
//Background and Video events
0,0,"Let's try this2.jpg"
//Break Periods
2,24439,29600
2,52679,59529
//Storyboard Layer 0 (Background)
//Storyboard Layer 1 (Failing)
//Storyboard Layer 2 (Passing)
//Storyboard Layer 3 (Foreground)
//Storyboard Sound Samples
//Background Colour Transformations
3,100,255,255,255

[TimingPoints]
4000.47317448147,546.445255474455,4,2,0,85,1,0
13836,545.454545454545,4,2,0,85,1,0
18200,528.63436123348,4,2,0,85,1,0
22460,508.474576271186,4,2,0,85,1,0
28556,497.92531120332,4,2,0,85,1,0
29551,478.697941598851,4,2,0,85,1,0
30500,467.653936087295,4,1,0,47,1,0
37810,-100,4,2,0,60,0,0
59962,-100,4,1,0,35,0,0
60429,-200,4,1,0,46,0,0
64872,-50,4,1,0,41,0,0
65807,-100,4,1,0,40,0,0
68379,-200,4,1,0,39,0,0
69549,-100,4,1,0,43,0,0
70250,-200,4,1,0,43,0,0
71302,-100,4,1,0,40,0,0

[Colours]
Combo1 : 143,67,58
Combo2 : 244,0,0
Combo3 : 234,238,81

[HitObjects]
32,288,4000,6,0,B|80:320|144:280,1,95,8|0
160,264,4410,1,0
200,288,4546,2,0,B|248:320|312:280,1,95,8|0
328,264,4956,1,0
368,288,5093,2,0,B|432:320|488:272,3,95,8|4|8|4
416,208,6186,5,8
368,120,6459,1,2
336,88,6596,1,0
304,120,6732,1,8
144,120,7005,5,2
176,88,7142,1,0
208,120,7279,1,8
256,192,7552,1,0
209,265,7825,6,4,B|254:299|314:261,1,95,12|4
303,119,8372,2,0,B|258:85|198:123,1,95,8|0
329,145,8918,2,0,B|363:190|325:250,1,95,8|0
183,239,9465,2,0,B|149:194|187:134,1,95,8|0
96,152,10011,5,8
112,104,10147,1,2
144,72,10284,1,0
216,32,10557,5,10
256,8,10694,1,0
296,32,10830,1,2
368,72,11104,5,10
400,104,11241,1,0
416,152,11377,1,2
328,188,11650,6,4,B|254:76|176:196,1,190,4|4
422,192,12743,6,2,B|389:268|256:302|127:269|96:192,1,380,2|10
256,216,14108,5,0
256,168,14245,1,0
256,120,14381,1,8
160,184,14654,6,0,B|160:128,1,47.5
160,88,14926,2,0,B|160:48|216:48,1,47.5,8|0
232,48,15199,2,0,B|288:48,1,47.5
326,52,15472,2,0,B|376:48|376:152,1,95,12|4
256,216,16017,5,8
352,184,16290,6,0,B|352:128,1,47.5
352,88,16562,2,2,B|352:48|296:48,1,47.5,10|2
280,48,16835,2,0,B|232:48,1,47.5
185,52,17108,2,2,B|136:48|136:152,3,95,12|4|12|4
64,192,18200,5,8
112,272,18464,1,2
184,328,18728,1,8
256,272,18992,1,2
328,328,19257,1,8
400,272,19521,1,2
448,192,19785,2,12,B|448:120|376:120,1,95,12|4
184,328,20314,5,8
112,272,20578,1,0
64,192,20842,2,4,B|64:120|136:120,1,95,12|4
256,16,21371,5,2
256,64,21503,1,0
256,112,21636,1,0
256,160,21768,2,0,B|256:216,1,47.5,0|2
256,256,22032,1,0
256,304,22164,1,2
256,352,22296,1,0
208,352,22429,5,4
208,352,22587,1,0
208,352,22714,1,2
304,272,22968,1,0
304,272,23095,1,0
304,272,23222,1,2
208,192,23476,1,0
208,192,23604,1,0
208,192,23731,1,2
304,112,23985,2,2,B|304:8,1,95,2|2
256,24,30500,5,4
152,72,30733,2,0,B|152:144,1,47.5
152,168,30967,1,8
256,176,31201,2,0,B|256:120,5,47.5,0|0|8|0|0|8
256,128,31902,1,8
256,24,32136,5,0
256,24,32253,1,0
256,24,32370,1,4
360,72,32604,2,0,B|360:144,1,47.5
360,168,32838,1,8
256,176,33072,2,0,B|256:120,5,47.5,0|0|8|0|0|8
256,128,33773,1,8
160,128,34007,6,0,B|160:192|208:224,1,95,0|4
112,224,34475,2,0,B|128:256|216:272,1,95,0|8
120,328,34942,2,0,B|184:328|216:312,1,95
256,232,35410,1,0
256,232,35527,1,8
256,232,35644,1,8
352,256,35878,6,0,B|352:192|304:160,1,95,0|4
400,160,36346,2,0,B|384:128|296:112,1,95,0|8
392,56,36813,2,0,B|328:56|296:72,1,95
256,152,37281,1,0
256,152,37398,1,8
256,152,37515,1,8
232,56,37748,5,8
280,56,37865,1,8
319,72,37982,2,2,B|316:130|327:120|175:120|187:132|191:48,3,190,2|2|2|2
256,32,39619,5,2
352,32,39853,5,4
416,104,40086,1,0
408,152,40203,1,0
368,176,40320,1,2
256,192,40554,1,0
256,192,40671,1,0
256,192,40788,1,2
256,192,40905,1,0
256,192,41022,1,2
256,192,41139,2,0,B|256:128,1,47.5,0|2
160,136,41489,6,0,B|104:136|104:88,2,47.5,0|0|4
360,248,41957,6,0,B|416:248|448:272,2,47.5,0|0|8
48,192,42425,6,0,B|48:240|80:208,4,47.5,0|0|2|0|0
96,176,43009,1,0
96,176,43126,1,8
192,168,43360,6,0,B|192:96|280:128,1,95,0|4
320,216,43828,6,0,B|320:288|232:256,1,95,0|8
256,192,44295,5,0
256,192,44412,1,2
256,192,44529,1,0
192,264,44763,1,0
192,264,44880,1,2
192,264,44997,1,2
320,264,45231,5,0
320,264,45348,1,2
320,264,45464,2,6,B|256:256|200:344|320:384|456:360|472:264|392:192|344:144|200:224,1,475,6|2
136,240,46867,1,4
136,240,46984,1,0
136,240,47101,1,0
64,184,47335,6,2,B|128:120|176:56|456:48|472:192,1,475
376,192,48738,6,0,B|320:192,1,47.5,4|0
376,192,48972,1,2
376,192,49089,1,0
376,192,49206,2,2,C|368:280|272:192|256:296|152:208|152:328,1,570
56,296,50842,1,2
56,200,51076,6,12,B|64:64|192:0|320:0|448:64|456:256,1,570
104,64,60429,5,0
104,64,60546,1,0
104,64,60663,1,0
104,64,60780,1,0
104,64,60897,1,8
256,144,61365,6,0,C|256:272,1,95,4|8
408,320,62300,5,0
408,320,62417,1,0
408,320,62534,1,0
408,320,62651,1,0
408,320,62768,1,8
256,240,63236,6,0,C|256:112,1,95,4|8
256,32,64171,5,0
256,32,64287,1,0
256,32,64404,1,0
256,32,64521,1,0
256,32,64638,1,8
304,192,65106,6,4,C|208:192,4,95,4|4|4|4|8
72,72,66041,5,0
80,168,66275,1,0
115,136,66392,1,0
152,168,66509,1,8
80,240,66743,1,0
112,272,66860,1,0
152,240,66977,1,8
184,208,67093,1,0
216,176,67210,1,0
248,144,67327,1,0
280,176,67444,1,8
312,208,67561,1,4
280,352,67912,6,0,C|208:352,1,47.5
232,304,68146,2,0,C|280:304,1,47.5
304,256,68379,2,8,C|208:256,1,95,8|4
256,176,69081,1,0
256,176,69198,1,0
256,176,69315,1,8
232,32,69782,6,0,C|304:32,1,47.5
280,80,70016,2,0,C|232:80,1,47.5
208,128,70250,2,0,C|304:128,1,95,8|4
256,208,70951,1,0
256,208,71068,1,0
256,208,71185,1,8
64,288,71653,5,0
112,288,71770,1,0
160,288,71887,1,0
208,288,72004,1,0
256,288,72121,1,8
448,96,72588,5,0
400,96,72705,1,0
352,96,72822,1,0
304,96,72939,1,0
256,96,73056,1,8
440,312,73524,5,0
432,216,73758,1,0
394,248,73875,1,0
360,216,73992,1,8
432,144,74226,1,0
400,112,74343,1,0
360,144,74460,1,8
328,176,74576,1,0
296,208,74693,1,0
264,240,74810,1,0
232,208,74927,1,8
200,176,75044,1,4
64,40,75394,5,8
160,40,75628,1,0
256,40,75862,1,8
352,40,76096,1,0
448,40,76330,1,8
448,40,76446,1,0
448,40,76563,1,0
448,40,76680,1,0
448,40,76797,1,8
448,40,76914,2,0,C|448:192,1,142.5,0|8
352,184,77499,5,0
256,184,77733,1,8
160,184,77967,1,0
64,184,78201,1,8
64,184,78317,1,0
64,184,78434,1,0
64,184,78551,1,0
64,184,78668,1,8
64,184,78785,2,0,C|64:32,1,142.5
160,32,79369,5,0
256,32,79603,1,8
352,32,79837,1,0
312,120,80071,1,8
200,120,80305,1,0
104,120,80538,6,2,B|104:192|152:176,1,47.5,2|0
152,192,80772,2,0,B|208:208|232:176,1,47.5,2|0
248,192,81006,2,2,B|400:192|416:176|432:80|400:40|368:-64|296:16|200:48|256:112|304:144|328:112,1,475,2|0
313,121,82409,1,4
313,121,82526,1,4
190,192,82877,6,2,B|190:248|278:248,1,95,10|0
320,192,83344,2,2,B|320:248|232:248,1,95,10|0
168,272,83812,1,10
208,304,83929,1,0
256,312,84046,1,0
304,304,84163,1,0
344,272,84280,1,10
368,232,84397,2,2,B|408:176|408:112|376:64,1,142.5,2|14
300,49,84981,6,2,B|252:25|236:33,2,47.5,2|2|10
212,49,85449,2,2,B|260:25|276:33,5,47.5
256,32,86150,1,8
256,32,86267,2,2,B|204:73|324:129|227:186,1,142.5,2|14
168,192,86852,5,0
168,192,86969,1,0
168,192,87086,1,8
344,192,87319,5,0
344,192,87436,1,0
344,192,87553,1,8
256,192,87787,5,0
176,144,88021,6,2,B|144:192|184:248,1,95
336,240,88489,6,8,B|368:192|328:136,1,95,8|0
208,272,88956,6,8,B|256:304|312:264,1,95,8|0
304,112,89424,6,0,B|256:80|200:120,1,95,8|0
256,192,89892,5,8
256,192,90008,1,4
64,296,90359,5,0
64,296,90476,1,0
64,296,90593,1,0
64,296,90710,1,0
64,296,90827,1,4
256,16,91295,6,8,B|256:128,2,95,8|0|8
448,296,92230,5,0
448,296,92347,1,0
448,296,92464,1,0
448,296,92581,1,0
448,296,92698,1,4
256,16,93166,6,0,B|256:128,2,95,8|0|8
256,360,94100,6,0,B|256:296,1,47.5
256,264,94334,2,0,B|256:200,1,47.5
256,168,94568,1,4
192,312,95036,5,8
256,168,95270,1,0
320,312,95503,1,8
256,88,95971,5,0
216,176,96205,1,0
256,152,96322,1,0
296,176,96439,1,4
256,264,96673,5,0
256,264,96789,1,0
256,264,96906,1,8
256,264,97023,1,0
256,264,97140,1,8
256,264,97257,1,0
256,264,97374,1,8
256,264,97491,1,8
