osu file format v5

[General]
AudioFilename: David Wise - Gang-Plank Galleon.mp3
AudioLeadIn: 0
PreviewTime: -1
Countdown: 0
SampleSet: Soft
StackLeniency: 1
Mode: 0
LetterboxInBreaks: 1
StoryFireInFront: 0
EditorBookmarks: 88048,88282,88516,90125,90387
EditorDistanceSpacing: 0.800000011920929

[Metadata]
Title:Gang-Plank Galleon
Artist:David Wise
Creator:Hara
Version:Bananas
Source:Donkey Kong Country
Tags:dkc donkey kong country david wise game nintendo rare awesome

[Difficulty]
HPDrainRate:7
CircleSize:5
OverallDifficulty:7
SliderMultiplier:1.9
SliderTickRate:2

[Events]
//Background and Video events
0,0,"Let's try this2.jpg"
//Break Periods
2,24693,29600
2,52678,59529
//Storyboard Layer 0 (Background)
//Storyboard Layer 1 (Failing)
//Storyboard Layer 2 (Passing)
//Storyboard Layer 3 (Foreground)
//Storyboard Sound Samples
//Background Colour Transformations
3,100,255,255,255

[TimingPoints]
4000.47317448147,546.445255474455,4,2,0,85,1,0
11582,-100,4,2,0,85,0,0
11719,-100,4,2,1,85,0,0
11855,-100,4,2,0,85,0,0
11992,-100,4,2,1,85,0,0
12128,-100,4,2,0,85,0,0
12265,-100,4,2,1,85,0,0
12538,-100,4,2,0,85,0,0
13836,545.454545454545,4,2,0,85,1,0
18200,528.63436123348,4,2,0,85,1,0
22460,508.474576271186,4,2,0,85,1,0
28556,497.92531120332,4,2,0,85,1,0
29551,478.697941598851,4,2,0,85,1,0
30500,467.653936087295,4,1,0,51,1,0
37810,-100,4,2,0,60,0,0
39326,-100,4,2,1,62,0,0
39385,-100,4,2,0,60,0,0
39794,-100,4,2,1,62,0,0
39853,-100,4,2,0,60,0,0
41665,-100,4,2,1,63,0,0
41723,-100,4,2,0,60,0,0
43068,-100,4,2,1,62,0,0
43126,-100,4,2,0,60,0,0
43535,-100,4,2,1,62,0,0
43594,-100,4,2,0,60,0,0
46809,-100,4,2,1,63,0,0
46867,-100,4,2,0,60,0,0
47277,-100,4,2,1,63,0,0
47335,-100,4,2,0,60,0,0
49147,-100,4,2,1,65,0,0
49206,-100,4,2,0,60,0,0
50550,-100,4,2,1,64,0,0
50609,-100,4,2,0,60,0,0
51018,-100,4,2,1,62,0,0
51076,-100,4,2,0,60,0,0
60429,-100,4,1,0,46,0,0
75219,-100,4,1,0,46,0,1
75277,-100,4,1,0,46,0,0
82468,-100,4,1,0,46,0,1
82526,-100,4,1,0,46,0,0

[Colours]
Combo1 : 143,67,58
Combo2 : 244,0,0
Combo3 : 234,238,81

[HitObjects]
88,192,4000,1,2
88,80,4273,1,0
136,112,4410,1,0
184,144,4546,1,0
272,208,4820,1,0
328,208,4956,1,0
304,256,5093,1,2
248,256,5229,1,0
216,208,5366,1,0
248,160,5503,1,0
304,160,5639,1,0
408,104,5913,1,0
408,216,6186,5,2
312,304,6459,1,0
256,304,6596,1,0
200,304,6732,1,0
256,192,7005,1,0
256,136,7142,1,0
256,80,7279,1,2
256,24,7415,1,0
256,80,7552,1,0
256,136,7688,1,0
256,192,7825,1,0
144,192,8098,1,0
144,304,8372,5,2
256,304,8645,1,0
200,304,8781,1,0
144,304,8918,1,0
112,192,9191,5,0
152,232,9328,1,0
192,192,9464,1,2
232,232,9601,1,0
272,192,9738,1,0
312,232,9874,1,0
352,192,10011,1,0
392,232,10147,5,0
352,192,10284,1,0
312,232,10421,1,0
272,192,10557,1,2
232,232,10694,1,0
192,192,10831,1,0
152,232,10967,1,0
112,192,11104,5,0
152,232,11240,1,0
192,192,11377,1,0
232,232,11514,1,0
272,192,11650,6,0,B|272:144,1,47.5,2|0
272,88,11923,2,0,B|312:48,1,47.5
363,55,12197,2,0,B|419:79,1,47.5
256,192,12743,12,2,13836
256,80,14108,5,0
312,80,14245,1,0
312,136,14381,1,0
368,232,14654,1,0
312,232,14790,1,0
256,232,14926,1,2
256,288,15063,1,0
312,288,15199,1,0
368,288,15335,1,0
368,344,15472,1,0
256,288,15745,1,0
160,232,16017,5,2
160,120,16290,2,0,B|208:88,6,47.5,0|0|0|0|0|0|2
264,72,17381,5,0
320,72,17517,1,0
376,72,17654,1,0
352,120,17790,1,0
320,168,17926,1,0
296,216,18063,1,0
352,216,18200,5,2
256,272,18464,1,0
208,296,18596,1,0
160,320,18728,1,0
104,208,18992,1,0
104,152,19125,1,0
104,96,19257,1,2
104,40,19389,1,0
104,96,19521,1,0
104,152,19653,1,0
104,208,19785,1,0
216,176,20050,1,0
328,176,20314,5,2
384,176,20446,1,0
440,176,20578,1,0
440,232,20711,1,0
440,288,20843,1,0
328,288,21107,1,0
272,176,21371,5,2
216,176,21503,1,0
272,176,21636,1,0
216,176,21768,1,0
272,176,21900,1,0
216,176,22032,1,0
272,176,22164,1,0
216,176,22296,1,0
272,176,22429,5,2
160,176,22714,1,0
160,120,22841,1,0
160,64,22968,1,0
272,64,23222,1,0
328,64,23349,1,0
384,64,23476,1,2
440,64,23604,1,0
440,120,23731,1,0
440,176,23858,1,0
440,232,23985,1,0
328,232,24239,1,0
216,232,24493,5,2
144,192,30500,5,0
240,192,30733,1,0
288,192,30850,1,0
336,192,30967,1,8
336,96,31201,5,0
288,96,31318,1,0
240,96,31435,1,0
240,144,31552,1,0
240,192,31669,1,0
288,192,31786,1,0
336,192,31902,1,8
256,288,32136,5,0
304,288,32253,1,0
280,248,32370,1,0
280,152,32604,1,0
280,104,32721,1,0
240,128,32838,1,8
144,120,33072,5,0
96,128,33189,1,0
104,176,33305,1,0
152,168,33422,1,0
160,216,33539,1,0
112,224,33656,1,0
120,272,33773,1,8
224,272,34007,5,0
272,272,34124,1,0
320,272,34241,1,0
416,272,34475,1,0
464,272,34591,1,0
416,272,34708,1,8
416,176,34942,5,0
416,128,35059,1,0
368,128,35176,1,0
368,176,35293,1,0
416,176,35410,1,0
416,128,35527,1,0
368,128,35644,1,8
272,128,35878,5,0
272,176,35994,1,0
272,224,36111,1,0
200,288,36345,1,0
160,264,36462,1,0
120,232,36579,1,8
144,136,36813,5,0
200,136,36930,1,0
248,136,37047,1,0
248,88,37164,1,0
296,88,37280,1,0
296,136,37397,1,0
344,136,37514,1,8
392,136,37631,1,0
456,280,37982,6,0,B|160:368|80:328|16:296|64:136,1,546.25,0|0
60,150,39385,6,0,B|72:39|184:47,1,166.25,0|0
167,46,39853,2,0,B|449:31|25:231|337:263,1,380,0|0
120,256,41256,6,0,B|32:160|48:88,1,166.25
45,111,41723,2,0,B|88:16|232:272|272:288|304:256|472:16|456:296,1,546.25
457,270,43126,6,0,B|433:326|393:342|313:334,1,166.25
319,335,43594,2,0,B|178:329|137:257|29:249|15:196|25:127|33:69|113:50|216:32,1,570
88,72,45464,6,0,B|56:216|184:416|312:-24|480:280,1,546.25
465,256,46867,6,0,B|407:306|295:226,1,166.25,0|0
312,238,47335,2,0,B|439:26|255:10|128:37,1,380
39,192,48738,6,0,B|31:304|159:304,1,166.25,0|0
133,303,49205,2,0,B|311:257|247:129|303:73|471:89|503:233|495:297|431:337,1,546.25
450,322,50608,6,0,B|455:257|395:200|332:211,1,166.25
351,209,51076,2,0,B|382:3|269:27|68:15|25:167|39:282,1,570
80,64,60429,5,0
128,64,60546,1,0
128,112,60663,1,0
176,112,60780,1,0
176,160,60897,1,8
256,328,61365,1,0
256,232,61598,1,0
256,184,61715,1,0
304,184,61832,1,8
360,288,62300,6,0,B|408:288,4,47.5,8|0|8|0|8
256,128,63235,1,0
256,224,63469,1,0
256,176,63586,1,0
256,128,63703,1,8
216,328,64171,5,0
184,296,64287,1,0
152,264,64404,1,0
120,232,64521,1,0
88,200,64638,1,8
256,104,65106,1,0
256,192,65340,1,0
208,192,65457,1,0
256,192,65574,1,8
384,136,66041,5,0
384,232,66275,1,0
336,232,66392,1,0
288,232,66509,1,8
272,136,66743,1,0
240,104,66860,1,0
208,136,66977,1,0
240,168,67093,1,0
240,216,67210,1,0
192,216,67327,1,0
160,176,67444,1,8
128,136,67561,1,0
192,256,67912,5,0
144,256,68029,1,0
144,304,68146,1,0
184,328,68263,1,0
224,344,68379,1,8
464,192,68847,1,4
360,288,69081,1,0
216,288,69315,1,12
432,192,69782,5,0
384,192,69899,1,0
432,192,70016,1,0
384,192,70133,1,0
432,192,70250,1,8
160,288,70718,1,4
160,144,70952,1,0
160,288,71185,1,12
120,88,71653,5,0
144,128,71770,1,0
168,88,71887,1,0
192,128,72004,1,0
216,88,72121,1,8
432,264,72588,1,4
288,264,72822,1,0
144,264,73056,1,12
352,264,73524,5,0
256,264,73757,1,0
232,224,73874,1,0
208,184,73991,1,8
208,88,74225,1,0
160,88,74342,1,0
184,48,74459,1,0
232,48,74576,1,0
256,88,74693,1,0
232,128,74810,1,0
184,128,74927,1,8
160,88,75044,1,0
304,88,75394,5,0
384,136,75628,1,8
384,184,75745,1,0
352,216,75862,1,0
256,216,76096,1,8
208,216,76213,1,0
256,216,76330,1,0
208,216,76446,1,0
256,216,76563,1,8
208,216,76680,1,0
256,216,76797,1,0
208,216,76914,2,0,B|208:72,1,142.5
288,120,77499,5,8
328,144,77616,1,0
288,120,77733,1,0
384,120,77966,1,0
432,120,78083,1,0
432,168,78200,1,0
384,168,78317,1,0
384,216,78434,1,8
432,216,78551,1,0
432,264,78668,1,0
384,264,78785,2,0,B|240:264,1,142.5
144,264,79369,5,8
144,208,79486,1,0
144,160,79603,1,0
224,104,79837,2,0,B|288:104,5,47.5,8|0|0|0|8|8
272,152,80538,6,0,B|256:200,1,47.5
296,216,80772,2,0,B|357:238,1,47.5,0|0
360,184,81006,2,0,B|427:67|254:-19|27:10|103:303,1,570
272,304,82877,5,0
272,208,83111,1,8
272,160,83227,1,0
272,112,83344,1,0
352,160,83578,1,8
400,160,83695,1,0
352,160,83812,1,0
400,160,83929,1,0
352,160,84046,1,8
400,160,84163,1,0
352,160,84280,1,0
304,160,84397,2,0,B|216:160|152:160,1,142.5,8|0
184,280,84981,5,8
232,280,85098,1,0
280,280,85215,1,0
288,184,85449,1,8
240,184,85566,1,0
240,136,85683,1,0
240,136,85800,1,0
240,136,85916,1,8
240,136,86033,1,0
240,136,86150,1,0
240,136,86267,2,0,B|384:136,1,142.5,8|0
464,184,86852,5,8
464,136,86969,1,0
464,88,87086,1,0
368,88,87319,1,8
320,88,87436,1,0
272,88,87553,1,0
272,136,87670,1,0
272,184,87787,1,8
273,231,87904,1,0
320,232,88021,6,0,B|352:184,1,47.5,0|0
376,152,88255,2,0,B|432:184,1,47.5,8|0
440,136,88489,2,0,B|405:-43|5:-51|-3:165|245:277,1,665
257,359,90359,6,0,B|305:311,4,47.5,8|0|0|0|0
256,144,91295,1,12
256,240,91528,1,0
256,192,91645,1,0
256,144,91762,1,4
72,280,92230,5,8
72,232,92347,1,0
72,184,92464,1,0
120,184,92581,1,0
168,184,92697,1,0
360,184,93165,1,12
264,184,93399,1,0
264,136,93516,1,0
264,184,93633,1,4
360,184,94100,5,8
360,232,94217,1,0
312,232,94334,1,0
312,184,94451,1,0
360,184,94568,1,0
256,40,95036,1,12
256,136,95270,1,0
256,184,95386,1,0
256,232,95503,1,4
448,232,95971,5,8
448,136,96205,1,0
400,136,96322,1,0
352,136,96439,1,0
256,136,96673,1,0
208,136,96789,1,0
160,136,96906,1,8
112,136,97023,1,0
64,136,97140,1,0
112,136,97257,1,0
160,136,97374,1,0
208,136,97491,1,0
