osu file format v5

[General]
AudioFilename: Witch Doctor - Uhh Eeh Uh Ah Ah Ting Tang Walla Walla Bing Bang (Ray Stevens).mp3
AudioLeadIn: 0
AudioHash: 91de58fb9aa8821c38b40c297faeedb0
PreviewTime: -1
Countdown: 1
SampleSet: Normal
EditorBookmarks: 70145,75880,101468,115145

[Metadata]
Title:Witch Doctor
Artist:David Seville
Creator:Popo
Version:Normal

[Difficulty]
HPDrainRate:5
CircleSize:5
OverallDifficulty:4
SliderMultiplier:1.5
SliderTickRate:4

[Events]
//Background and Video events
0,0,"1194067535455.jpg"
//Break Periods
2,70369,74584
2,101692,113849
//Storyboard Layer 0 (Background)
//Storyboard Layer 1 (Failing)
//Storyboard Layer 2 (Passing)
//Storyboard Layer 3 (Foreground)
//Storyboard Sound Samples
//Background Colour Transformations
3,148,163,162,255

[TimingPoints]
13699,441.174274704022,4,1,0,100

[HitObjects]
256,192,13698,1,0
256,192,14581,1,0
256,192,15463,1,0
256,192,16346,1,0
256,192,17228,1,0
256,192,20316,1,4
256,192,20757,5,0
256,288,21198,1,0
160,224,21640,1,0
192,128,22081,1,0
320,128,22522,1,0
352,224,22963,1,0
256,192,23404,1,0
256,192,23846,1,0
256,192,26934,5,0
96,192,27816,6,0,B|96:192|416:192,1,300
256,96,29581,5,0
192,128,30022,1,0
160,192,30463,1,0
192,256,30904,1,0
256,288,31345,1,0
320,256,31787,1,0
352,192,32228,1,0
320,128,32669,1,0
256,96,33110,1,4
192,128,33551,5,0
160,192,33993,1,0
192,256,34434,1,0
256,288,34875,1,0
320,256,35316,1,0
352,192,35757,1,4
256,64,36640,5,0
224,128,37081,1,0
192,192,37522,1,0
160,256,37963,1,0
128,320,38404,1,0
192,320,38845,1,0
256,320,39287,1,0
320,320,39728,1,0
384,320,40169,5,0
352,256,40610,1,0
320,192,41051,1,0
288,128,41492,1,0
256,192,41934,1,0
256,192,42816,1,4
256,192,43698,12,0,45021
160,192,45904,2,0,B|160:192|379:191|379:191,5,150
416,192,48331,1,0
416,192,48551,1,0
256,128,48992,6,0,B|256:128|256:320|256:320,6,150
256,64,51860,1,0
256,64,52081,1,0
128,224,52522,6,0,B|128:224|193:322|320:321|384:224,3,300
256,192,55389,1,2
256,192,55610,1,2
160,96,56051,5,0
256,96,56492,1,0
352,96,56934,1,0
352,192,57375,1,0
352,288,57816,1,0
256,288,58257,1,0
256,192,58698,1,2
256,192,58919,1,2
256,192,59139,1,0
256,192,59360,1,0
160,192,59581,5,0
160,96,60022,1,0
256,96,60463,1,0
352,96,60904,1,0
352,192,61345,1,0
256,192,61786,1,0
256,192,62007,1,0
256,192,62228,1,4
256,96,63110,5,0
320,128,63551,1,0
352,192,63992,1,0
320,256,64434,1,0
256,288,64875,1,0
192,256,65316,1,0
160,192,65757,1,0
192,128,66198,1,0
256,96,66639,5,0
320,128,67081,1,0
352,192,67522,1,0
320,256,67963,1,0
256,256,68404,1,0
256,192,68845,1,0
256,192,69066,1,2
256,192,69286,1,4
180,192,76566,5,0
181,193,76786,1,0
181,192,77007,1,4
183,192,77228,6,0,B|183:192|316:192|343:192,6,150
185,288,80316,1,0
336,288,80757,1,0
331,192,81198,6,0,B|331:192|171:192,5,150
332,288,83845,1,0
184,288,84286,1,0
192,160,84728,5,0
192,160,84948,1,0
256,96,85169,1,0
256,96,85389,1,0
320,160,85610,1,0
320,160,85830,1,0
256,192,86051,2,0,B|256:192|256:352,2,150
416,256,87816,5,0
416,192,88257,1,0
416,128,88698,1,0
352,128,88919,1,0
352,128,89139,1,0
288,128,89580,1,0
288,192,90022,1,0
288,256,90463,1,0
352,256,90683,1,0
352,192,90904,1,0
352,192,91125,1,0
224,256,91345,5,0
224,192,91786,1,0
224,128,92228,1,0
224,128,92448,1,0
160,128,92669,1,0
160,128,92889,1,0
96,128,93110,1,0
96,128,93330,1,0
96,192,93551,1,0
96,192,93772,1,0
160,192,93992,1,4
128,128,94875,5,0
192,128,95316,1,0
256,128,95757,1,0
256,128,95978,1,0
320,128,96198,1,0
384,128,96639,1,0
384,192,97080,1,0
320,192,97522,1,0
320,192,97742,1,0
256,192,97963,1,0
256,192,98183,1,4
192,192,98404,5,0
128,192,98845,1,0
128,256,99286,1,0
128,256,99507,1,0
192,256,99727,1,0
192,256,99948,1,0
256,256,100169,1,0
256,256,100389,1,0
320,256,100610,1,0
320,256,100830,1,0
384,256,101051,1,4
192,96,116051,5,0
320,96,116492,1,0
384,192,116933,1,0
320,288,117374,1,0
192,288,117816,1,0
128,192,118257,1,0
256,192,118698,2,0,B|256:192|256:32,1,150
352,96,119360,5,0
352,96,119580,1,0
352,160,119801,1,0
352,160,120022,1,0
352,224,120242,1,0
352,224,120463,1,0
352,288,120683,1,0
352,288,120904,1,0
256,320,121345,2,0,B|256:320|256:160,3,150
256,64,122889,5,0
256,64,123110,1,0
224,128,123330,1,0
224,128,123551,1,0
288,128,123771,1,0
288,128,123992,1,0
256,192,124213,1,0
256,192,124433,1,0
224,256,124654,1,0
224,256,124874,1,0
288,256,125095,1,0
288,256,125316,1,0
256,320,125536,1,0
256,320,125757,1,0
256,320,125977,1,0
128,256,126419,5,0
224,256,126639,2,0,B|224:256|384:256,4,150
224,128,130169,5,0
288,128,130610,1,0
288,192,131051,1,0
224,192,131492,1,0
224,128,131933,1,0
192,256,132816,1,0
320,256,133257,1,0
288,128,133698,5,0
224,128,134139,1,0
224,192,134580,1,0
288,192,135021,1,0
288,128,135463,1,0
192,256,136345,1,0
320,256,136786,1,0
224,128,137227,5,0
224,192,137668,1,0
288,128,138110,1,0
288,192,138551,1,0
224,192,138992,1,0
320,256,139874,1,0
192,256,140316,1,0
192,192,140757,6,0,B|192:192|352:192,6,150
256,224,143624,5,0
256,224,143845,1,0
256,224,144065,1,0
192,64,144286,5,0
256,64,144727,1,0
320,64,145168,1,0
320,64,145389,1,0
384,128,145610,1,0
384,192,146051,1,0
384,256,146492,1,0
320,320,146933,1,0
320,320,147154,1,0
256,320,147374,1,0
256,320,147595,1,0
192,320,147815,5,0
128,256,148257,1,0
128,192,148698,1,0
128,192,148918,1,0
128,128,149139,1,0
192,64,149580,1,0
192,64,149801,1,0
256,64,150021,1,0
256,192,150242,1,0
256,192,150463,1,0
256,128,151345,5,0
320,96,151786,1,0
384,64,152227,1,0
384,64,152448,1,0
448,96,152668,1,0
448,160,153110,1,0
384,224,153551,1,0
320,288,153992,1,0
320,288,154213,1,0
256,320,154433,1,0
256,320,154654,1,0
192,288,154874,5,0
128,224,155315,1,0
64,160,155757,1,0
64,160,155977,1,0
64,96,156198,1,0
64,96,156418,1,0
128,64,156639,1,0
192,96,156860,1,0
192,96,157080,1,0
256,128,157301,1,0
256,192,157521,1,4
256,192,157962,12,0,164580
