osu file format v14

[General]
AudioFilename: This Dream.mp3
AudioLeadIn: 0
PreviewTime: 19264
Countdown: 1
SampleSet: Normal
StackLeniency: 0.7
Mode: 0
LetterboxInBreaks: 0
WidescreenStoryboard: 1

[Editor]
DistanceSpacing: 1
BeatDivisor: 4
GridSize: 4
TimelineZoom: 1

[Metadata]
Title:This Dream (Season Theme)
TitleUnicode:This Dream (Season Theme)
Artist:David Rolfe and John Siegler
ArtistUnicode:David Rolfe and John Siegler
Creator:Lanturn
Version:Normal
Source:Pokémon: Advanced Challenge
Tags:Pokemon Pocket Monsters X Ruby Sapphire Emerald 10 Years of
BeatmapID:1481852
BeatmapSetID:699868

[Difficulty]
HPDrainRate:4
CircleSize:3.5
OverallDifficulty:4
ApproachRate:5
SliderMultiplier:1.2
SliderTickRate:1

[Events]
//Background and Video events
0,0,"PokemonAC.jpg",0,0
Video,-666,"PokemonAC.avi"
//Break Periods
//Storyboard Layer 0 (Background)
//Storyboard Layer 1 (Fail)
//Storyboard Layer 2 (Pass)
//Storyboard Layer 3 (Foreground)
//Storyboard Sound Samples

[TimingPoints]
2010,320.855614973262,4,1,1,60,1,0
19977,-100,4,1,1,70,0,1
44683,-100,4,1,1,70,0,0

[Colours]
Combo1 : 128,255,128
Combo2 : 255,255,128
Combo3 : 255,128,128
Combo4 : 128,255,255

[HitObjects]
100,92,2010,6,0,L|224:92,1,120,4|8,0:0|0:0,0:0:0:0:
288,192,2651,2,0,P|272:224|272:264,2,60,2|2|8,0:0|0:0|0:0,0:0:0:0:
404,220,3293,2,0,P|409:278|381:350,1,120,0|8,2:0|0:0,0:0:0:0:
336,360,3774,2,0,P|280:344|216:364,1,120,0|2,2:0|0:0,0:0:0:0:
164,344,4255,1,8,0:0:0:0:
88,252,4576,6,0,L|72:124,1,120,2|8,0:0|0:0,0:0:0:0:
188,104,5218,2,0,L|199:184,2,60,2|2|8,0:0|0:0|0:0,0:0:0:0:
300,60,5860,2,0,P|316:136|360:180,1,120,0|8,2:0|0:0,0:0:0:0:
380,216,6341,2,0,P|368:276|324:328,1,120,0|2,2:0|0:0,0:0:0:0:
276,340,6822,1,8,0:0:0:0:
160,316,7143,6,0,B|102:341|102:341|33:321,1,120,2|8,0:0|0:0,0:0:0:0:
76,208,7785,2,0,P|56:144|56:124,2,60,2|2|8,0:0|0:0|0:0,0:0:0:0:
136,220,8266,2,0,P|212:200|268:220,1,120,2|2,0:0|0:0,0:0:0:0:
292,252,8747,1,8,0:0:0:0:
420,276,9068,2,0,B|420:256|420:256|436:236|436:236|436:216|436:216|452:200|452:200|452:168,1,120,8|8,0:0|0:0,0:0:0:0:
424,116,9550,1,2,0:0:0:0:
376,80,9710,6,0,P|292:92|252:72,1,120,4|8,0:0|0:0,0:0:0:0:
180,168,10352,2,0,L|212:224,2,60,2|2|8,0:0|0:0|0:0,0:0:0:0:
60,164,10993,2,0,P|68:240|36:296,1,120,0|8,2:0|0:0,0:0:0:0:
12,324,11475,2,0,P|76:304|132:332,1,120,0|2,2:0|0:0,0:0:0:0:
180,300,11956,1,8,0:0:0:0:
292,344,12277,6,0,P|368:356|432:328,1,120,2|8,0:0|0:0,0:0:0:0:
348,240,12919,2,0,L|264:240,2,60,2|2|8,0:0|0:0|0:0,0:0:0:0:
412,140,13560,2,0,P|354:126|296:139,1,120,0|8,2:0|0:0,0:0:0:0:
244,172,14042,2,0,P|184:184|128:164,1,120,0|2,2:0|0:0,0:0:0:0:
96,116,14523,1,8,0:0:0:0:
192,44,14844,6,0,L|332:56,1,120,2|8,0:0|0:0,0:0:0:0:
384,152,15485,2,0,L|464:152,2,60,2|2|8,0:0|0:0|0:0,0:0:0:0:
344,196,15967,2,0,B|288:216|288:216|220:204,1,120,2|2,0:0|0:0,0:0:0:0:
188,172,16448,1,8,0:0:0:0:
108,84,16769,2,0,P|75:134|72:200,1,120,2|8,0:0|0:0,0:0:0:0:
88,288,17411,5,8,0:0:0:0:
256,352,17892,1,8,0:0:0:0:
424,288,18373,1,8,0:0:0:0:
356,192,18694,1,4,0:2:0:0:
300,312,19977,6,0,P|236:328|180:316,1,120,4|8,0:0|0:0,0:0:0:0:
148,268,20459,2,0,P|168:208|140:152,1,120,0|2,2:0|0:0,0:0:0:0:
108,112,20940,1,8,0:0:0:0:
72,64,21100,2,0,P|141:98|233:58,1,180,2|8,2:1|0:0,0:0:0:0:
320,136,21903,1,2,0:0:0:0:
416,68,22223,1,8,0:0:0:0:
488,164,22544,6,0,P|476:240|432:280,1,120,4|8,0:0|0:0,0:0:0:0:
388,264,23026,2,0,B|328:244|328:244|268:264,1,120,0|2,2:0|0:0,0:0:0:0:
232,304,23507,1,8,0:0:0:0:
180,336,23667,2,0,P|92:328|64:236,1,180,2|8,2:1|0:0,0:0:0:0:
132,156,24469,1,8,0:0:0:0:
64,60,24790,1,8,0:0:0:0:
184,44,25111,6,0,P|244:84|304:84,1,120,4|8,0:0|0:0,0:0:0:0:
336,48,25592,2,0,P|292:116|308:172,1,120,0|2,2:0|0:0,0:0:0:0:
340,192,26074,1,8,0:0:0:0:
392,220,26234,2,0,P|368:292|264:304,1,180,2|8,2:1|0:0,0:0:0:0:
176,240,27036,2,0,L|60:300,1,120,2|8,0:0|0:0,0:0:0:0:
0,196,27678,6,0,L|116:136,1,120,4|8,0:0|0:0,0:0:0:0:
196,64,28320,2,0,L|332:64,1,120,0|8,2:0|0:0,0:0:0:0:
356,108,28801,2,0,P|308:176|344:284,1,180,2|8,2:1|0:0,0:0:0:0:
436,320,29603,1,8,0:0:0:0:
416,200,29924,1,8,0:0:0:0:
436,80,30245,6,0,P|364:104|312:84,1,120,4|8,0:0|0:0,0:0:0:0:
216,36,30887,2,0,L|76:36,1,120,0|8,2:0|0:0,0:0:0:0:
48,72,31368,2,0,B|28:128|28:128|60:200,1,120,2|2,2:1|0:0,0:0:0:0:
92,228,31849,1,8,0:0:0:0:
40,336,32170,1,2,0:0:0:0:
160,328,32491,1,8,0:0:0:0:
256,252,32812,6,0,P|324:244|380:276,1,120,4|8,0:0|0:0,0:0:0:0:
408,312,33293,2,0,P|404:228|432:180,1,120,0|2,2:0|0:0,0:0:0:0:
456,152,33774,1,8,0:0:0:0:
508,120,33935,2,0,B|448:132|448:132|396:104|396:104|336:112,1,180,2|8,2:1|0:0,0:0:0:0:
232,52,34737,2,0,L|168:100,1,60,8|2,0:0|0:0,0:0:0:0:
124,80,35058,2,0,L|68:128,1,60,8|2,0:0|0:0,0:0:0:0:
28,152,35378,6,0,P|48:232|24:288,1,120,4|8,0:0|0:0,0:0:0:0:
64,320,35860,2,0,P|152:292|184:320,1,120,0|0,2:0|0:0,0:0:0:0:
220,332,36341,1,8,2:1:0:0:
324,276,36662,2,0,B|287:232|287:232|294:160,1,120,2|8,2:1|0:0,0:0:0:0:
329,123,37143,2,0,B|378:87|378:87|441:121,1,120,0|2,2:0|0:0,0:0:0:0:
468,164,37624,1,8,0:0:0:0:
472,224,37785,6,0,P|409:287|312:267,1,180,4|8,0:0|0:0,0:0:0:0:
224,212,38587,2,0,L|136:212,2,60,2|2|8,0:0|0:0|0:0,0:0:0:0:
264,168,39068,2,0,B|323:158|323:158|368:118|368:118|436:112,1,180,2|8,2:1|0:0,0:0:0:0:
480,220,39870,2,0,L|436:296,1,60,8|2,0:0|0:0,0:0:0:0:
392,292,40191,2,0,L|324:320,1,60,8|2,0:0|0:0,0:0:0:0:
276,304,40512,6,0,P|220:296|160:328,1,120,4|8,0:0|0:0,0:0:0:0:
112,356,40993,2,0,P|56:352|20:296,1,120,0|2,2:0|0:0,0:0:0:0:
32,244,41475,1,8,0:0:0:0:
76,132,41796,2,0,B|136:104|136:104|200:132,1,120,2|8,2:1|0:0,0:0:0:0:
236,156,42277,2,0,B|296:184|296:184|360:156,1,120,2|2,2:1|0:0,0:0:0:0:
396,128,42758,1,8,0:0:0:0:
256,192,43079,12,4,44683,0:2:0:0:
