osu file format v14

[General]
AudioFilename: This Dream.mp3
AudioLeadIn: 0
PreviewTime: 19264
Countdown: 1
SampleSet: Normal
StackLeniency: 0.7
Mode: 0
LetterboxInBreaks: 0
WidescreenStoryboard: 1

[Editor]
DistanceSpacing: 1.1
BeatDivisor: 4
GridSize: 4
TimelineZoom: 1

[Metadata]
Title:This Dream (Season Theme)
TitleUnicode:This Dream (Season Theme)
Artist:David Rolfe and John Siegler
ArtistUnicode:David Rolfe and John Siegler
Creator:Lanturn
Version:Hard
Source:Pokémon: Advanced Challenge
Tags:Pokemon Pocket Monsters X Ruby Sapphire Emerald 10 Years of
BeatmapID:1481851
BeatmapSetID:699868

[Difficulty]
HPDrainRate:6
CircleSize:4
OverallDifficulty:6
ApproachRate:7.5
SliderMultiplier:1.5
SliderTickRate:1

[Events]
//Background and Video events
0,0,"PokemonAC.jpg",0,0
Video,-666,"PokemonAC.avi"
//Break Periods
//Storyboard Layer 0 (Background)
//Storyboard Layer 1 (Fail)
//Storyboard Layer 2 (Pass)
//Storyboard Layer 3 (Foreground)
//Storyboard Sound Samples

[TimingPoints]
2010,320.855614973262,4,1,1,60,1,0
19977,-100,4,1,1,70,0,1
44683,-100,4,1,1,70,0,0

[Colours]
Combo1 : 128,255,128
Combo2 : 255,255,128
Combo3 : 255,128,128
Combo4 : 128,255,255

[HitObjects]
172,264,2010,6,0,P|124:280|92:280,1,75,4|0,0:0|0:0,0:0:0:0:
36,232,2330,2,0,P|28:196|36:160,1,75,8|0,0:0|0:0,0:0:0:0:
92,100,2651,2,0,P|129:103|164:116,1,75,2|2,0:0|0:0,0:0:0:0:
216,180,2972,1,8,0:0:0:0:
276,124,3132,1,0,0:0:0:0:
332,184,3293,6,0,P|316:252|372:336,1,150,0|8,2:0|0:0,0:0:0:0:
433,320,3774,2,0,P|467:254|451:183,1,150,0|2,2:0|0:0,0:0:0:0:
392,128,4255,1,8,0:0:0:0:
216,48,4576,6,0,B|216:116|148:116|148:184,1,150,2|8,0:0|0:0,0:0:0:0:
108,248,5058,1,0,0:0:0:0:
60,180,5218,2,0,L|40:100,2,75,2|2|8,0:0|0:0|0:0,0:0:0:0:
108,248,5699,1,2,0:0:0:0:
60,316,5860,6,0,P|96:332|160:316,1,75,0|0,2:0|0:0,0:0:0:0:
208,300,6181,1,0,0:0:0:0:
276,256,6341,2,0,P|348:232|416:256,1,150,0|2,2:0|0:0,0:0:0:0:
464,324,6822,1,8,0:0:0:0:
480,128,7143,6,0,L|380:84,1,75,2|0,0:0|0:0,0:0:0:0:
332,128,7464,2,0,L|232:84,1,75,8|0,0:0|0:0,0:0:0:0:
188,128,7785,2,0,L|88:84,2,75,2|2|8,0:0|0:0|0:0,0:0:0:0:
216,208,8266,6,0,P|204:296|156:332,1,150,2|2,0:0|0:0,0:0:0:0:
76,328,8747,1,8,0:0:0:0:
64,164,9068,5,8,0:0:0:0:
40,84,9229,1,2,0:0:0:0:
144,204,9389,5,8,0:0:0:0:
168,124,9550,1,2,0:0:0:0:
220,252,9710,6,0,L|248:336,1,75,4|0,0:0|0:0,0:0:0:0:
312,276,10031,2,0,L|340:360,1,75,8|0,0:0|0:0,0:0:0:0:
400,292,10352,2,0,L|428:376,2,75,2|2|8,0:0|0:0|0:0,0:0:0:0:
448,224,10833,1,2,0:0:0:0:
428,144,10993,6,0,P|352:120|268:148,1,150,0|8,2:0|0:0,0:0:0:0:
220,188,11475,2,0,P|140:196|72:140,1,150,0|2,2:0|0:0,0:0:0:0:
28,100,11956,2,0,P|8:128|4:172,1,75,8|2,0:0|0:0,0:0:0:0:
44,256,12277,6,0,B|80:316|80:316|160:352,1,150,2|8,0:0|0:0,0:0:0:0:
300,276,12919,2,0,L|392:304,1,75,2|2,0:0|0:0,0:0:0:0:
424,236,13239,1,8,0:0:0:0:
424,236,13400,1,2,0:0:0:0:
384,164,13560,6,0,L|216:192,1,150,0|0,2:0|0:0,0:0:0:0:
220,108,14042,2,0,L|367:83,1,150,0|2,2:0|0:0,0:0:0:0:
448,112,14523,1,8,0:0:0:0:
468,192,14683,6,0,P|412:276|336:288,1,150,0|0,2:0|0:0,0:0:0:0:
292,260,15165,1,8,0:0:0:0:
212,284,15325,2,0,B|148:280|124:228|124:228|68:224,1,150,0|2,2:0|0:0,0:0:0:0:
28,288,15806,1,8,0:0:0:0:
76,356,15967,6,0,B|100:376|132:376|132:376|232:376,1,150,2|2,0:0|0:0,0:0:0:0:
300,344,16448,1,8,0:0:0:0:
352,184,16769,1,2,0:0:0:0:
272,36,17090,1,8,0:0:0:0:
160,160,17411,5,8,0:0:0:0:
216,100,17571,2,0,L|188:60,2,37.5,8|2|2,0:0|0:0|0:0,0:0:0:0:
256,172,17892,1,8,0:0:0:0:
312,112,18052,2,0,L|348:76,2,37.5,8|2|2,0:0|0:0|0:0,0:0:0:0:
352,184,18373,1,8,0:0:0:0:
300,344,18694,5,4,0:2:0:0:
300,344,19977,6,0,P|224:356|140:328,1,150,4|8,0:0|0:0,0:0:0:0:
72,352,20459,2,0,P|112:284|96:208,1,150,0|2,2:0|0:0,0:0:0:0:
32,168,20940,1,8,0:0:0:0:
80,100,21100,6,0,B|144:68|144:68|248:80,1,150,2|2,2:1|0:0,0:0:0:0:
288,128,21582,1,8,0:0:0:0:
428,44,21903,2,0,L|472:120,1,75,0|2,2:0|0:0,0:0:0:0:
420,180,22223,2,0,L|464:256,1,75,8|0,0:0|0:0,0:0:0:0:
432,340,22544,6,0,B|380:372|348:308|280:344,1,150,4|8,0:0|0:0,0:0:0:0:
204,360,23026,2,0,P|132:364|64:316,1,150,0|2,2:0|0:0,0:0:0:0:
104,248,23507,1,8,0:0:0:0:
176,208,23667,6,0,B|256:224|256:224|348:208,1,150,2|2,2:1|0:0,0:0:0:0:
380,152,24149,1,8,0:0:0:0:
256,44,24469,2,0,P|176:64|160:56,1,75,8|2,0:0|0:0,0:0:0:0:
108,52,24790,2,0,P|56:68|32:100,1,75,8|2,0:0|0:0,0:0:0:0:
68,176,25111,6,0,L|40:256,1,75,4|0,0:0|0:0,0:0:0:0:
124,256,25432,2,0,L|100:327,1,75,8|0,0:0|0:0,0:0:0:0:
180,352,25753,1,2,0:0:0:0:
256,320,25913,1,2,0:0:0:0:
336,352,26074,1,8,0:0:0:0:
400,300,26234,6,0,P|380:220|400:144,1,150,2|2,2:1|0:0,0:0:0:0:
448,92,26715,2,0,P|348:112|288:72,1,150,8|0,0:0|0:0,0:0:0:0:
244,44,27197,1,2,0:0:0:0:
168,76,27357,1,8,0:0:0:0:
44,220,27678,6,0,L|128:356,1,150,4|8,0:0|0:0,0:0:0:0:
204,332,28159,1,0,0:0:0:0:
204,332,28320,2,0,P|280:264|312:288,1,150,2|8,0:0|0:0,0:0:0:0:
364,336,28801,6,0,P|434:344|463:277,1,150,2|2,0:0|0:0,0:0:0:0:
460,196,29282,1,8,0:0:0:0:
372,56,29603,5,8,0:0:0:0:
292,40,29764,1,2,0:0:0:0:
424,124,29924,5,8,0:0:0:0:
344,140,30084,1,2,0:0:0:0:
460,196,30245,6,0,L|376:240,1,75,4|0,0:0|0:0,0:0:0:0:
312,260,30566,2,0,L|228:232,1,75,8|0,0:0|0:0,0:0:0:0:
164,268,30887,2,0,P|76:292|44:224,1,150,2|8,2:1|0:0,0:0:0:0:
56,172,31368,6,0,P|144:148|176:216,1,150,2|2,2:1|0:0,0:0:0:0:
240,236,31849,1,8,0:0:0:0:
388,168,32170,2,0,P|432:168|480:148,1,75,0|2,2:0|0:0,0:0:0:0:
461,75,32491,2,0,P|425:64|387:65,1,75,8|0,0:0|0:0,0:0:0:0:
300,108,32812,6,0,P|216:116|144:84,1,150,4|8,0:0|0:0,0:0:0:0:
88,44,33293,2,0,P|104:122|65:185,1,150,0|2,2:0|0:0,0:0:0:0:
0,224,33774,1,8,0:0:0:0:
44,296,33935,6,0,B|116:312|116:312|196:296,1,150,2|2,2:1|0:0,0:0:0:0:
252,244,34416,1,8,0:0:0:0:
380,140,34737,2,0,P|416:96|452:88,1,75,8|2,0:0|0:0,0:0:0:0:
460,168,35058,2,0,P|424:212|388:220,1,75,8|2,0:0|0:0,0:0:0:0:
312,80,35378,6,0,B|256:96|252:96|192:72|192:72|144:96,1,150,4|8,0:0|0:0,0:0:0:0:
76,160,35860,2,0,B|132:176|136:176|196:152|196:152|244:176,1,150,0|2,2:0|0:0,0:0:0:0:
316,240,36341,1,8,0:0:0:0:
112,352,36662,6,0,L|32:204,1,150,2|8,2:1|0:0,0:0:0:0:
180,136,37143,2,0,L|100:284,1,150,0|2,2:0|0:0,0:0:0:0:
256,336,37624,1,8,0:0:0:0:
256,336,37785,6,0,P|340:344|412:308,1,150,4|2,0:0|0:0,0:0:0:0:
444,248,38266,1,8,0:0:0:0:
420,84,38587,1,2,0:0:0:0:
344,56,38747,1,2,0:0:0:0:
260,60,38908,1,8,0:0:0:0:
184,92,39068,6,0,B|208:168|160:168|188:244,1,150,2|2,0:0|0:0,0:0:0:0:
240,304,39550,1,8,0:0:0:0:
392,244,39870,5,8,0:0:0:0:
468,216,40031,1,2,0:0:0:0:
332,300,40191,5,8,0:0:0:0:
408,328,40352,1,2,0:0:0:0:
412,152,40512,6,0,P|344:108|360:44,1,150,4|8,0:0|0:0,0:0:0:0:
355,49,40993,2,0,P|311:117|247:101,1,150,0|2,2:0|0:0,0:0:0:0:
168,52,41475,1,8,0:0:0:0:
168,52,41796,6,0,P|124:120|60:104,1,150,2|8,2:1|0:0,0:0:0:0:
65,109,42277,2,0,P|133:153|117:217,1,150,0|2,2:0|0:0,0:0:0:0:
52,280,42758,2,0,P|32:316|36:364,1,75,8|2,0:0|0:0,0:0:0:0:
128,340,43079,5,0,2:0:0:0:
128,340,43239,2,0,P|173:355|212:348,2,75,2|8|2,0:0|0:0|0:0,0:0:0:0:
176,272,43721,5,4,0:0:0:0:
256,36,44202,1,4,0:0:0:0:
336,272,44683,1,4,0:2:0:0:
