osu file format v14

[General]
AudioFilename: This Dream.mp3
AudioLeadIn: 0
PreviewTime: 19264
Countdown: 1
SampleSet: Normal
StackLeniency: 0.7
Mode: 0
LetterboxInBreaks: 0
WidescreenStoryboard: 0

[Editor]
DistanceSpacing: 1
BeatDivisor: 4
GridSize: 4
TimelineZoom: 1

[Metadata]
Title:This Dream (Season Theme)
TitleUnicode:This Dream (Season Theme)
Artist:David Rolfe and John Siegler
ArtistUnicode:David Rolfe and John Siegler
Creator:Lanturn
Version:Easy
Source:Pokémon: Advanced Challenge
Tags:Pokemon Pocket Monsters X Ruby Sapphire Emerald 10 Years of
BeatmapID:1481850
BeatmapSetID:699868

[Difficulty]
HPDrainRate:2
CircleSize:3
OverallDifficulty:2
ApproachRate:3
SliderMultiplier:0.9
SliderTickRate:1

[Events]
//Background and Video events
0,0,"PokemonAC.jpg",0,0
Video,-666,"PokemonAC.avi"
//Break Periods
//Storyboard Layer 0 (Background)
//Storyboard Layer 1 (Fail)
//Storyboard Layer 2 (Pass)
//Storyboard Layer 3 (Foreground)
//Storyboard Sound Samples

[TimingPoints]
2010,320.855614973262,4,1,1,60,1,0
19977,-100,4,1,1,70,0,1
44683,-100,4,1,1,70,0,0

[Colours]
Combo1 : 128,255,128
Combo2 : 255,255,128
Combo3 : 255,128,128
Combo4 : 128,255,255

[HitObjects]
76,112,2010,6,0,L|136:192,1,90,4|8,0:0|0:0,0:0:0:0:
48,220,2651,2,0,L|108:300,1,90,2|8,0:0|0:0,0:0:0:0:
168,352,3293,2,0,B|256:352|256:352|300:316,2,135,2|2|8,0:0|0:0|0:0,0:0:0:0:
208,272,4576,6,0,L|268:192,1,90,2|8,0:0|0:0,0:0:0:0:
348,232,5218,2,0,L|408:156,1,90,2|8,0:0|0:0,0:0:0:0:
372,76,5859,2,0,B|460:76|460:76|504:112,2,135,2|2|8,0:0|0:0|0:0,0:0:0:0:
308,140,7143,6,0,L|208:140,1,90,2|8,0:0|0:0,0:0:0:0:
156,72,7785,2,0,B|112:40|112:40|24:40,2,135,2|2|8,0:0|0:0|0:0,0:0:0:0:
84,124,9068,1,8,0:0:0:0:
52,208,9389,1,8,0:0:0:0:
76,296,9710,6,0,P|152:340|244:320,1,180,4|2,0:0|0:0,0:0:0:0:
308,268,10673,1,8,0:0:0:0:
372,204,10993,2,0,P|384:160|372:108,1,90,2|8,0:0|0:0,0:0:0:0:
328,40,11635,2,0,L|232:40,1,90,2|8,0:0|0:0,0:0:0:0:
164,92,12277,6,0,B|192:164|132:200|164:268,1,180,2|2,0:0|0:0,0:0:0:0:
228,332,13239,1,8,0:0:0:0:
288,264,13560,2,0,L|388:264,1,90,2|8,0:0|0:0,0:0:0:0:
440,200,14202,2,0,P|448:156|432:100,1,90,2|8,0:0|0:0,0:0:0:0:
364,60,14844,6,0,P|280:32|196:60,1,180,2|2,0:0|0:0,0:0:0:0:
172,148,15806,1,8,0:0:0:0:
92,192,16127,2,0,L|-12:192,2,90,2|8|2,0:0|0:0|0:0,0:0:0:0:
172,236,17090,1,8,0:0:0:0:
240,296,17411,6,0,B|308:312|304:268|376:296,2,135,8|8|8,0:0|0:0|0:0,0:0:0:0:
172,236,18694,1,4,0:2:0:0:
172,236,19977,6,0,B|164:184|164:184|176:152|176:152|172:100,2,135,4|2|8,0:0|0:0|0:0,0:0:0:0:
220,312,21261,2,0,P|264:328|320:312,1,90,2|8,0:0|0:0,0:0:0:0:
356,244,21903,2,0,P|344:196|364:144,1,90,2|8,0:0|0:0,0:0:0:0:
436,200,22544,6,0,B|460:136|460:136|456:64,2,135,4|2|8,0:0|0:0|0:0,0:0:0:0:
356,244,23828,2,0,P|312:252|268:244,1,90,2|8,0:0|0:0,0:0:0:0:
184,208,24469,1,2,0:0:0:0:
94,204,24790,1,8,0:0:0:0:
48,284,25111,6,0,L|92:372,1,90,4|8,0:0|0:0,0:0:0:0:
168,324,25753,2,0,B|232:344|232:344|300:328,2,135,2|2|8,0:0|0:0|0:0,0:0:0:0:
124,244,27036,2,0,P|116:196|128:152,1,90,2|8,0:0|0:0,0:0:0:0:
180,84,27678,5,4,0:0:0:0:
344,160,28320,2,0,P|412:172|484:136,2,135,2|2|8,0:0|0:0|0:0,0:0:0:0:
272,108,29603,1,8,0:0:0:0:
208,168,29924,1,8,0:0:0:0:
140,112,30245,6,0,P|92:112|44:140,1,90,4|8,0:0|0:0,0:0:0:0:
112,200,30887,2,0,P|100:264|48:332,2,135,2|2|8,0:0|0:0|0:0,0:0:0:0:
200,196,32170,2,0,P|208:244|236:284,1,90,2|8,0:0|0:0,0:0:0:0:
304,328,32812,6,0,B|364:356|380:304|444:340,2,135,4|2|8,0:0|0:0|0:0,0:0:0:0:
344,248,34095,2,0,P|356:208|340:160,1,90,2|8,0:0|0:0,0:0:0:0:
300,84,34737,1,8,0:0:0:0:
212,84,35058,1,8,0:0:0:0:
156,156,35378,6,0,P|100:200|28:184,2,135,4|2|8,0:0|0:0|0:0,0:0:0:0:
208,228,36662,2,0,P|152:272|88:288,2,135,2|2|8,0:0|0:0|0:0,0:0:0:0:
236,188,37785,6,0,P|288:132|348:120,1,135,4|8,0:0|0:0,0:0:0:0:
404,196,38587,2,0,B|420:236|420:236|396:276|396:276|416:336,2,135,2|2|8,0:0|0:0|0:0,0:0:0:0:
412,108,39870,1,8,0:0:0:0:
336,56,40191,1,8,0:0:0:0:
256,96,40512,6,0,B|166:102|166:102|108:80,2,135,4|2|8,0:0|0:0|0:0,0:0:0:0:
236,184,41796,2,0,B|156:192|156:192|96:168,2,135,2|2|8,0:0|0:0|0:0,0:0:0:0:
256,192,43079,12,4,44683,0:2:0:0:
