osu file format v6

[General]
AudioFilename: Pokemon-Unbeatable.mp3
AudioLeadIn: 0
PreviewTime: 25403
Countdown: 0
SampleSet: Soft
StackLeniency: 0.7
Mode: 0
LetterboxInBreaks: 1

[Editor]
DistanceSpacing: 1
BeatDivisor: 4
GridSize: 8

[Metadata]
Title:Unbeatable (TV Size)
Artist:David Rolfe
Creator:NoHItter
Version:Rayquaza
Source:Pokemon: Advanced Battle
Tags:Pokemon Unbeatable

[Difficulty]
HPDrainRate:8
CircleSize:5
OverallDifficulty:5
SliderMultiplier:2
SliderTickRate:1

[Events]
//Background and Video events
0,0,"background.jpg"
Video,0,"Bgsong.avi"
//Break Periods
//Storyboard Layer 0 (Background)
//Storyboard Layer 1 (Fail)
//Storyboard Layer 2 (Pass)
//Storyboard Layer 3 (Foreground)
Sprite,Foreground,Centre,"rayquaza.png",320,240 M,0,0,57371,606,427,607,107 M,0,57371,60922,607,107
//Storyboard Sound Samples
//Background Colour Transformations
3,100,163,162,255

[TimingPoints]
149,394.736842105263,4,2,0,100,1,0
25408,394.736842105263,4,2,0,100,1,0
25408,-100,4,2,0,100,0,1
49281,-100,4,2,0,100,0,0

[Colours]
Combo1 : 153,82,34
Combo2 : 157,157,157
Combo3 : 120,150,16

[HitObjects]
64,256,3306,6,0,B|192:256,1,100
224,176,3701,1,2
288,256,3899,2,2,B|416:256,1,100
448,336,4293,1,2
504,256,4491,1,0
504,256,4589,1,0
504,256,4688,1,2
504,256,4787,1,0
504,256,4885,1,4
448,64,5280,5,0
448,160,5477,1,0
448,256,5675,1,8
256,200,6070,1,0
152,200,6267,1,0
24,352,6662,1,0
224,360,7056,1,8
320,360,7254,1,0
416,360,7451,2,4,B|328:280,1,100,4|4
192,192,8438,6,4,B|64:192,1,100
32,112,8833,1,8
96,32,9030,1,0
192,32,9227,1,8
288,32,9425,1,2
384,32,9622,1,8
480,32,9820,1,0
480,32,10214,2,4,B|480:160|320:160,1,200
96,288,11398,5,0
168,224,11596,1,0
240,160,11793,1,0
320,96,11991,1,0
400,40,12188,1,0
404,240,12583,2,4,B|404:303|468:304,1,100,4|4
464,304,12977,1,0
464,104,13372,1,0
280,32,13767,1,0
176,32,13964,1,0
72,32,14162,1,8
32,120,14359,1,4
136,120,14556,5,2
136,216,14754,1,8
336,216,15148,1,2
232,216,15346,1,2
136,216,15543,1,0
136,120,15741,1,0
48,176,15938,1,0
56,272,16135,1,0
136,328,16333,1,2
336,336,16727,1,6
240,160,17122,5,2
336,192,17320,1,2
432,224,17517,1,8
432,24,17912,1,2
328,24,18109,2,4,B|192:8|200:120|200:184,1,200
200,336,18898,1,2
400,336,19293,1,8
400,136,19688,2,4,B|176:136,1,200,4|0
96,136,20280,5,2
96,32,20477,1,2
192,32,20675,1,0
288,32,20872,1,0
488,32,21267,1,0
488,232,21662,1,0
384,232,21859,1,0
280,232,22056,2,4,B|208:208|128:208|128:328,1,200
320,352,22846,5,0
320,152,23241,1,0
320,48,23438,1,4
112,352,23833,5,0
112,152,24227,1,0
256,192,24425,12,8,25017
480,192,25408,5,4
376,192,25605,1,2
272,192,25802,1,0
72,192,26197,1,0
72,88,26394,1,2
72,192,26592,1,2
72,288,26789,1,12
240,192,27184,5,0
240,192,27381,1,0
440,192,27776,1,0
440,88,27973,1,0
440,192,28171,1,2
440,288,28368,1,6
144,128,28960,5,8
144,224,29158,2,8,B|144:336,1,100
368,320,30342,5,2
296,248,30539,1,8
368,64,30934,1,4
296,128,31131,1,4
0,192,31723,5,0
104,192,31921,1,2
200,192,32118,1,2
400,192,32513,1,2
496,192,32710,1,2
496,288,32908,1,2
496,192,33105,1,6
496,192,33500,5,0
400,192,33697,1,2
296,192,33894,1,2
192,192,34092,1,2
88,192,34289,1,8
88,288,34486,1,12
448,64,35276,5,0
448,160,35473,1,0
448,256,35671,1,0
272,352,36065,1,0
168,352,36263,1,0
64,352,36460,1,0
16,264,36657,1,2
16,264,37052,2,8,B|16:136,1,100,8|8
16,264,37842,6,8,B|112:168,1,100
248,80,38434,1,0
248,80,38631,2,8,B|472:80,1,200
480,176,39223,1,0
480,272,39421,1,0
296,352,39815,1,0
96,352,40210,1,0
40,272,40407,1,2
96,184,40605,1,4
392,136,41197,5,0
296,96,41394,1,2
192,96,41592,1,2
0,96,41986,1,2
56,176,42184,1,2
0,256,42381,1,2
56,176,42579,1,6
256,184,42973,5,0
352,184,43171,1,2
152,184,43565,1,2
152,280,43763,1,2
256,280,43960,1,6
256,280,44750,5,8
256,184,44947,2,8,B|256:72,1,100
128,288,46131,5,2
200,360,46329,1,8
384,288,46723,1,4
320,360,46921,1,4
464,40,47513,5,0
376,88,47710,1,2
296,144,47907,1,0
128,248,48302,1,2
56,312,48500,1,2
16,216,48697,1,0
56,120,48894,1,4
256,112,49289,5,0
208,200,49486,1,2
256,288,49684,1,2
352,288,49881,1,2
448,288,50079,1,2
480,192,50276,1,0
440,96,50473,1,2
352,40,50671,5,4
248,40,50868,1,0
152,64,51065,1,0
104,152,51263,1,4
104,248,51460,1,0
160,328,51657,1,0
256,352,51855,1,4
352,328,52052,1,0
256,192,52250,12,8,54026
128,160,54223,5,8
328,160,54618,1,8
328,56,54815,1,4
328,352,55407,5,2
328,256,55605,1,2
328,160,55802,1,2
256,192,56000,12,4,57381
