osu file format v6

[General]
AudioFilename: Pokemon-Unbeatable.mp3
AudioLeadIn: 0
PreviewTime: 25408
Countdown: 0
SampleSet: Soft
StackLeniency: 0.7
Mode: 0
LetterboxInBreaks: 1

[Editor]
DistanceSpacing: 1
BeatDivisor: 4
GridSize: 8

[Metadata]
Title:Unbeatable (TV Size)
Artist:David Rolfe
Creator:NoHItter
Version:Combusken
Source:Pokemon: Advanced Battle
Tags:Pokemon Unbeatable Pokemon: Advanced Battle

[Difficulty]
HPDrainRate:5
CircleSize:5
OverallDifficulty:3
SliderMultiplier:1.4
SliderTickRate:1

[Events]
//Background and Video events
0,0,"background.jpg"
Video,0,"Bgsong.avi"
//Break Periods
//Storyboard Layer 0 (Background)
//Storyboard Layer 1 (Fail)
//Storyboard Layer 2 (Pass)
//Storyboard Layer 3 (Foreground)
//Storyboard Sound Samples
//Background Colour Transformations
3,100,163,162,255

[TimingPoints]
149,394.736842105263,4,2,0,100,1,0
25408,394.736842105263,4,2,0,100,1,0
25408,-100,4,2,0,100,0,1
49281,-100,4,2,0,100,0,0

[Colours]
Combo1 : 153,82,34
Combo2 : 157,157,157
Combo3 : 120,150,16

[HitObjects]
32,32,5280,5,0
104,32,5477,1,0
104,32,5675,2,0,B|472:32,1,350
456,168,7056,1,0
456,304,7451,1,4
456,304,8241,5,0
384,304,8438,1,0
312,304,8635,1,0
240,304,8833,2,0,B|8:304,1,210
32,160,9820,1,0
112,40,10214,1,0
248,32,10609,1,4
424,40,11398,5,0
424,40,11596,1,0
424,184,11991,1,0
424,184,12188,1,0
320,296,12583,1,8
264,256,12780,1,8
208,216,12977,1,8
112,320,13372,1,4
512,344,14556,5,0
440,344,14754,1,0
296,344,15148,2,0,B|104:344,1,140
16,344,15938,2,8,B|16:56,1,280
256,32,17517,6,0,B|256:192,1,140,4|0
160,352,18306,2,0,B|224:224,1,140,0|0
360,352,19096,2,0,B|288:224,1,140,0|0
256,32,19885,1,4
112,112,20280,5,0
176,240,20675,1,4
256,352,21070,1,0
336,240,21464,1,4
384,112,21859,1,0
256,56,22254,1,4
256,192,22648,12,8,24622
32,192,25408,5,4
168,192,25802,1,0
304,192,26197,1,0
304,48,26592,1,0
304,48,26789,1,4
440,48,27184,5,0
440,120,27381,2,0,B|440:280,1,140
376,120,28171,1,4
112,216,28960,5,8
112,144,29158,1,8
184,144,29355,1,8
312,208,30539,5,0
232,96,30934,1,4
32,24,31723,6,0,B|32:184,1,140,4|0
72,296,32513,1,0
200,360,32908,2,2,B|296:360,1,70
408,360,33500,2,0,B|440:352|440:296,1,70,0|8
440,232,33894,2,0,B|440:176|472:168,1,70
464,96,34289,2,0,B|496:88|496:32,1,70,0|8
496,40,35276,6,0,B|336:40,1,140,0|0
216,40,36065,2,0,B|56:40,1,140
72,112,36657,1,0
72,248,37052,1,8
328,352,37842,5,0
256,352,38039,1,0
400,352,38434,1,0
328,352,38631,2,0,B|328:192,1,140
464,208,39421,1,0
504,72,39815,1,0
368,40,40210,1,0
328,176,40605,1,4
32,24,41197,6,0,B|192:24,1,140,4|0
32,24,41986,2,0,B|32:184,1,140
32,232,42579,1,0
128,328,42973,1,0
192,360,43171,1,0
328,360,43565,1,0
400,360,43763,1,0
472,360,43960,1,4
240,224,44750,5,8
168,224,44947,1,8
168,152,45144,2,0,B|168:72|168:72|168:0,1,140
344,232,46329,5,0
240,144,46723,1,4
496,32,47513,6,0,B|336:32,1,140,4|0
496,32,48302,2,0,B|496:192,1,140
496,240,48894,1,0
416,360,49289,1,0
344,360,49486,1,0
272,360,49684,1,0
200,360,49881,1,2
128,360,50079,1,8
56,360,50276,1,4
56,216,50671,5,0
144,104,51065,1,0
280,104,51460,1,0
392,16,51855,1,0
256,192,52250,12,8,54618
256,192,55407,5,2
256,192,55605,1,2
256,192,55802,1,2
256,192,56000,12,6,57381
