osu file format v4

[General]
AudioFilename: In The Dark Of The Night.mp3
AudioLeadIn: 0
AudioHash: fb06470bfcdb17d15aefe4f66feb80ec
PreviewTime: -1
SampleSet: Normal
EditorBookmarks: 12710,44023,81830,117761

[Metadata]
Title:In The Dark Of The Night
Artist:David Newman
Creator:Yuikiko
Version:Hard

[Difficulty]
HPDrainRate:4
CircleSize:5
OverallDifficulty:5
SliderMultiplier: 1.4
SliderTickRate: 1

[Events]
2,33112,44266
2,72939,80919
2,109736,117283
3,0,64,0,128

[TimingPoints]
15019,577.2075,4,1,0

[HitObjects]
160,160,15596,1,0,
256,160,16173,1,0,
352,160,16750,1,0,
256,256,17327,1,0,
160,160,18482,5,0,
288,160,19059,1,0,
160,160,19636,2,0,B|160:160|320:160,1,140
160,96,23099,5,0,
160,160,23532,1,0,
160,224,23677,2,0,B|160:224|288:160,1,140
224,160,24687,1,0,
224,160,24831,1,0,
160,224,25408,2,0,B|160:224|320:224,1,140
128,128,26851,5,0,
128,128,26996,1,0,
128,192,27573,2,0,B|128:192|320:192,1,175
288,256,29160,1,0,
288,256,29304,1,0,
224,256,29449,2,0,B|224:256|224:96,1,140
256,64,30459,5,0,
256,96,30603,1,0,
256,192,31180,1,0,
192,192,31758,1,0,
128,192,32912,1,0,
128,96,45322,5,0,
192,96,45610,1,0,
128,160,46188,2,0,B|128:160|288:160,1,140
224,288,47631,5,0,
224,256,47775,1,0,
224,224,47919,1,0,
224,160,48497,1,0,
128,192,48929,5,0,
160,192,49074,1,0,
128,256,49507,1,0,
192,256,49651,2,0,B|192:256|352:256,3,140
256,192,51960,1,0,
256,256,53114,5,0,
320,256,53691,1,0,
288,192,54124,1,0,
288,128,54269,2,0,B|288:128|448:128,4,140
96,96,57732,5,0,
96,160,58309,1,0,
96,192,58453,1,0,
128,224,58598,1,0,
192,224,58886,2,0,B|192:224|192:64,3,140
160,64,60906,5,0,
96,64,61195,1,0,
128,192,61917,1,0,
160,192,62061,1,0,
224,192,62350,1,0,
224,96,63215,5,0,
256,96,63360,1,0,
288,96,63504,2,0,B|288:96|288:288,1,175
256,288,64370,1,0,
192,288,64658,1,0,
192,224,65236,1,0,
192,160,65813,1,0,
64,160,67544,5,0,
64,224,67977,1,0,
64,288,68266,2,0,B|64:288|512:288,1,420
480,224,70430,2,0,B|480:224|32:224,1,420
64,160,72739,1,4,
128,128,82119,5,0,
96,160,82263,1,0,
96,192,82407,1,0,
96,256,82985,2,0,B|96:256|256:256,1,140
192,128,84428,1,0,
192,160,84572,1,0,
192,192,84716,1,0,
192,320,85294,2,0,B|192:320|352:320,1,140
160,96,86737,5,0,
160,160,87025,2,0,B|160:160|256:160,1,70
160,224,87891,1,0,
224,224,88180,1,0,
64,256,89045,1,0,
64,320,89478,2,0,B|64:320|512:320,1,420
480,256,91498,5,0,
448,256,91643,1,0,
416,256,91787,1,0,
384,256,92076,1,0,
352,256,92220,1,0,
320,256,92364,1,0,
64,288,92942,6,0,B|64:288|192:288,1,105
224,288,93519,1,0,
352,288,94096,2,0,B|352:288|352:128,1,140
96,96,96116,5,0,
128,96,96261,1,0,
160,96,96405,1,0,
224,96,96694,1,0,
320,96,96982,1,0,
96,224,97559,1,0,
96,288,97848,1,0,
96,352,98136,2,0,B|96:352|256:352|256:352,3,140
96,64,100445,6,0,B|96:64|256:64,1,140
256,128,101311,1,0,
256,128,101600,1,0,
96,192,102321,1,0,
96,192,102754,2,0,B|96:192|320:192,1,210
256,128,103908,1,0,
256,64,105063,1,0,
64,96,106794,5,0,
64,160,107083,1,0,
64,224,107516,1,0,
64,288,107949,2,0,B|64:288|224:288,3,140
128,96,118483,5,0,
192,96,118772,1,0,
128,192,119637,1,0,
160,192,119781,1,0,
256,192,120070,1,0,
128,96,120647,5,0,
160,96,120792,1,0,
128,160,120936,2,0,B|128:160|288:160,1,140
128,224,121946,1,0,
160,192,122090,1,4,
192,160,122812,2,0,B|192:160|352:160,1,140
256,192,123966,12,0,128007
