osu file format v6

[General]
AudioFilename: Scribblenauts.mp3
AudioLeadIn: 0
PreviewTime: 52973
Countdown: 0
SampleSet: Normal
StackLeniency: 0.7
Mode: 0
LetterboxInBreaks: 0

[Editor]
DistanceSpacing: 0.5
BeatDivisor: 4
GridSize: 8

[Metadata]
Title:Scribblenauts Theme
Artist:David J. Franco
Creator:NoHItter
Version:Normal
Source:Scribblenauts
Tags:Maxwell 5th Cell DS Game JInxyjem Blue Dragon

[Difficulty]
HPDrainRate:4
CircleSize:5
OverallDifficulty:2
SliderMultiplier:1.6
SliderTickRate:2

[Events]
//Background and Video events
0,0,"scribblenauts.png"
//Break Periods
2,25146,31538
//Storyboard Layer 0 (Background)
//Storyboard Layer 1 (Fail)
//Storyboard Layer 2 (Pass)
//Storyboard Layer 3 (Foreground)
//Storyboard Sound Samples
//Background Colour Transformations
3,100,163,162,255

[TimingPoints]
8812,504.201680672269,4,1,0,100,1,0
33098,500,4,1,0,100,1,0
33219,-100,4,1,0,100,0,0
63125,494.845360824742,4,1,0,100,1,0
63348,-100,4,1,0,60,0,0
65348,-100,4,1,0,60,0,0
69047,-100,4,1,0,100,0,1
73024,-100,4,1,0,100,0,1
78897,-100,4,2,0,51,0,0

[Colours]
Combo1 : 121,74,23
Combo2 : 2,108,2
Combo3 : 15,115,168

[HitObjects]
256,32,8811,1,4
256,192,9820,1,8
256,352,10828,1,4
256,192,11837,1,8
96,192,12845,6,0,B|272:192,1,160,4|8
304,128,13854,2,0,B|136:128,1,160,0|8
192,64,14862,2,0,B|368:64,1,160,0|8
432,72,15870,2,0,B|328:216,1,160,0|8
264,232,16879,5,4
184,232,17383,1,8
104,232,17887,1,0
104,152,18391,1,8
184,152,18896,6,0,B|184:64|304:72,1,160,4|8
376,72,19904,2,0,B|488:64|488:184,1,160,0|8
456,232,20912,5,4
384,264,21417,2,0,B|320:352|240:248,1,160,8|0
176,232,22425,1,8
176,168,22929,6,0,B|176:64,1,80,4|8
216,80,23433,2,0,B|304:80,1,80,0|8
336,88,23938,2,0,B|336:176,1,80,0|8
296,176,24442,2,0,B|200:176,1,80,0|8
216,176,24946,1,4
168,40,33098,5,4
248,40,33598,1,8
328,40,34098,1,0
408,40,34598,2,0,B|464:40|448:120|464:168|376:160,1,160,8|2
328,160,35598,5,8
248,160,36098,1,0
168,160,36598,1,8
88,160,37098,2,0,B|32:160|48:240|32:288|120:280,1,160,2|8
168,280,38098,5,0
248,280,38598,1,8
328,280,39098,2,0,B|504:280,3,160,0|8|0|8
488,200,41098,5,2
488,200,41348,1,0
488,200,41598,1,8
488,120,42098,1,0
408,120,42598,1,8
408,40,43098,1,2
408,40,43348,1,0
408,40,43598,5,8
328,40,44098,1,0
248,40,44598,1,8
248,120,45098,1,2
248,120,45598,5,8
168,120,46098,1,0
88,120,46598,1,8
88,200,47098,5,4
88,280,47598,1,8
168,280,48098,1,0
248,280,48598,1,8
328,280,49098,6,0,B|424:280|424:168|424:56,2,240,8|8|8
248,280,51098,2,0,B|152:280|152:168|152:56,2,240,4|0|4
288,208,53098,5,4
224,160,53598,1,8
288,120,54098,1,0
360,88,54598,1,8
288,48,55098,5,4
216,88,55598,1,8
152,128,56098,1,0
88,176,56598,1,8
144,232,57098,6,0,B|280:136,1,160,4|8
320,200,58098,2,0,B|184:296,1,160,0|8
136,352,59098,2,0,B|56:360|56:360|40:264,1,160,0|8
256,192,59848,12,4,61098
336,344,61598,5,8
336,264,62098,1,8
336,184,62598,2,8,B|336:8,1,160,8|0
256,24,63619,5,8
256,104,64114,1,8
256,184,64609,2,8,B|256:368,1,160,8|0
176,344,65599,5,8
176,264,66094,1,8
176,184,66588,2,8,B|176:16,1,160,8|0
96,24,67578,1,8
96,104,68073,6,0,B|96:200,4,80
256,192,69186,12,0,72527
256,192,73021,5,0
256,192,73516,1,0
256,192,74011,2,0,B|208:128|152:240|56:160,1,200
256,192,75001,12,2,78960
