osu file format v6

[General]
AudioFilename: Scribblenauts.mp3
AudioLeadIn: 0
PreviewTime: 52973
Countdown: 0
SampleSet: Normal
StackLeniency: 0.7
Mode: 0
LetterboxInBreaks: 0

[Editor]
DistanceSpacing: 0.800000011920929
BeatDivisor: 4
GridSize: 8

[Metadata]
Title:Scribblenauts Theme
Artist:David J. Franco
Creator:NoHItter
Version:Hard
Source:Scribblenauts
Tags:Maxwell 5th Cell DS Game JInxyjem Blue Dragon

[Difficulty]
HPDrainRate:7
CircleSize:5
OverallDifficulty:7
SliderMultiplier:1.6
SliderTickRate:2

[Events]
//Background and Video events
0,0,"scribblenauts.png"
//Break Periods
2,25145,32198
//Storyboard Layer 0 (Background)
//Storyboard Layer 1 (Fail)
//Storyboard Layer 2 (Pass)
//Storyboard Layer 3 (Foreground)
//Storyboard Sound Samples
//Background Colour Transformations
3,100,192,192,192

[TimingPoints]
8812,504.201680672269,4,1,0,100,1,0
33098,500,4,1,0,100,1,0
33219,-100,4,1,0,100,0,0
48075,-100,4,1,0,76,0,0
49073,-100,4,1,0,100,0,0
51473,-100,4,2,0,100,0,0
52660,-100,4,1,0,69,0,0
53098,-100,4,1,0,100,0,0
63125,494.845360824742,4,1,0,100,1,0
63473,-100,4,1,0,65,0,0
69061,-100,4,1,0,100,0,1
72782,-100,4,1,0,100,0,1
78827,-100,4,2,0,51,0,0

[Colours]
Combo1 : 121,74,23
Combo2 : 2,108,2
Combo3 : 15,115,168

[HitObjects]
256,328,8811,1,2
216,280,9064,1,0
176,232,9316,1,0
136,184,9568,1,0
128,120,9820,2,0,B|128:56|176:64,1,80,8|0
200,64,10198,2,0,B|256:64|240:152,1,80
320,64,10828,5,10
360,112,11080,1,0
400,160,11333,1,0
440,208,11585,1,0
448,272,11837,2,0,B|448:336|400:328,1,80,8|0
376,328,12215,2,0,B|320:328|336:240,1,80
256,208,12845,5,8
288,152,13097,1,0
224,152,13349,1,0
256,208,13601,2,0,B|256:320,1,80,0|8
256,352,14106,2,0,B|200:352,4,40,0|0|0|0|0
232,288,14862,6,0,B|176:224,1,80,8|0
168,160,15366,2,0,B|240:88,1,80
288,104,15870,2,0,B|360:176,1,80,8|0
344,232,16375,2,0,B|280:296,1,80,0|2
256,232,16879,1,12
256,232,17131,6,0,B|288:184|224:144|272:88|256:48,1,160,0|0
192,72,17887,2,0,B|192:32|216:8|256:0|296:8|328:32|320:80,1,200
328,168,18896,5,0
264,192,19148,1,0
200,168,19400,1,0
264,160,19652,1,0
264,96,19904,2,0,B|264:0,3,80,8|0|0|0
264,16,20912,5,12
208,40,21164,1,0
152,72,21417,1,0
208,104,21669,1,0
264,128,21921,1,8
320,104,22173,1,0
376,72,22425,1,0
320,40,22677,1,0
256,24,22929,2,4,B|200:64|296:144|208:192|296:248|224:336,2,320
256,48,33098,5,4
144,112,33598,1,8
208,112,33848,1,0
272,112,34098,1,0
336,112,34348,1,0
400,112,34598,1,8
312,200,35098,5,2
424,264,35598,1,8
360,264,35848,1,0
296,264,36098,1,0
232,264,36348,1,0
168,264,36598,1,8
256,168,37098,5,2
144,96,37598,2,0,B|232:96,1,80,8|0
288,96,38098,2,0,B|384:96,1,80
432,96,38598,1,8
432,160,38848,1,0
424,224,39098,5,0
384,272,39348,1,0
336,320,39598,1,8
272,320,39848,1,8
240,320,39973,1,0
208,320,40098,2,0,B|202:325|120:344|72:296|16:352|24:136,1,320,8|2
23,146,41348,1,4
24,80,41598,5,8
64,32,41848,1,0
128,32,42098,1,0
192,32,42348,1,0
256,32,42598,2,0,B|296:96|328:16|376:8|408:64,1,160,8|2
456,48,43348,1,0
456,112,43598,5,8
456,176,43848,1,0
456,240,44098,1,0
456,304,44348,1,0
392,304,44598,2,4,B|328:232|272:360|224:264,1,160,12|4
256,160,45598,5,8
208,112,45848,1,0
160,160,46098,1,0
112,112,46348,1,0
64,160,46598,1,8
64,288,47098,6,0,B|320:288,1,240
304,224,48098,2,0,B|40:224,1,240
64,160,49098,1,8
128,160,49348,1,0
192,160,49598,1,0
256,160,49848,2,4,B|328:160|312:64|256:24|-8:48,1,400,4|12
8,176,51598,5,0
8,240,51848,1,0
8,304,52098,1,8
72,304,52348,1,0
136,304,52598,1,0
104,248,52848,2,0,B|56:200,2,40,8|0|8
128,192,53348,5,0
168,144,53598,1,0
208,192,53848,1,0
248,240,54098,1,8
288,192,54348,1,0
328,144,54598,1,0
368,192,54848,1,0
376,256,55098,6,0,B|464:256,1,80,12|0
448,192,55598,2,0,B|352:192,1,80
360,128,56098,2,0,B|464:128,1,80,8|0
432,64,56598,2,0,B|344:64,1,80
288,64,57098,1,12
288,64,57348,5,0
288,128,57598,1,0
288,128,57848,1,0
224,128,58098,1,8
224,128,58348,1,0
224,192,58598,1,0
224,192,58848,1,0
224,256,59098,6,0,B|224:344,8,80,12|0|12|0|12|0|12|0|12
160,256,61348,5,0
112,208,61598,2,0,B|48:128,1,80
112,104,62098,1,8
160,64,62348,2,0,B|272:64,1,80
288,104,62848,1,0
336,152,63125,1,10
336,152,63372,5,0
288,104,63619,1,0
240,64,63867,2,0,B|144:64,1,80,0|8
112,104,64362,1,0
64,144,64609,2,0,B|128:224,1,80
152,256,65104,1,10
216,256,65351,6,0,B|280:256|272:192,3,80,0|0|0|8
272,144,66341,2,0,B|272:72|352:120,3,80,0|0|0|8
384,104,67331,2,0,B|432:104|424:160,3,80,0|0|0|8
424,192,68197,1,8
424,224,68320,1,8
424,288,68568,1,8
360,288,68815,1,8
296,288,69063,5,12
232,288,69310,1,0
232,224,69557,1,0
296,224,69805,1,0
296,160,70052,1,8
232,160,70300,1,0
232,96,70547,1,0
296,96,70795,1,0
296,32,71042,5,8
232,32,71289,1,0
168,32,71537,1,0
168,96,71784,1,0
168,160,72032,1,8
168,224,72279,1,0
168,288,72527,1,0
232,288,72774,6,0,B|288:288,2,40,0|0|8
272,232,73269,2,0,B|336:232,2,40,0|0|8
272,168,73764,2,0,B|224:168,2,40,0|0|8
272,104,74259,2,0,B|328:104,2,40
272,40,74753,2,0,B|200:40,1,40
256,192,75001,12,2,78960
