osu file format v12

[General]
AudioFilename: without you (ft usher).mp3
AudioLeadIn: 2000
PreviewTime: 45083
Countdown: 0
SampleSet: Soft
StackLeniency: 0.7
Mode: 0
LetterboxInBreaks: 0

[Editor]
DistanceSpacing: 1
BeatDivisor: 4
GridSize: 4

[Metadata]
Title:Without You
TitleUnicode:Without You
Artist:David Guetta ft. Usher
ArtistUnicode:David Guetta ft. Usher
Creator:mancusojuanmattos
Version:Normal
Source:
Tags:R&B Nothing but the Beat
BeatmapID:225705
BeatmapSetID:81284

[Difficulty]
HPDrainRate:4
CircleSize:3
OverallDifficulty:4
ApproachRate:4
SliderMultiplier:1.3
SliderTickRate:2

[Events]
//Background and Video events
0,0,"without_you.jpg",0,0
Video,-1710,"WY Video.avi"
//Break Periods
2,97770,100000
2,184020,186250
//Storyboard Layer 0 (Background)
//Storyboard Layer 1 (Fail)
//Storyboard Layer 2 (Pass)
//Storyboard Layer 3 (Foreground)
//Storyboard Sound Samples
//Background Colour Transformations
3,100,163,162,255

[TimingPoints]
70,468.75,4,2,1,65,1,0
15070,-100,4,2,1,80,0,0
45070,-100,4,2,0,80,0,0
75070,-100,4,2,2,100,0,1
97570,-100,4,2,0,60,0,0
101320,-100,4,2,1,80,0,0
146320,-100,4,2,0,80,0,0
161320,-100,4,2,2,100,0,1
183820,-100,4,2,0,80,0,0
187570,-100,4,2,1,80,0,0
202452,-100,4,2,0,60,0,0

[Colours]
Combo1 : 200,140,140
Combo2 : 111,55,55
Combo3 : 165,80,80
SliderBorder : 255,255,255

[HitObjects]
192,304,70,2,0,P|256:316|310:285,1,130,4|0,0:0|0:0,0:0:0:0:
385,179,1007,2,0,P|439:148|503:160,2,130,2|0|2,0:0|0:0|0:0,0:0:0:0:
256,192,2413,1,0,0:0:0:0:
127,179,2882,2,0,P|72:148|8:160,1,130,2|0,0:0|0:0,0:0:0:0:
52,284,3820,6,0,P|80:296|114:296,2,65,2|0|0,0:0|0:0|0:0,0:0:0:0:
127,179,4757,1,2,0:0:0:0:
196,68,5226,2,0,P|256:44|316:68,1,130,0|2,0:0|0:0,0:0:0:0:
385,179,6163,2,0,P|419:178|447:166,2,65,0|0|2,0:0|0:0|0:0,0:0:0:0:
256,156,7101,1,0,0:0:0:0:
164,248,7570,6,0,P|152:312|192:357,1,130,2|0,0:0|0:0,0:0:0:0:
320,357,8507,2,0,P|360:312|348:248,2,130,2|0|2,0:0|0:0|0:0,0:0:0:0:
256,244,9913,1,0,0:0:0:0:
224,116,10382,2,0,P|256:108|288:116,2,65,2|0|0,0:0|0:0|0:0,0:0:0:0:
132,208,11320,6,0,P|108:228|76:236,2,65,2|0|0,0:0|0:0|0:0,0:0:0:0:
60,100,12257,2,0,P|104:52|165:43,1,130,2|0,0:0|0:0,0:0:0:0:
256,136,13195,1,2,0:0:0:0:
348,226,13663,2,0,P|409:217|453:169,2,130,0|2|0,0:0|0:0|0:0,0:0:0:0:
256,136,15070,5,2,0:0:0:0:
140,196,15538,1,0,0:0:0:0:
200,312,16007,2,0,B|232:340|256:344|256:344|280:340|312:312,2,130,2|0|2,0:0|0:0|0:0,0:0:0:0:
140,196,17413,2,0,P|128:132|78:93,2,130,0|2|0,0:0|0:0|0:0,0:0:0:0:
12,208,18820,5,2,0:0:0:0:
116,284,19288,2,0,P|180:284|220:236,1,130,0|2,0:0|0:0,0:0:0:0:
256,112,20226,2,0,P|360:100|428:156,2,195,0|2|2,0:0|0:0|0:0,0:0:0:0:
316,228,22101,1,0,0:0:0:0:
384,340,22570,5,2,0:0:0:0:
460,232,23038,2,0,P|484:112|377:55,1,260
256,104,24445,1,2,0:0:0:0:
134,55,24913,2,0,P|28:112|52:232,1,260
168,292,26320,6,0,P|256:328|344:292,2,195,2|2|0,0:0|0:0|0:0,0:0:0:0:
168,161,28195,2,0,P|256:125|344:161,2,195,2|2|0,0:0|0:0|0:0,0:0:0:0:
124,284,30070,5,4,0:0:0:0:
124,284,30304,2,0,P|184:300|240:268,2,130,2|2|0,0:0|0:0|0:0,0:0:0:0:
124,88,31945,1,4,0:0:0:0:
124,88,32179,2,0,P|180:56|240:72,2,130,2|2|0,0:0|0:0|0:0,0:0:0:0:
92,144,33351,1,0,0:0:0:0:
212,196,33820,6,0,L|280:176,1,65,0|2,0:0|0:0,0:0:0:0:
396,136,34523,2,0,P|452:136|484:196,1,130,2|0,0:0|0:0,0:0:0:0:
384,280,35460,1,2,0:0:0:0:
256,312,35929,1,2,0:0:0:0:
128,280,36398,2,0,P|44:248|12:152,1,195,2|0,0:0|0:0,0:0:0:0:
140,156,37570,6,0,L|172:96,2,65,2|0|0,0:0|0:0|0:0,0:0:0:0:
256,216,38507,2,0,L|256:284,2,65,2|0|0,0:0|0:0|0:0,0:0:0:0:
372,156,39445,2,0,L|340:96,2,65,2|0|0,0:0|0:0|0:0,0:0:0:0:
256,216,40382,2,0,L|256:284,2,65,2|0|0,0:0|0:0|0:0,0:0:0:0:
192,104,41320,5,2,0:0:0:0:
320,104,41788,1,0,0:0:0:0:
256,192,42023,12,4,45070,0:3:0:0:
256,240,46007,5,4,0:3:0:0:
314,126,46476,2,0,P|256:104|196:128,1,130,4|4,0:3|0:3,0:0:0:0:
88,200,47413,2,0,L|29:229,2,65,4|2|4,0:3|0:0|0:3,0:0:0:0:
96,68,48351,1,4,0:3:0:0:
224,100,48820,6,0,P|288:112|344:80,1,130,4|4,0:3|0:3,0:0:0:0:
472,100,49757,2,0,L|452:228,1,130,4|4,0:3|0:3,0:0:0:0:
344,304,50695,1,4,0:3:0:0:
256,220,51163,1,4,0:3:0:0:
168,304,51632,1,4,0:3:0:0:
132,180,52101,2,0,L|196:208,1,65,4|2,0:3|0:0,0:0:0:0:
256,220,52570,6,0,L|256:84,2,130,4|4|4,0:3|0:3|0:3,0:0:0:0:
196,336,53976,2,0,P|256:360|316:336,1,130,4|4,0:3|0:3,0:0:0:0:
406,245,54913,2,0,P|406:209|422:181,2,65,4|2|4,0:3|0:0|0:3,0:0:0:0:
460,364,55851,1,4,0:3:0:0:
332,332,56320,5,4,0:3:0:0:
212,284,56788,2,0,P|96:240|79:117,1,260,4|4,0:3|0:3,0:0:0:0:
180,36,58195,2,0,P|208:32|240:48,2,65,4|2|4,0:3|0:0|0:3,0:0:0:0:
192,164,59132,1,4,0:3:0:0:
320,164,59601,1,4,0:3:0:0:
436,104,60070,6,0,P|460:164|436:224,1,130,4|4,0:3|0:3,0:0:0:0:
312,260,61007,2,0,P|248:264|208:316,1,130,4|4,0:3|0:3,0:0:0:0:
84,276,61945,2,0,P|100:188|40:108,2,195,4|2|4,0:3|0:0|0:3,0:0:0:0:
192,352,63820,5,4,0:3:0:0:
320,352,64288,1,4,0:3:0:0:
396,248,64757,2,0,L|440:296,2,65,4|2|4,0:3|0:0|0:3,0:0:0:0:
336,224,65460,2,0,P|304:144|204:112,1,195,2|4,0:0|0:3,0:0:0:0:
114,203,66632,2,0,P|44:196|8:152,1,130,4|4,0:3|0:3,0:0:0:0:
116,76,67570,6,0,P|160:32|224:27,2,130,4|4|4,0:3|0:3|0:3,0:0:0:0:
216,160,68976,1,4,0:3:0:0:
316,244,69445,2,0,P|272:288|207:292,2,130,4|4|4,0:3|0:3|0:3,0:0:0:0:
216,160,70851,1,4,0:3:0:0:
256,192,71320,12,4,75070,0:0:0:0:
452,304,76007,6,0,P|460:240|433:181,1,130,0|8,0:0|0:0,0:0:0:0:
340,92,76945,2,0,P|393:57|457:61,2,130,2|8|0,0:0|0:0|0:0,0:0:0:0:
256,192,78351,1,8,0:0:0:0:
348,284,78820,6,0,L|388:336,2,65,0|2|8,0:0|0:0|0:0,0:0:0:0:
476,284,79757,2,0,L|401:177,1,130,2|8,0:0|0:0,0:0:0:0:
312,84,80695,2,0,P|256:56|200:84,2,130,4|8|0,0:0|0:0|0:0,0:0:0:0:
252,200,82101,2,0,B|236:244|256:264|272:280|256:328,1,130,8|4,0:0|0:0,0:0:0:0:
128,360,83038,5,8,0:0:0:0:
28,276,83507,2,0,P|8:216|26:154,1,130,2|8,0:0|0:0,0:0:0:0:
118,61,84445,2,0,P|190:17|290:49,2,195,4|2|8,0:0|0:0|0:0,0:0:0:0:
204,160,86320,6,0,P|132:204|32:172,2,195,4|2|8,0:0|0:0|0:0,0:0:0:0:
308,80,88195,2,0,P|264:224|49:279,1,390,4|8,0:0|0:0,0:0:0:0:
12,156,90070,5,4,0:0:0:0:
60,36,90538,1,8,0:0:0:0:
168,112,91007,1,2,0:0:0:0:
140,240,91476,2,8,L|180:292,1,65,8|2,0:0|0:0,0:0:0:0:
223,338,91945,5,4,0:0:0:0:
340,280,92413,2,0,P|400:256|424:196,2,130,8|2|8,0:0|0:0|0:0,0:0:0:0:
304,156,93820,2,0,P|280:98|220:74,2,130,4|8|2,0:0|0:0|0:0,0:0:0:0:
184,208,95226,1,8,0:0:0:0:
256,192,95695,12,4,97570,0:0:0:0:
196,84,101320,6,0,L|325:68,2,130,2|0|2,0:0|0:0|0:0,0:0:0:0:
124,192,102726,1,0,0:0:0:0:
196,300,103195,2,0,L|325:316,2,130,2|0|2,0:0|0:0|0:0,0:0:0:0:
76,256,104601,2,0,L|113:203,1,65,0|2,0:0|0:0,0:0:0:0:
136,192,105070,6,0,P|196:212|260:192,1,130
376,136,106007,2,0,P|357:74|377:14,2,130,2|0|0,0:0|0:0|0:0,0:0:0:0:
416,188,107179,1,0,0:0:0:0:
472,224,107413,2,0,P|491:286|471:346,1,130,0|2,0:0|0:0,0:0:0:0:
344,324,108351,1,0,0:0:0:0:
212,324,108820,6,0,P|192:263|210:202,2,130,2|0|2,0:0|0:0|0:0,0:0:0:0:
304,232,110226,2,0,P|322:171|301:109,1,130,0|2,0:0|0:0,0:0:0:0:
216,12,111163,2,0,L|160:52,1,65,0|0,0:0|0:0,0:0:0:0:
108,84,111632,1,2,0:0:0:0:
68,136,111866,6,0,P|92:196|68:256,1,130,0|2,0:0|0:0,0:0:0:0:
156,352,112804,2,0,P|220:336|276:368,1,130,2|0,0:0|0:0,0:0:0:0:
400,344,113741,2,0,L|444:220,1,130,2|0,0:0|0:0,0:0:0:0:
468,160,114445,1,2,0:0:0:0:
360,88,114913,2,0,L|232:44,1,130,0|2,0:0|0:0,0:0:0:0:
108,28,115851,1,0,0:0:0:0:
36,136,116320,5,4,0:0:0:0:
36,136,116554,2,0,P|84:176|84:240,1,130,2|0,0:0|0:0,0:0:0:0:
204,292,117491,2,0,P|260:320|316:292,1,130,2|0,0:0|0:0,0:0:0:0:
325,274,118195,2,0,P|297:218|325:162,2,130,2|0|2,0:0|0:0|0:0,0:0:0:0:
440,216,119601,1,2,0:0:0:0:
436,88,120070,6,0,P|352:64|262:113,2,195,2|2|0,0:0|0:0|0:0,0:0:0:0:
380,204,121945,2,0,B|380:284|424:284|468:284|468:364,2,195,2|2|0,0:0|0:0|0:0,0:0:0:0:
316,188,123585,5,2,0:0:0:0:
320,60,124054,2,0,P|372:24|436:32,2,130,2|0|0,0:0|0:0|0:0,0:0:0:0:
284,112,125226,1,0,0:0:0:0:
320,236,125695,2,0,P|384:228|436:264,2,130,2|0|2,0:0|0:0|0:0,0:0:0:0:
180,244,127101,5,0,0:0:0:0:
180,244,127335,2,0,P|132:224|164:56,2,260,2|2|0,0:0|0:0|0:0,0:0:0:0:
332,244,129679,2,0,P|380:224|350:56,1,260,2|0,0:0|0:0,0:0:0:0:
340,40,130851,1,2,0:0:0:0:
256,140,131320,5,2,0:0:0:0:
196,256,131788,1,0,0:0:0:0:
196,256,132257,2,0,P|256:280|314:257,1,130,2|0,0:0|0:0,0:0:0:0:
316,128,133195,2,0,P|256:104|198:127,2,130,2|0|2,0:0|0:0|0:0,0:0:0:0:
428,192,134601,2,0,L|460:248,1,65,2|0,0:0|0:0,0:0:0:0:
452,268,135070,6,0,P|408:312|344:312,1,130,2|0,0:0|0:0,0:0:0:0:
251,219,136007,2,0,P|187:219|143:263,1,130,2|0,0:0|0:0,0:0:0:0:
132,280,136710,2,0,L|104:340,1,65,2|0,0:0|0:0,0:0:0:0:
16,244,137413,1,0,0:0:0:0:
36,116,137882,1,2,0:0:0:0:
156,68,138351,1,0,0:0:0:0:
256,152,138820,6,0,P|320:144|360:92,1,130,2|0,0:0|0:0,0:0:0:0:
489,95,139757,2,0,L|469:223,1,130,2|0,0:0|0:0,0:0:0:0:
358,288,140695,2,0,P|320:240|256:232,1,130,2|0,0:0|0:0,0:0:0:0:
236,232,141398,1,2,0:0:0:0:
216,232,141632,1,0,0:0:0:0:
92,192,142101,1,2,0:0:0:0:
0,104,142570,5,0,0:0:0:0:
100,24,143038,2,0,B|160:92|208:-4|256:112|256:112|304:-4|352:92|412:24,2,390,2|2|2,0:0|0:0|0:0,0:0:0:0:
8,116,146320,6,0,P|64:148|80:208,1,130,2|2,0:3|0:3,0:0:0:0:
192,276,147257,1,2,0:3:0:0:
256,164,147726,1,2,0:3:0:0:
320,276,148195,1,2,0:3:0:0:
431,208,148663,2,0,P|448:148|504:116,2,130,0|2|2,0:0|0:3|0:3,0:0:0:0:
320,276,150070,6,0,P|260:256|196:280,1,130,2|2,0:3|0:3,0:0:0:0:
68,272,151007,2,0,P|40:216|63:156,1,130,2|2,0:3|0:3,0:0:0:0:
176,92,151945,2,0,P|276:116|346:66,2,195,2|2|2,0:3|0:0|0:3,0:0:0:0:
52,48,153820,5,2,0:0:0:0:
128,156,154288,1,2,0:0:0:0:
256,188,154757,1,2,0:0:0:0:
384,156,155226,1,2,0:0:0:0:
460,48,155695,1,2,0:0:0:0:
384,156,156163,6,0,L|364:224,2,65,2|0|2,0:0|0:0|0:0,0:0:0:0:
324,40,157101,1,2,0:0:0:0:
256,192,157570,12,6,161320,0:0:0:0:
380,192,162257,5,2,0:0:0:0:
256,232,162726,1,8,0:0:0:0:
132,192,163195,1,0,0:0:0:0:
192,76,163663,2,0,B|256:64|256:64|320:76,2,130,8|2|8,0:0|0:0|0:0,0:0:0:0:
132,192,165070,6,0,L|80:240,1,65,4|2,0:0|0:0,0:0:0:0:
84,256,165538,2,0,P|128:304|188:301,1,130,8|2,0:0|0:0,0:0:0:0:
323,301,166476,2,0,P|384:304|428:256,1,130,8|2,0:0|0:0,0:0:0:0:
340,160,167413,1,8,0:0:0:0:
340,160,167648,2,0,P|256:172|181:100,1,195,2|8,0:0|0:0,0:0:0:0:
52,96,168820,6,0,L|20:222,1,130,4|8,0:0|0:0,0:0:0:0:
92,332,169757,2,0,P|156:344|210:313,1,130,2|8,0:0|0:0,0:0:0:0:
256,268,170460,1,2,0:0:0:0:
301,313,170695,2,0,P|356:344|420:332,1,130,4|8,0:0|0:0,0:0:0:0:
491,222,171632,2,0,L|460:96,1,130,2|8,0:0|0:0,0:0:0:0:
444,32,172335,1,0,0:0:0:0:
388,64,172570,6,0,P|344:108|276:100,1,130,4|8,0:0|0:0,0:0:0:0:
160,56,173507,2,0,P|96:50|52:94,1,130,2|8,0:0|0:0,0:0:0:0:
60,224,174445,2,0,B|68:308|200:352|256:256|256:256|312:352|444:308|452:224,1,520,4|4,0:0|0:0,0:0:0:0:
452,93,176788,6,0,P|392:65|332:77,1,130,8|2,0:0|0:0,0:0:0:0:
256,184,177726,1,8,0:0:0:0:
180,77,178195,2,0,P|120:65|60:93,2,130,4|8|2,0:0|0:0|0:0,0:0:0:0:
132,196,179601,2,0,L|148:260,1,65,8|2,0:0|0:0,0:0:0:0:
164,272,180070,6,0,P|228:256|284:280,1,130,4|8,0:0|0:0,0:0:0:0:
404,332,181007,1,2,0:0:0:0:
452,212,181476,1,8,0:0:0:0:
256,192,181945,12,4,183820,0:0:0:0:
200,324,187570,6,0,P|256:352|312:324,2,130,2|0|0,0:0|0:0|0:0,0:0:0:0:
188,308,188741,2,0,L|156:248,1,65,2|0,0:0|0:0,0:0:0:0:
100,132,189445,1,0,0:0:0:0:
100,131,189679,2,0,P|144:92|212:90,2,130,2|2|0,0:0|0:0|0:0,0:0:0:0:
84,144,190851,2,0,P|45:188|43:256,1,130,0|2,0:0|0:0,0:0:0:0:
168,288,191788,6,0,B|212:276|232:292|256:308|295:290,1,130,0|0,0:0|0:0,0:0:0:0:
316,288,192491,2,0,L|380:172,1,130,2|0,0:0|0:0,0:0:0:0:
312,64,193429,2,0,P|244:40|136:88,1,195,2|2,0:0|0:0,0:0:0:0:
28,156,194601,1,0,0:0:0:0:
124,244,195070,6,0,P|176:280|192:348,1,130,2|0,0:0|0:0,0:0:0:0:
319,341,196007,2,0,P|336:280|388:244,1,130,2|0,0:0|0:0,0:0:0:0:
312,136,196945,2,0,P|256:164|200:136,2,130,2|0|2,0:0|0:0|0:0,0:0:0:0:
403,44,198351,1,0,0:0:0:0:
492,136,198820,5,2,0:0:0:0:
448,260,199288,1,0,0:0:0:0:
324,300,199757,2,0,P|260:288|205:318,1,130,2|0,0:0|0:0,0:0:0:0:
76,316,200695,6,0,L|44:188,1,130,2|0,0:0|0:0,0:0:0:0:
120,84,201632,1,2,0:0:0:0:
192,192,202101,2,0,B|236:180|256:196|280:212|319:194,1,130,2|4,0:0|0:0,0:0:0:0:
