osu file format v12

[General]
AudioFilename: without you (ft usher).mp3
AudioLeadIn: 2000
PreviewTime: 45083
Countdown: 0
SampleSet: Soft
StackLeniency: 0.7
Mode: 0
LetterboxInBreaks: 0

[Editor]
DistanceSpacing: 1
BeatDivisor: 4
GridSize: 4

[Metadata]
Title:Without You
TitleUnicode:Without You
Artist:David Guetta ft. Usher
ArtistUnicode:David Guetta ft. Usher
Creator:mancusojuanmattos
Version:Hard
Source:
Tags:R&B Nothing but the Beat
BeatmapID:225704
BeatmapSetID:81284

[Difficulty]
HPDrainRate:6
CircleSize:4
OverallDifficulty:6
ApproachRate:7
SliderMultiplier:1.7
SliderTickRate:2

[Events]
//Background and Video events
0,0,"without_you.jpg",0,0
Video,-1710,"WY Video.avi"
//Break Periods
2,97770,100420
2,184025,186670
//Storyboard Layer 0 (Background)
//Storyboard Layer 1 (Fail)
//Storyboard Layer 2 (Pass)
//Storyboard Layer 3 (Foreground)
//Storyboard Sound Samples
//Background Colour Transformations
3,100,163,162,255

[TimingPoints]
70,468.75,4,2,1,65,1,0
15070,-100,4,2,1,80,0,0
45070,-100,4,2,0,80,0,0
75070,-86.9565217391304,4,2,2,100,0,1
97570,-100,4,2,0,60,0,0
101320,-100,4,2,1,80,0,0
146320,-100,4,2,0,80,0,0
161320,-86.9565217391304,4,2,2,100,0,1
183820,-100,4,2,0,80,0,0
187570,-100,4,2,1,80,0,0
202452,-100,4,2,0,60,0,0

[Colours]
Combo1 : 200,140,140
Combo2 : 111,55,55
Combo3 : 165,80,80
SliderBorder : 255,255,255

[HitObjects]
216,80,70,2,0,P|256:92|296:80,1,85,4|0,0:0|0:0,0:0:0:0:
356,140,538,2,0,P|344:180|355:220,1,85
296,280,1007,2,0,P|256:268|216:280,1,85,2|0,0:0|0:0,0:0:0:0:
148,228,1476,2,0,P|160:188|149:148,1,85
72,112,1945,6,0,P|60:152|71:192,1,85,2|0,0:0|0:0,0:0:0:0:
64,276,2413,1,0,0:0:0:0:
116,344,2648,1,0,0:0:0:0:
200,360,2882,2,0,P|244:364|284:344,1,85,2|0,0:0|0:0,0:0:0:0:
340,286,3351,2,0,P|376:302|420:298,1,85
396,216,3820,6,0,P|464:180|466:92,1,170,2|0,0:0|0:0,0:0:0:0:
393,133,4523,1,0,0:0:0:0:
316,170,4757,2,0,P|321:87|392:48,2,170,2|0|2,0:0|0:0|0:0,0:0:0:0:
256,228,5929,5,0,0:0:0:0:
192,172,6163,2,0,P|184:132|152:96,1,85
76,129,6632,2,0,P|84:169|111:202,1,85,2|0,0:0|0:0,0:0:0:0:
165,268,7101,1,0,0:0:0:0:
214,337,7335,1,0,0:0:0:0:
299,338,7570,5,2,0:0:0:0:
343,265,7804,2,0,P|363:225|403:205,1,85
422,287,8273,2,0,P|462:299|506:291,1,85,0|2,0:0|0:0,0:0:0:0:
472,213,8741,2,0,P|464:169|437:140,1,85
390,68,9210,1,0,0:0:0:0:
308,43,9445,5,2,0:0:0:0:
256,108,9679,1,0,0:0:0:0:
256,108,9913,2,0,P|176:116|100:64,1,170,0|2,0:0|0:0,0:0:0:0:
24,40,10616,1,0,0:0:0:0:
32,124,10851,2,0,P|79:196|71:276,1,170,0|2,0:0|0:0,0:0:0:0:
4,332,11554,5,0,0:0:0:0:
84,360,11788,1,0,0:0:0:0:
144,300,12023,2,0,P|188:292|228:308,1,85,0|2,0:0|0:0,0:0:0:0:
308,308,12491,2,0,P|352:300|388:316,2,85
256,240,13195,5,2,0:0:0:0:
324,192,13429,1,0,0:0:0:0:
256,140,13663,1,0,0:0:0:0:
188,192,13898,1,0,0:0:0:0:
188,192,14132,2,0,P|160:104|206:52,1,170,2|0,0:0|0:0,0:0:0:0:
324,192,15070,6,0,P|352:104|306:52,2,170,2|0|2,0:0|0:0|0:0,0:0:0:0:
284,264,16241,2,0,P|252:292|212:307,1,85,0|0,0:0|0:0,0:0:0:0:
152,246,16710,2,0,P|112:261|80:289,2,85,0|2|0,0:0|0:0|0:0,0:0:0:0:
164,160,17413,1,0,0:0:0:0:
240,116,17648,2,0,P|320:128|376:64,1,170,2|0,0:0|0:0,0:0:0:0:
292,52,18351,1,0,0:0:0:0:
292,52,18585,1,0,0:0:0:0:
208,36,18820,6,0,P|124:28|65:83,1,170,2|0,0:0|0:0,0:0:0:0:
65,168,19523,2,0,P|123:223|207:215,1,170,2|0,0:0|0:0,0:0:0:0:
256,144,20226,1,0,0:0:0:0:
305,215,20460,2,0,P|389:223|447:168,1,170,2|0,0:0|0:0,0:0:0:0:
416,88,21163,1,0,0:0:0:0:
352,140,21398,2,0,L|420:296,1,170,2|0,0:0|0:0,0:0:0:0:
344,336,22101,5,0,0:0:0:0:
260,328,22335,2,0,P|188:296|112:336,1,170,2|0,0:0|0:0,0:0:0:0:
28,356,23038,1,0,0:0:0:0:
28,272,23273,2,0,P|60:200|20:124,1,170,2|0,0:0|0:0,0:0:0:0:
0,40,23976,1,0,0:0:0:0:
84,48,24210,2,0,P|160:88|232:56,1,170,2|0,0:0|0:0,0:0:0:0:
316,48,24913,2,0,P|344:80|344:128,1,85,0|2,0:0|0:0,0:0:0:0:
428,152,25382,2,0,P|430:192|458:224,1,85,0|0,0:0|0:0,0:0:0:0:
512,292,25851,5,0,0:0:0:0:
436,328,26085,2,0,B|392:344|356:316|316:284|273:303,1,170,2|0,0:0|0:0,0:0:0:0:
188,316,26788,2,0,P|144:316|112:292,1,85,0|0,0:0|0:0,0:0:0:0:
52,232,27257,2,0,P|84:208|128:208,1,85,2|0,0:0|0:0,0:0:0:0:
212,196,27726,1,0,0:0:0:0:
256,120,27960,1,0,0:0:0:0:
256,120,28195,6,0,L|312:56,1,85,2|0,0:0|0:0,0:0:0:0:
392,84,28663,2,0,L|336:148,2,85,0|0|2,0:0|0:0|0:0,0:0:0:0:
476,68,29366,1,0,0:0:0:0:
492,152,29601,2,0,L|492:240,1,85,0|0,0:0|0:0,0:0:0:0:
460,316,30070,6,0,B|408:308|408:308|372:352|300:321,1,170,4|0,0:0|0:0,0:0:0:0:
211,321,30773,2,0,B|140:352|104:308|104:308|52:316,1,170,2|0,0:0|0:0,0:0:0:0:
0,240,31476,2,0,L|84:224,1,85,0|0,0:0|0:0,0:0:0:0:
164,252,31945,1,0,0:0:0:0:
220,188,32179,2,0,B|220:116|256:116|300:116|299:49,1,170,2|0,0:0|0:0,0:0:0:0:
213,49,32882,2,0,B|213:116|257:116|293:116|293:188,1,170,2|0,0:0|0:0,0:0:0:0:
436,280,33820,5,2,0:0:0:0:
356,312,34054,2,0,P|288:344|220:288,1,170,0|2,0:0|0:0,0:0:0:0:
372,212,34991,2,0,P|304:158|236:190,2,170,0|2|0,0:0|0:0|0:0,0:0:0:0:
484,340,36398,2,0,B|468:296|496:260|528:220|509:177,1,170,2|0,0:0|0:0,0:0:0:0:
448,120,37101,5,0,0:0:0:0:
392,56,37335,2,0,P|312:32|252:88,1,170,2|0,0:0|0:0,0:0:0:0:
332,116,38038,1,0,0:0:0:0:
332,116,38273,2,0,P|273:168|193:144,1,170,2|0,0:0|0:0,0:0:0:0:
144,76,38976,2,0,P|104:56|56:56,1,85,0|0,0:0|0:0,0:0:0:0:
0,112,39445,5,2,0:0:0:0:
36,188,39679,2,0,L|88:256,1,85
168,284,40148,2,0,P|212:276|256:292,1,85,0|2,0:0|0:0,0:0:0:0:
304,352,40616,1,0,0:0:0:0:
364,291,40851,2,0,L|424:232,1,85,0|0,0:0|0:0,0:0:0:0:
484,169,41320,2,0,P|432:109|336:109,1,170,2|0,0:0|0:0,0:0:0:0:
256,192,41905,12,0,44601,0:0:0:0:
216,88,45070,6,0,P|256:100|296:88,1,85,4|0,0:3|0:0,0:0:0:0:
380,84,45538,1,4,0:3:0:0:
336,156,45773,2,0,P|256:180|176:156,1,170,2|0,0:0|0:0,0:0:0:0:
132,84,46476,1,4,0:3:0:0:
60,124,46710,2,0,P|0:196|8:276,1,170,2|0,0:0|0:0,0:0:0:0:
80,308,47413,2,0,P|164:288|228:336,2,170,4|4|4,0:3|0:3|0:3,0:0:0:0:
80,308,48820,5,4,0:3:0:0:
144,372,49054,2,0,L|168:204,1,170,2|0,0:0|0:0,0:0:0:0:
176,120,49757,2,0,B|236:148|256:120|272:96|340:120,1,170,4|4,0:3|0:3,0:0:0:0:
344,204,50460,2,0,L|368:372,2,170,2|2|2,0:0|0:0|0:0,0:0:0:0:
412,156,51632,1,4,0:3:0:0:
508,16,52101,2,0,L|428:44,1,85,4|2,0:3|0:0,0:0:0:0:
356,92,52570,5,4,0:3:0:0:
184,76,53038,2,0,P|80:192|184:308,1,340,4|4,0:3|0:3,0:0:0:0:
268,300,54210,2,0,P|312:296|344:272,1,85,2|4,0:0|0:3,0:0:0:0:
404,212,54679,2,0,P|436:188|480:184,2,85,2|4|2,0:0|0:3|0:0,0:0:0:0:
468,268,55382,1,4,0:3:0:0:
412,108,55851,1,4,0:3:0:0:
256,176,56320,6,0,P|144:212|56:40,1,340,4|4,0:3|0:3,0:0:0:0:
256,52,57726,2,0,P|368:16|458:183,1,340,4|4,0:3|0:3,0:0:0:0:
404,248,58898,2,0,L|336:308,1,85,2|4,0:0|0:3,0:0:0:0:
256,320,59366,1,2,0:0:0:0:
171,304,59601,2,0,L|108:248,1,85,4|2,0:3|0:0,0:0:0:0:
176,200,60070,6,0,B|224:192|256:220|256:220|288:192|336:200,1,170,4|4,0:3|0:3,0:0:0:0:
335,114,60773,2,0,B|287:122|255:94|255:94|223:122|175:114,1,170,2|2,0:0|0:0,0:0:0:0:
104,156,61476,1,4,0:3:0:0:
68,324,61945,2,0,P|148:304|216:352,1,170,4|4,0:3|0:3,0:0:0:0:
296,352,62648,1,2,0:0:0:0:
296,352,62882,2,0,P|364:304|444:324,1,170,4|4,0:3|0:3,0:0:0:0:
504,264,63585,1,2,0:0:0:0:
484,180,63820,6,0,P|444:120|353:121,1,170,4|4,0:3|0:3,0:0:0:0:
320,188,64523,2,0,P|256:236|192:188,1,170,2|2,0:0|0:0,0:0:0:0:
256,132,65226,1,4,0:3:0:0:
196,72,65460,1,2,0:0:0:0:
48,156,65929,2,0,L|24:324,1,170,2|2,0:0|0:0,0:0:0:0:
104,352,66632,2,0,P|176:316|256:344,2,170,4|4|4,0:3|0:3|0:3,0:0:0:0:
64,276,67804,6,0,P|176:228|296:272,1,255,2|4,0:0|0:3,0:0:0:0:
352,336,68741,1,2,0:0:0:0:
436,320,68976,1,4,0:3:0:0:
456,240,69210,2,0,P|444:200|456:152,1,85,2|4,0:0|0:3,0:0:0:0:
367,165,69679,2,0,P|376:124|364:84,1,85,2|4,0:0|0:3,0:0:0:0:
292,132,70148,2,0,P|252:144|210:135,1,85,2|4,0:0|0:3,0:0:0:0:
248,60,70616,1,2,0:0:0:0:
164,48,70851,1,4,0:3:0:0:
100,104,71085,1,2,0:0:0:0:
256,192,71320,12,2,74601,0:3:0:0:
256,80,75070,6,0,P|304:84|346:61,1,97.7500018644333,4|0,0:0|0:0,0:0:0:0:
436,100,75538,2,0,P|432:148|454:190,1,97.7500018644333,8|0,0:0|0:0,0:0:0:0:
512,272,76007,1,2,0:0:0:0:
494,289,76124,1,0,0:0:0:0:
476,306,76241,1,0,0:0:0:0:
380,288,76476,1,8,0:0:0:0:
316,212,76710,1,0,0:0:0:0:
246,142,76945,6,0,P|184:84|84:108,1,195.500003728867,2|8,0:0|0:0,0:0:0:0:
156,176,77648,1,0,0:0:0:0:
226,246,77882,2,0,P|126:270|64:212,2,195.500003728867,2|8|0,0:0|0:0|0:0,0:0:0:0:
304,184,79054,2,0,P|329:144|381:132,1,97.7500018644333,2|8,0:0|0:0,0:0:0:0:
396,228,79523,1,0,0:0:0:0:
396,228,79757,2,0,P|472:168|444:76,1,195.500003728867,2|8,0:0|0:0,0:0:0:0:
256,48,80695,6,0,B|208:32|192:64|176:104|124:80,2,146.62500279665,2|2|0,0:0|0:0|0:0,0:0:0:0:
240,144,81632,2,0,P|164:184|64:152,2,195.500003728867,2|8|4,0:0|0:0|0:0,0:0:0:0:
336,164,82804,1,0,0:0:0:0:
304,72,83038,2,0,P|380:32|480:64,1,195.500003728867,8|0,0:0|0:0,0:0:0:0:
480,160,83741,2,0,L|440:256,1,97.7500018644333,2|8,0:0|0:0,0:0:0:0:
412,344,84210,1,2,0:0:0:0:
348,268,84445,6,0,B|304:240|256:276|256:276|208:316|167:290,1,195.500003728867,4|8,0:0|0:0,0:0:0:0:
76,252,85148,2,0,L|39:162,1,97.7500018644333,2|0,0:0|0:0,0:0:0:0:
40,64,85616,1,2,0:0:0:0:
116,128,85851,2,0,L|153:218,2,97.7500018644333,8|2|4,0:0|0:0|0:0,0:0:0:0:
40,64,86554,1,0,0:0:0:0:
128,24,86788,2,0,P|204:68|305:49,1,195.500003728867,8|0,0:0|0:0,0:0:0:0:
404,40,87491,2,0,P|452:44|484:80,1,97.7500018644333,2|8,0:0|0:0,0:0:0:0:
408,140,87960,1,0,0:0:0:0:
404,236,88195,6,0,B|388:296|304:324|256:240|256:240|208:324|124:296|108:236,2,391.000007457733,4|2|4,0:0|0:0|0:0,0:0:0:0:
336,168,90304,5,2,0:0:0:0:
256,116,90538,1,8,0:0:0:0:
176,168,90773,1,0,0:0:0:0:
88,128,91007,2,0,P|96:72|216:32,1,195.500003728867,2|8,0:0|0:0,0:0:0:0:
256,116,91710,1,2,0:0:0:0:
298,30,91945,2,0,P|416:72|424:128,2,195.500003728867,4|8|0,0:0|0:0|0:0,0:0:0:0:
256,216,93351,5,8,0:0:0:0:
168,176,93585,1,2,0:0:0:0:
196,272,93820,2,0,P|256:336|316:272,1,195.500003728867,4|8,0:0|0:0,0:0:0:0:
344,176,94523,1,2,0:0:0:0:
256,216,94757,2,0,L|256:20,2,195.500003728867,0|8|4,0:0|0:0|0:0,0:0:0:0:
256,192,95812,12,4,97570,0:0:0:0:
140,40,101320,6,0,B|208:4|256:56|256:56|304:4|372:40,1,255,2|0,0:0|0:0,0:0:0:0:
368,124,102257,2,0,P|340:156|300:167,1,85,2|0,0:0|0:0,0:0:0:0:
211,167,102726,2,0,P|171:155|143:123,1,85,0|0,0:0|0:0,0:0:0:0:
64,92,103195,2,0,L|24:260,1,170,2|0,0:0|0:0,0:0:0:0:
104,288,103898,2,0,P|184:260|260:296,1,170,2|0,0:0|0:0,0:0:0:0:
304,364,104601,1,0,0:0:0:0:
376,320,104835,1,0,0:0:0:0:
391,304,104952,1,0,0:0:0:0:
406,288,105070,5,2,0:0:0:0:
468,228,105304,2,0,P|464:160|393:92,2,170,0|2|2,0:0|0:0|0:0,0:0:0:0:
384,204,106476,2,0,P|344:188|303:194,1,85,0|2,0:0|0:0,0:0:0:0:
300,280,106945,2,0,P|259:284|225:311,1,85,2|0,0:0|0:0,0:0:0:0:
292,364,107413,1,0,0:0:0:0:
292,364,107648,2,0,L|214:212,1,170,2|0,0:0|0:0,0:0:0:0:
154,152,108351,1,0,0:0:0:0:
68,156,108585,6,0,P|92:80|172:64,1,170,2|0,0:0|0:0,0:0:0:0:
248,108,109288,2,0,P|336:92|360:23,2,170,2|0|0,0:0|0:0|0:0,0:0:0:0:
184,164,110460,2,0,P|216:192|256:200,1,85,2|0,0:0|0:0,0:0:0:0:
340,192,110929,2,0,P|380:180|406:147,1,85,0|0,0:0|0:0,0:0:0:0:
456,80,111398,2,0,P|464:40|440:4,2,85,2|0|2,0:0|0:0|0:0,0:0:0:0:
508,148,112101,1,0,0:0:0:0:
504,232,112335,6,0,P|424:368|272:324,2,340,2|2|2,0:0|0:0|0:0,0:0:0:0:
428,196,114445,2,0,P|388:192|349:169,1,85,0|2,0:0|0:0,0:0:0:0:
376,88,114913,2,0,P|337:65|297:61,1,85,0|0,0:0|0:0,0:0:0:0:
213,60,115382,2,0,P|175:65|136:88,1,85,2|0,0:0|0:0,0:0:0:0:
56,116,115851,1,0,0:0:0:0:
60,200,116085,1,0,0:0:0:0:
60,200,116320,6,0,P|144:196|208:252,1,170,2|0,0:0|0:0,0:0:0:0:
280,292,117023,2,0,P|328:356|416:346,1,170,2|0,0:0|0:0,0:0:0:0:
364,276,117726,2,0,P|412:208|493:201,2,170,0|2|0,0:0|0:0|0:0,0:0:0:0:
300,220,118898,2,0,P|348:152|428:124,1,170,2|0,0:0|0:0,0:0:0:0:
508,100,119601,1,2,0:0:0:0:
348,44,120070,6,0,L|179:21,1,170,2|0,0:0|0:0,0:0:0:0:
96,36,120773,2,0,P|16:104|52:236,1,255,2|0,0:0|0:0,0:0:0:0:
124,196,121710,1,0,0:0:0:0:
204,224,121945,1,2,0:0:0:0:
176,304,122179,2,0,B|220:324|256:296|256:296|292:324|336:304,1,170,2|2,0:0|0:0,0:0:0:0:
308,224,122882,1,0,0:0:0:0:
476,208,123351,5,0,0:0:0:0:
444,132,123585,2,0,P|380:76|292:60,1,170,2|0,0:0|0:0,0:0:0:0:
213,59,124288,2,0,P|132:76|68:132,1,170,2|0,0:0|0:0,0:0:0:0:
20,204,124991,1,2,0:0:0:0:
8,288,125226,1,0,0:0:0:0:
88,256,125460,2,0,P|128:252|176:264,1,85,2|0,0:0|0:0,0:0:0:0:
256,244,125929,2,0,L|256:336,1,85,2|0,0:0|0:0,0:0:0:0:
340,352,126398,2,0,P|383:362|423:358,1,85,2|0,0:0|0:0,0:0:0:0:
508,360,126866,1,2,0:0:0:0:
512,276,127101,5,0,0:0:0:0:
456,212,127335,2,0,P|388:172|380:88,1,170,2|0,0:0|0:0,0:0:0:0:
320,28,128038,2,0,P|296:176|428:292,2,340,2|0|0,0:0|0:0|0:0,0:0:0:0:
236,16,130148,1,2,0:0:0:0:
156,40,130382,2,0,L|136:124,1,85,0|2,0:0|0:0,0:0:0:0:
52,144,130851,2,0,L|32:226,1,85,0|2,0:0|0:0,0:0:0:0:
84,296,131320,5,2,0:0:0:0:
156,252,131554,1,0,0:0:0:0:
164,336,131788,1,0,0:0:0:0:
164,336,132023,2,0,P|248:348|308:292,1,170,2|0,0:0|0:0,0:0:0:0:
296,208,132726,1,0,0:0:0:0:
380,224,132960,1,0,0:0:0:0:
456,184,133195,5,2,0:0:0:0:
468,100,133429,2,0,L|388:64,1,85,2|0,0:0|0:0,0:0:0:0:
312,36,133898,2,0,P|236:20|152:60,1,170,2|0,0:0|0:0,0:0:0:0:
136,140,134601,1,0,0:0:0:0:
104,220,134835,1,2,0:0:0:0:
160,284,135070,6,0,P|236:268|308:324,1,170
392,324,135773,2,0,L|428:156,1,170,2|0,0:0|0:0,0:0:0:0:
360,108,136476,2,0,L|276:68,1,85,0|2,0:0|0:0,0:0:0:0:
200,92,136945,1,0,0:0:0:0:
144,156,137179,1,2,0:0:0:0:
160,240,137413,2,0,L|76:280,1,85,0|2,0:0|0:0,0:0:0:0:
152,328,137882,2,0,L|304:251,1,170
392,244,138585,6,0,P|452:216|464:120,2,170,2|2|0,0:0|0:0|0:0,0:0:0:0:
388,160,139757,2,0,P|348:156|315:127,1,85,0|2,0:0|0:0,0:0:0:0:
248,72,140226,2,0,P|215:43|175:39,1,85,0|2,0:0|0:0,0:0:0:0:
92,28,140695,1,0,0:0:0:0:
8,44,140929,1,2,0:0:0:0:
4,128,141163,1,0,0:0:0:0:
88,136,141398,2,0,L|148:196,1,85,2|0,0:0|0:0,0:0:0:0:
212,252,141866,1,2,0:0:0:0:
300,252,142101,5,0,0:0:0:0:
364,196,142335,2,0,L|424:136,1,85,2|0,0:0|0:0,0:0:0:0:
456,56,142804,2,0,B|356:-28|312:128|256:152|256:152|200:128|156:-28|56:56,2,510,2|0|0,0:0|0:0|0:0,0:0:0:0:
468,140,145851,2,0,P|448:180|447:219,1,85,2|0,0:0|0:0,0:0:0:0:
392,284,146320,6,0,P|352:284|312:304,1,85,2|2,0:3|0:0,0:0:0:0:
256,368,146788,1,2,0:3:0:0:
199,304,147023,2,0,P|159:284|120:284,1,85,2|2,0:0|0:3,0:0:0:0:
36,300,147491,1,0,0:0:0:0:
64,219,147726,2,0,P|64:180|44:140,1,85,2|0,0:3|0:0,0:0:0:0:
96,72,148195,6,0,P|164:112|249:93,1,170,2|2,0:3|0:3,0:0:0:0:
316,40,148898,2,0,P|401:21|469:61,1,170,2|0,0:0|0:0,0:0:0:0:
496,144,149601,1,2,0:3:0:0:
412,132,149835,1,0,0:0:0:0:
432,216,150070,6,0,B|384:248|352:216|316:180|264:212,1,170,2|2,0:3|0:3,0:0:0:0:
264,292,150773,2,0,B|232:244|264:212|300:176|268:124,1,170,2|2,0:0|0:0,0:0:0:0:
220,64,151476,2,0,L|132:36,1,85,2|0,0:3|0:0,0:0:0:0:
52,32,151945,1,2,0:3:0:0:
12,108,152179,2,0,L|172:164,2,170,2|2|0,0:0|0:0|0:0,0:0:0:0:
8,192,153351,6,0,L|88:220,1,85,2|0,0:3|0:0,0:0:0:0:
144,284,153820,1,2,0:0:0:0:
256,156,154288,1,2,0:0:0:0:
368,284,154757,1,2,0:0:0:0:
256,156,155226,1,2,0:0:0:0:
380,40,155695,6,0,P|340:24|298:23,1,85,2|0,0:0|0:0,0:0:0:0:
213,23,156163,2,0,P|172:24|132:40,1,85,2|0,0:0|0:0,0:0:0:0:
131,125,156632,2,0,P|171:141|212:141,1,85,2|0,0:0|0:0,0:0:0:0:
299,141,157101,2,0,P|341:141|381:125,2,85,0|2|0,0:0|0:0|0:0,0:0:0:0:
256,192,157687,12,2,160851,0:3:0:0:
164,328,161320,6,0,P|256:356|348:328,1,195.500003728867,4|8,0:0|0:0,0:0:0:0:
300,244,162023,2,0,P|257:262|213:242,1,97.7500018644333,2|0,0:0|0:0,0:0:0:0:
213,142,162491,2,0,P|257:122|300:140,1,97.7500018644333,0|8,0:0|0:0,0:0:0:0:
400,140,162960,1,2,0:0:0:0:
348,56,163195,6,0,P|256:28|164:56,1,195.500003728867,4|8,0:0|0:0,0:0:0:0:
80,108,163898,1,2,0:0:0:0:
32,192,164132,2,0,P|4:284|32:376,1,195.500003728867,0|8,0:0|0:0,0:0:0:0:
128,356,164835,1,2,0:0:0:0:
180,276,165070,5,4,0:0:0:0:
276,276,165304,2,0,P|328:272|368:296,1,97.7500018644333,2|8,0:0|0:0,0:0:0:0:
452,244,165773,2,0,P|474:205|470:153,1,97.7500018644333,2|0,0:0|0:0,0:0:0:0:
424,68,166241,1,2,0:0:0:0:
328,72,166476,2,0,L|284:44,1,48.8750009322167,8|0,0:0|0:0,0:0:0:0:
144,76,166945,6,0,P|80:76|40:144,2,146.62500279665,4|2|0,0:0|0:0|0:0,0:0:0:0:
136,172,167882,1,0,0:3:0:0:
256,328,168351,1,8,0:0:0:0:
372,172,168820,2,0,P|344:124|428:36,2,195.500003728867,4|8|0,0:0|0:0|0:0,0:0:0:0:
456,224,169991,2,0,P|472:268|452:312,1,97.7500018644333,2|8,0:0|0:0,0:0:0:0:
356,288,170460,1,2,0:0:0:0:
264,324,170695,6,0,P|180:292|92:344,1,195.500003728867,4|8,0:0|0:0,0:0:0:0:
0,308,171398,2,0,L|60:116,1,195.500003728867,2|0,0:0|0:0,0:0:0:0:
140,68,172101,2,0,P|192:72|232:44,1,97.7500018644333,8|2,0:0|0:0,0:0:0:0:
328,56,172570,2,0,P|268:132|176:156,2,195.500003728867,4|8|0,0:0|0:0|0:0,0:0:0:0:
420,24,173741,1,2,0:0:0:0:
464,112,173976,1,8,0:0:0:0:
424,200,174210,1,2,0:0:0:0:
424,300,174445,6,0,B|380:324|332:212|256:328|256:328|180:212|132:324|88:300,2,391.000007457733,4|2|4,0:0|0:0|0:0,0:0:0:0:
440,204,176554,6,0,P|424:160|436:112,1,97.7500018644333,2|8,0:0|0:0,0:0:0:0:
344,40,177023,2,0,P|356:88|340:132,2,97.7500018644333,2|0|2,0:0|0:0|0:0,0:0:0:0:
256,84,177726,1,8,0:0:0:0:
172,132,177960,2,0,P|156:88|168:40,2,97.7500018644333,0|4|0,0:0|0:0|0:0,0:0:0:0:
164,236,178663,6,0,B|216:208|256:240|256:240|304:276|343:235,1,195.500003728867,8|0,0:0|0:0,0:0:0:0:
420,176,179366,1,2,0:0:0:0:
484,248,179601,1,8,0:0:0:0:
444,336,179835,1,2,0:0:0:0:
344,336,180070,2,0,B|304:376|256:340|256:340|216:308|164:336,1,195.500003728867,4|8,0:0|0:0,0:0:0:0:
76,296,180773,2,0,L|-8:120,1,195.500003728867,2|0,0:0|0:0,0:0:0:0:
32,28,181476,1,8,0:0:0:0:
124,60,181710,1,2,0:0:0:0:
108,156,181945,6,0,B|124:216|208:244|256:160|256:160|304:244|388:216|404:156,2,391.000007457733,4|2|4,0:0|0:0|0:0,0:0:0:0:
104,236,187570,5,2,0:0:0:0:
176,284,187804,2,0,P|256:308|336:284,2,170,2|2|0,0:0|0:0|0:0,0:0:0:0:
104,236,188976,2,0,P|112:196|96:152,1,85,0|2,0:0|0:0,0:0:0:0:
48,88,189445,5,0,0:0:0:0:
128,60,189679,2,0,P|208:36|268:88,2,170,2|2|0,0:0|0:0|0:0,0:0:0:0:
192,116,190851,2,0,P|220:152|256:164,1,85,0|2,0:0|0:0,0:0:0:0:
336,132,191320,5,0,0:0:0:0:
416,156,191554,2,0,P|448:232|412:312,1,170,2|2,0:0|0:0,0:0:0:0:
256,372,192491,1,2,0:0:0:0:
96,308,192960,2,0,P|64:232|96:156,2,170,2|2|2,0:0|0:0|0:0,0:0:0:0:
176,280,194132,1,0,0:0:0:0:
340,232,194601,5,0,0:0:0:0:
324,148,194835,2,0,P|256:105|188:149,1,170,2|0,0:0|0:0,0:0:0:0:
140,76,195538,2,0,P|172:48|212:32,1,85,0|2,0:0|0:0,0:0:0:0:
300,32,196007,2,0,P|340:48|372:76,1,85
431,135,196476,2,0,P|463:163|503:179,1,85,2|0,0:0|0:0,0:0:0:0:
492,264,196945,6,0,P|432:320|348:304,1,170,2|0,0:0|0:0,0:0:0:0:
300,240,197648,2,0,P|219:226|159:282,1,170,2|0,0:0|0:0,0:0:0:0:
84,320,198351,1,0,0:0:0:0:
52,240,198585,2,0,P|65:159|9:99,2,170,2|0|0,0:0|0:0|0:0,0:0:0:0:
84,320,199757,1,2,0:0:0:0:
148,164,200226,6,0,L|212:108,1,85,2|0,0:0|0:0,0:0:0:0:
300,108,200695,2,0,L|364:164,1,85,2|0,0:0|0:0,0:0:0:0:
440,200,201163,1,0,0:0:0:0:
408,280,201398,2,0,P|372:356|301:337,1,170,2|0,0:0|0:0,0:0:0:0:
210,337,202101,2,0,P|140:356|104:280,1,170,2|4,0:0|0:0,0:0:0:0:
