osu file format v12

[General]
AudioFilename: David Guetta Titanium ft Sia.mp3
AudioLeadIn: 0
PreviewTime: 62019
Countdown: 0
SampleSet: Soft
StackLeniency: 0.7
Mode: 0
LetterboxInBreaks: 0
StoryFireInFront: 0
EpilepsyWarning: 1
WidescreenStoryboard: 1

[Editor]
Bookmarks: 17257,91067,99162,106781,122019,167734
DistanceSpacing: 1.1
BeatDivisor: 4
GridSize: 4

[Metadata]
Title:Titanium
TitleUnicode:Titanium
Artist:David Guetta ft. Sia
ArtistUnicode:David Guetta ft. Sia
Creator:Helios_Zul
Version:Normal
Source:
Tags:helios zul album nothing but the beat ultimate
BeatmapID:316814
BeatmapSetID:124249

[Difficulty]
HPDrainRate:5
CircleSize:4
OverallDifficulty:4
ApproachRate:4
SliderMultiplier:1.29999990463257
SliderTickRate:1

[Events]
//Background and Video events
0,0,"David Guetta.png",0,0
//Break Periods
2,91543,97888
2,169408,174079
//Storyboard Layer 0 (Background)
//Storyboard Layer 1 (Fail)
//Storyboard Layer 2 (Pass)
//Storyboard Layer 3 (Foreground)
//Storyboard Sound Samples
Sample,53494,0,"normal-hitwhistle2",45
Sample,61113,0,"normal-hitclap2",90
Sample,66827,0,"normal-hitclap2",90
Sample,67303,0,"normal-hitclap2",90
Sample,67780,0,"normal-hitclap2",90
Sample,68256,0,"normal-hitclap2",90
Sample,68732,0,"normal-hitclap2",90
Sample,69208,0,"normal-hitclap2",90
Sample,129684,0,"normal-hitwhistle2",45
Sample,137303,0,"normal-hitclap2",90
Sample,143018,0,"normal-hitclap2",90
Sample,143494,0,"normal-hitclap2",90
Sample,143970,0,"normal-hitclap2",90
Sample,144446,0,"normal-hitclap2",90
Sample,145399,0,"normal-hitclap2",90
Sample,190637,0,"normal-hitwhistle2",45
Sample,198256,0,"normal-hitclap2",90
Sample,203970,0,"normal-hitclap2",90
Sample,204922,0,"normal-hitclap2",90
Sample,205875,0,"normal-hitclap2",90
Sample,228732,0,"normal-hitfinish2",40
//Background Colour Transformations
3,100,163,162,255

[TimingPoints]
161,476.190476190476,4,3,2,60,1,0
15399,-100,4,3,2,75,0,0
45875,-100,4,1,2,68,0,1
45994,-100,4,2,2,60,0,0
61113,-100,4,1,2,90,0,0
74446,-100,4,1,2,91,0,0
75160,-100,4,1,2,95,0,0
75875,-100,4,3,2,70,0,0
76351,-100,4,2,2,40,0,1
76827,-100,4,3,2,80,0,1
91113,-100,4,1,2,68,0,1
91589,-100,4,2,2,40,0,0
99208,-100,4,3,2,75,0,0
122065,-100,4,1,2,68,0,1
122184,-100,4,2,2,75,0,0
137303,-100,4,1,2,90,0,0
150637,-100,4,1,2,91,0,0
151351,-100,4,1,2,95,0,0
152065,-100,4,3,2,70,0,0
152541,-100,4,2,2,40,0,1
153018,-100,4,3,2,80,0,1
158494,-100,4,3,2,5,0,1
158504,-100,4,3,2,80,0,1
159446,-100,4,3,2,5,0,1
159456,-100,4,3,2,80,0,1
160160,-100,4,2,2,40,0,1
160637,-100,4,3,2,80,0,1
166113,-100,4,3,2,5,0,1
166123,-100,4,3,2,80,0,1
167065,-100,4,3,2,5,0,1
167075,-100,4,3,2,80,0,1
167303,-100,4,1,2,68,0,1
167541,-100,4,2,2,60,0,1
167780,-100,4,2,2,40,0,0
169208,-100,4,2,2,40,0,0
179089,-100,4,2,2,5,0,0
179208,-100,4,2,2,40,0,0
183018,-100,4,1,2,60,0,1
183137,-100,4,2,2,75,0,0
198256,-100,4,1,2,90,0,0
209922,-100,4,1,2,91,0,0
211589,-100,4,1,2,95,0,0
213018,-100,4,3,2,70,0,0
213494,-100,4,2,2,40,0,1
213970,-100,4,3,2,80,0,1
221113,-100,4,2,2,40,0,1
221589,-100,4,3,2,80,0,1
227065,-100,4,3,2,5,0,1
227075,-100,4,3,2,80,0,1
228018,-100,4,3,2,5,0,1
228028,-100,4,3,2,80,0,1
228732,-100,4,1,2,40,0,0
229208,-100,4,1,2,30,0,0
229684,-100,4,1,2,20,0,0
230160,-100,4,1,2,10,0,0
230399,-100,4,1,2,5,0,0

[Colours]
Combo1 : 217,138,210
Combo2 : 190,77,251
Combo3 : 105,58,98
SliderTrackOverride : 128,128,128

[HitObjects]
64,192,15399,2,0,L|168:108,1,129.999990463257,8|0,0:0|0:0,0:0:0:0:
308,116,16351,2,0,L|204:200,1,129.999990463257,0|2,0:0|0:0,0:0:0:0:
240,336,17303,2,0,L|138:254,1,129.999990463257,8|0,0:0|0:0,0:0:0:0:
282,248,18255,2,0,L|383:329,1,129.999990463257,0|2,0:0|0:0,0:0:0:0:
344,192,19208,6,0,P|280:168|208:208,1,129.999990463257,8|0,0:0|0:0,0:0:0:0:
288,60,20160,2,0,P|224:84|152:44,1,129.999990463257,0|2,0:0|0:0,0:0:0:0:
72,168,21113,2,0,P|136:212|200:220,1,129.999990463257,8|0,0:0|0:0,0:0:0:0:
256,240,21827,1,0,0:0:0:0:
325,220,22065,2,0,P|388:206|440:168,1,129.999990463257,0|2,0:0|0:0,0:0:0:0:
328,80,23018,6,0,P|260:116|188:124,1,129.999990463257,8|0,0:0|0:0,0:0:0:0:
72,168,23970,2,0,P|140:204|212:212,1,129.999990463257,0|2,0:0|0:0,0:0:0:0:
56,260,24922,2,0,P|120:292|184:300,1,129.999990463257,8|0,0:0|0:0,0:0:0:0:
320,300,25875,2,0,P|383:289|441:259,1,129.999990463257,0|2,0:0|0:0,0:0:0:0:
440,116,26827,6,0,P|382:86|318:75,1,129.999990463257,8|0,0:0|0:0,0:0:0:0:
256,40,27541,1,0,0:0:0:0:
192,76,27780,2,0,P|128:86|70:116,1,129.999990463257
20,164,28494,1,2,0:0:0:0:
60,300,28970,1,8,0:0:0:0:
200,276,29446,1,8,0:0:0:0:
160,140,29922,1,8,0:0:0:0:
20,164,30399,1,8,0:0:0:0:
32,92,30637,6,0,L|168:40,1,129.999990463257,4|8,0:0|0:0,0:0:0:0:
220,24,31351,1,0,0:0:0:0:
288,152,31827,1,0,0:0:0:0:
356,180,32065,2,0,L|477:226,1,129.999990463257,8|0,0:0|0:0,0:0:0:0:
380,332,33018,5,8,0:0:0:0:
316,300,33256,2,0,P|256:280|192:296,1,129.999990463257
128,328,33970,1,8,0:0:0:0:
80,192,34446,6,0,B|108:152|108:152|104:88|160:64,1,129.999990463257,0|8,0:0|0:0,0:0:0:0:
188,28,35160,1,0,0:0:0:0:
332,28,35637,1,0,0:0:0:0:
376,84,35875,2,0,B|407:93|403:157|403:157|431:197,1,129.999990463257,8|0,0:0|0:0,0:0:0:0:
372,328,36827,5,8,0:0:0:0:
312,292,37065,2,0,P|256:264|192:296,1,129.999990463257
136,328,37780,1,8,0:0:0:0:
52,212,38256,6,0,L|136:100,1,129.999990463257,0|8,0:0|0:0,0:0:0:0:
172,48,38970,1,0,0:0:0:0:
316,48,39446,1,0,0:0:0:0:
364,104,39684,2,0,L|442:208,1,129.999990463257,8|0,0:0|0:0,0:0:0:0:
324,288,40637,5,8,0:0:0:0:
256,260,40875,2,0,B|220:192|304:192|256:128,1,129.999990463257
200,104,41589,1,8,0:0:0:0:
132,232,42065,6,0,P|156:308|216:348,1,129.999990463257,0|8,0:0|0:0,0:0:0:0:
256,372,42780,1,0,0:0:0:0:
318,338,43018,2,0,P|365:294|380:232,1,129.999990463257,0|8,0:0|0:0,0:0:0:0:
360,164,43732,1,2,0:0:0:0:
320,28,44208,1,8,0:0:0:0:
176,28,44684,1,8,0:0:0:0:
216,164,45160,1,8,0:0:0:0:
360,164,45637,1,8,0:0:0:0:
420,204,45875,6,0,B|364:264|300:208|300:208|256:240|200:280,2,259.999980926514,4|0|2,0:0|0:0|0:0,0:0:0:0:
208,184,48494,6,0,L|132:236,2,64.9999952316285
268,148,49208,2,0,B|320:124|356:160|356:160|392:136,2,129.999990463257,0|2|0,0:0|0:0|0:0,0:0:0:0:
136,92,50637,6,0,P|88:132|100:200,1,129.999990463257
160,160,51351,2,0,P|172:224|60:300,1,194.999985694886,2|0,0:0|0:0,0:0:0:0:
112,368,52303,2,0,P|180:336|241:226,1,194.999985694886
244,164,53256,2,0,P|287:78|371:31,1,194.999985694886,2|0,0:0|0:0,0:0:0:0:
324,168,54446,6,0,P|312:208|288:232,1,64.9999952316285
228,240,54922,2,0,P|172:200|168:128,2,129.999990463257,0|2|0,0:0|0:0|0:0,0:0:0:0:
232,312,56113,2,0,P|188:304|152:272,2,64.9999952316285
304,312,56827,2,0,P|348:300|408:208,2,129.999990463257,0|2|0,0:0|0:0|0:0,0:0:0:0:
356,180,58256,6,0,P|416:168|476:220,1,129.999990463257
402,239,58970,2,0,P|374:283|222:295,1,194.999985694886,2|0,0:0|0:0,0:0:0:0:
268,240,59922,2,0,P|184:260|192:360,1,194.999985694886
244,308,60875,2,0,L|64:200,1,194.999985694886,2|8,0:0|0:0,0:0:0:0:
220,208,62065,6,0,L|148:164,1,64.9999952316285,8|0,0:0|0:0,0:0:0:0:
184,104,62541,2,0,L|300:176,2,129.999990463257,8|8|8,0:0|0:0|0:0,0:0:0:0:
112,108,63732,2,0,P|120:68|148:40,2,64.9999952316285,0|8|0,0:0|0:0|0:0,0:0:0:0:
184,104,64446,2,0,L|304:180,2,129.999990463257,8|8|8,0:0|0:0|0:0,0:0:0:0:
252,232,65875,6,0,P|304:248|336:232,2,64.9999952316285,8|0|8,0:0|0:0|0:0,0:0:0:0:
294,173,66589,2,0,P|368:196|304:324,2,259.999980926514
28,276,69446,6,0,P|48:240|92:220,2,64.9999952316285,0|8|0,0:0|0:0|0:0,0:0:0:0:
100,292,70160,2,0,P|140:228|120:176,2,129.999990463257,8|8|8,0:0|0:0|0:0,0:0:0:0:
28,276,71351,2,0,P|28:316|52:348,2,64.9999952316285,0|8|0,0:0|0:0|0:0,0:0:0:0:
100,292,72065,2,0,P|140:228|120:176,1,129.999990463257,8|8,0:0|0:0,0:0:0:0:
144,112,72780,6,0,L|216:88,2,64.9999952316285,8|8|8,0:0|0:0|0:0,0:0:0:0:
140,40,73494,1,8,0:0:0:0:
208,20,73732,2,0,L|269:0,2,64.9999952316285,8|8|8,0:0|0:0|0:0,0:0:0:0:
207,91,74446,6,0,L|243:103,12,32.4999976158143,8|8|8|8|8|8|8|8|8|8|8|8|0,0:0|0:0|0:0|0:0|0:0|0:0|0:0|0:0|0:0|0:0|0:0|0:0|0:0,0:0:0:0:
124,184,76351,6,0,P|152:244|212:284,3,129.999990463257,4|0|0|8,0:0|0:0|0:0|0:0,0:0:0:0:
256,232,78018,1,2,1:0:0:0:
309,280,78256,2,0,P|361:242|388:184,3,129.999990463257,0|0|0|8,0:0|0:0|0:0|0:0,0:0:0:0:
452,156,79922,1,2,1:0:0:0:
400,108,80160,2,0,P|360:116|312:200,3,129.999990463257,0|0|0|8,0:0|0:0|0:0|0:0,0:0:0:0:
256,232,81827,1,2,1:0:0:0:
200,185,82065,2,0,P|171:129|112:108,3,129.999990463257,0|0|0|8,0:0|0:0|0:0|0:0,0:0:0:0:
72,48,83732,1,2,1:0:0:0:
144,36,83970,6,0,P|204:60|256:112,3,129.999990463257,0|0|0|8,0:0|0:0|0:0|0:0,0:0:0:0:
292,164,85637,1,2,1:0:0:0:
332,224,85875,2,0,P|378:268|438:292,3,129.999990463257,0|0|0|8,0:0|0:0|0:0|0:0,0:0:0:0:
464,360,87541,1,2,1:0:0:0:
392,360,87780,2,0,P|328:332|272:272,3,129.999990463257,0|0|0|8,0:0|0:0|0:0|0:0,0:0:0:0:
256,224,89446,1,2,1:0:0:0:
224,160,89684,2,0,P|176:116|116:91,3,129.999990463257,0|0|0|4,0:0|0:0|0:0|0:0,0:0:0:0:
96,88,99208,6,0,L|216:160,1,129.999990463257,8|0,0:0|0:0,0:0:0:0:
64,156,100160,2,0,L|184:228,1,129.999990463257,0|2,0:0|0:0,0:0:0:0:
320,236,101113,2,0,L|208:302,1,129.999990463257,8|0,0:0|0:0,0:0:0:0:
352,304,102065,2,0,L|240:370,1,129.999990463257,0|2,0:0|0:0,0:0:0:0:
100,348,103018,6,0,P|96:288|152:244,1,129.999990463257,8|0,0:0|0:0,0:0:0:0:
208,212,103732,1,0,0:0:0:0:
268,176,103970,2,0,P|316:135|313:73,1,129.999990463257,0|0,0:0|0:0,0:0:0:0:
252,36,104684,1,2,0:0:0:0:
116,76,105160,1,8,0:0:0:0:
128,220,105637,1,8,0:0:0:0:
268,176,106113,2,0,L|312:252,1,64.9999952316285,8|2,0:0|0:0,0:0:0:0:
360,192,106589,2,0,L|404:268,1,64.9999952316285,0|4,0:0|0:0,0:0:0:0:
320,124,107303,6,0,L|276:48,1,64.9999952316285,8|0,0:0|0:0,0:0:0:0:
196,176,108018,1,0,0:0:0:0:
208,104,108256,2,0,P|164:108|124:192,1,129.999990463257,8|0,0:0|0:0,0:0:0:0:
252,232,109208,5,8,0:0:0:0:
240,304,109446,2,0,P|284:300|324:216,1,129.999990463257,0|0,0:0|0:0,0:0:0:0:
384,192,110160,1,8,0:0:0:0:
396,48,110637,6,0,P|356:100|280:132,1,129.999990463257,0|8,0:0|0:0,0:0:0:0:
228,140,111351,1,0,0:0:0:0:
316,252,111827,1,0,0:0:0:0:
248,228,112065,2,0,P|184:204|148:152,1,129.999990463257,8|0,0:0|0:0,0:0:0:0:
40,64,113018,5,8,0:0:0:0:
56,136,113256,2,0,P|80:212|120:264,1,129.999990463257
164,300,113970,1,8,0:0:0:0:
176,228,114208,1,0,0:0:0:0:
108,252,114446,1,0,0:0:0:0:
204,148,114922,5,8,0:0:0:0:
216,76,115160,2,0,P|268:112|268:188,1,129.999990463257
248,240,115875,1,8,0:0:0:0:
364,156,116351,6,0,P|356:204|312:288,1,129.999990463257,0|8,0:0|0:0,0:0:0:0:
276,332,117065,1,0,0:0:0:0:
204,320,117303,2,0,P|180:288|180:256,1,64.9999952316285
248,240,117780,2,0,P|232:188|160:160,1,129.999990463257,8|0,0:0|0:0,0:0:0:0:
56,68,118732,6,0,P|136:52|196:52,2,129.999990463257,8|0|0,0:0|0:0|0:0,0:0:0:0:
24,132,119922,1,2,0:0:0:0:
60,272,120399,1,8,0:0:0:0:
200,236,120875,1,8,0:0:0:0:
164,100,121351,1,8,0:0:0:0:
24,132,121827,1,8,0:0:0:0:
4,64,122065,6,0,B|168:24|168:24|228:32|232:76|232:84,2,259.999980926514,4|0|2,0:0|0:0|0:0,0:0:0:0:
204,148,124684,6,0,P|248:152|276:140,2,64.9999952316285
148,104,125399,2,0,L|12:140,2,129.999990463257,0|2|0,0:0|0:0|0:0,0:0:0:0:
156,248,126827,6,0,P|208:288|196:372,1,129.999990463257
144,320,127541,2,0,L|336:224,1,194.999985694886,2|0,0:0|0:0,0:0:0:0:
368,284,128494,2,0,P|384:200|276:180,1,194.999985694886
320,233,129446,2,0,L|500:145,1,194.999985694886,2|0,0:0|0:0,0:0:0:0:
352,136,130637,6,0,L|280:172,1,64.9999952316285
252,108,131113,2,0,L|388:40,2,129.999990463257,0|2|0,0:0|0:0|0:0,0:0:0:0:
188,72,132303,2,0,P|180:124|196:152,2,64.9999952316285
120,44,133018,2,0,P|104:96|128:184,2,129.999990463257,0|2|0,0:0|0:0|0:0,0:0:0:0:
40,164,134446,6,0,P|72:224|136:244,1,129.999990463257
120,168,135160,2,0,P|52:292|64:344,1,194.999985694886,2|0,0:0|0:0,0:0:0:0:
132,356,136113,2,0,B|228:376|228:376|328:360,1,194.999985694886
392,336,137065,2,0,P|393:240|333:166,1,194.999985694886,2|8,0:0|0:0,0:0:0:0:
192,192,138256,6,0,L|280:192,1,64.9999952316285,8|0,0:0|0:0,0:0:0:0:
244,120,138732,2,0,L|84:120,2,129.999990463257,8|8|8,0:0|0:0|0:0,0:0:0:0:
260,52,139922,2,0,P|300:76|312:112,2,64.9999952316285,0|8|0,0:0|0:0|0:0,0:0:0:0:
188,52,140637,2,0,L|28:52,2,129.999990463257,8|8|8,0:0|0:0|0:0,0:0:0:0:
256,176,142065,6,0,P|268:212|264:248,2,64.9999952316285,8|0|8,0:0|0:0|0:0,0:0:0:0:
188,200,142780,2,0,P|192:264|32:284,2,259.999980926514
136,148,144922,1,8,0:0:0:0:
352,152,145637,6,0,L|412:196,2,64.9999952316285,0|8|0,0:0|0:0|0:0,0:0:0:0:
316,88,146351,2,0,P|256:72|176:96,2,129.999990463257,8|8|8,0:0|0:0|0:0,0:0:0:0:
388,88,147541,1,0,0:0:0:0:
352,152,147780,2,0,L|412:196,1,64.9999952316285,8|0,0:0|0:0,0:0:0:0:
372,256,148256,2,0,L|256:168,1,129.999990463257,8|8,0:0|0:0,0:0:0:0:
216,228,148970,6,0,P|196:188|200:160,2,64.9999952316285,8|8|8,0:0|0:0|0:0,0:0:0:0:
220,300,149684,1,8,0:0:0:0:
160,336,149922,2,0,P|120:356|92:352,2,64.9999952316285,8|8|8,0:0|0:0|0:0,0:0:0:0:
156,268,150637,6,0,P|140:248|132:212,12,32.4999976158143,8|8|8|8|8|8|8|8|8|8|8|8|0,0:0|0:0|0:0|0:0|0:0|0:0|0:0|0:0|0:0|0:0|0:0|0:0|0:0,0:0:0:0:
292,316,152541,6,0,P|368:276|400:216,3,129.999990463257,4|0|0|8,0:0|0:0|0:0|0:0,0:0:0:0:
444,192,154208,1,2,1:0:0:0:
392,144,154446,2,0,P|351:93|292:68,3,129.999990463257,0|0|0|8,0:0|0:0|0:0|0:0,0:0:0:0:
256,132,156113,1,0,0:0:0:0:
220,68,156351,2,0,P|160:92|120:143,3,129.999990463257,0|0|0|8,0:0|0:0|0:0|0:0,0:0:0:0:
60,104,158018,6,0,P|48:172|132:280,1,194.999985694886,2|0,1:0|0:0,0:0:0:0:
164,324,158970,2,0,B|256:356|256:356|352:324,1,194.999985694886,0|8,0:0|0:0,0:0:0:0:
420,336,159922,1,2,1:0:0:0:
396,268,160160,6,0,P|372:212|304:168,3,129.999990463257,4|0|0|8,0:0|0:0|0:0|0:0,0:0:0:0:
256,132,161827,1,2,1:0:0:0:
194,172,162065,2,0,P|142:209|116:268,3,129.999990463257,0|0|0|8,0:0|0:0|0:0|0:0,0:0:0:0:
60,316,163732,1,0,0:0:0:0:
44,244,163970,2,0,P|68:184|124:124,3,129.999990463257,0|0|0|8,0:0|0:0|0:0|0:0,0:0:0:0:
64,80,165637,6,0,P|136:40|256:40,1,194.999985694886,2|0,1:0|0:0,0:0:0:0:
276,104,166589,2,0,P|372:105|458:61,1,194.999985694886,0|4,0:0|0:0,0:0:0:0:
256,192,167780,12,0,169208,0:0:0:0:
300,88,175399,6,0,L|276:172,1,64.9999952316285,2|0,0:0|0:0,0:0:0:0:
216,120,175875,2,0,L|192:204,1,64.9999952316285,0|0,0:0|0:0,0:0:0:0:
128,200,176351,2,0,B|144:268|232:268|260:224|260:224|304:232|336:224|360:180,2,259.999980926514,0|2|0,0:0|0:0|0:0,0:0:0:0:
196,180,178494,1,0,0:0:0:0:
144,128,178732,2,0,P|96:128|60:168,1,97.4999928474428
56,192,179208,6,0,P|72:264|132:308,5,129.999990463257,2|0|2|0|2|0,0:0|0:0|0:0|0:0|0:0|0:0,0:0:0:0:
232,248,182065,6,0,P|216:176|156:132,2,129.999990463257,2|0|4,0:0|0:0|0:0,0:0:0:0:
376,116,183732,6,0,L|424:176,2,64.9999952316285
312,152,184446,2,0,L|408:272,2,129.999990463257,0|2|0,0:0|0:0|0:0,0:0:0:0:
312,80,185637,1,0,0:0:0:0:
248,116,185875,2,0,P|240:156|260:200,1,64.9999952316285
196,232,186351,2,0,P|168:168|184:88,2,129.999990463257,0|2|0,0:0|0:0|0:0,0:0:0:0:
328,296,187780,6,0,L|284:236,2,64.9999952316285
396,272,188494,2,0,L|276:112,1,194.999985694886,2|0,0:0|0:0,0:0:0:0:
348,92,189446,2,0,P|328:176|232:168,1,194.999985694886
280,116,190399,2,0,P|200:100|168:196,1,194.999985694886,2|0,0:0|0:0,0:0:0:0:
208,248,191351,5,0,0:0:0:0:
136,260,191589,2,0,P|104:232|92:204,1,64.9999952316285
88,140,192065,2,0,P|128:60|184:28,2,129.999990463257,0|2|0,0:0|0:0|0:0,0:0:0:0:
94,211,193256,1,0,0:0:0:0:
28,180,193494,2,0,P|20:224|36:256,1,64.9999952316285
52,308,193970,2,0,P|104:352|188:360,2,129.999990463257,0|2|0,0:0|0:0|0:0,0:0:0:0:
192,284,195399,6,0,L|256:256,2,64.9999952316285
152,224,196113,2,0,L|336:144,1,194.999985694886,2|0,0:0|0:0,0:0:0:0:
344,216,197065,2,0,P|272:192|304:80,1,194.999985694886
328,148,198018,2,0,L|136:232,1,194.999985694886,2|8,0:0|0:0,0:0:0:0:
120,160,198970,5,0,0:0:0:0:
72,216,199208,2,0,P|80:256|108:280,1,64.9999952316285,8|0,0:0|0:0,0:0:0:0:
80,344,199684,2,0,P|24:304|0:228,2,129.999990463257,8|8|8,0:0|0:0|0:0,0:0:0:0:
96,276,200875,1,0,0:0:0:0:
148,324,201113,2,0,P|168:288|164:248,1,64.9999952316285,8|0,0:0|0:0,0:0:0:0:
228,224,201589,2,0,P|240:256|220:352,2,129.999990463257,8|8|8,0:0|0:0|0:0,0:0:0:0:
340,132,203018,6,0,L|392:188,1,64.9999952316285,8|0,0:0|0:0,0:0:0:0:
376,252,203494,1,8,0:0:0:0:
312,216,203732,2,0,L|184:64,1,194.999985694886,0|8,0:0|0:0,0:0:0:0:
252,36,204684,2,0,P|240:120|136:120,1,194.999985694886,0|8,0:0|0:0,0:0:0:0:
188,68,205637,2,0,P|97:70|80:159,1,194.999985694886,0|8,0:0|0:0,0:0:0:0:
88,232,206589,5,0,0:0:0:0:
148,192,206827,2,0,P|160:228|148:268,1,64.9999952316285,8|0,0:0|0:0,0:0:0:0:
192,316,207303,2,0,P|228:268|224:192,2,129.999990463257,8|8|8,0:0|0:0|0:0,0:0:0:0:
120,316,208494,1,0,0:0:0:0:
155,253,208732,2,0,P|159:222|148:192,1,64.9999952316285,8|0,0:0|0:0,0:0:0:0:
84,220,209208,2,0,P|84:156|144:124,1,129.999990463257,8|8,0:0|0:0,0:0:0:0:
192,80,209922,6,0,P|240:88|272:108,2,64.9999952316285,8|8|8,0:0|0:0|0:0,0:0:0:0:
136,124,210637,1,8,0:0:0:0:
152,192,210875,2,0,P|200:184|232:164,2,64.9999952316285,8|8|8,0:0|0:0|0:0,0:0:0:0:
84,220,211589,6,0,L|72:252,12,32.4999976158143,8|8|8|8|8|8|8|8|8|8|8|8|0,0:0|0:0|0:0|0:0|0:0|0:0|0:0|0:0|0:0|0:0|0:0|0:0|0:0,0:0:0:0:
268,324,213494,6,0,P|336:288|364:240,3,129.999990463257,4|0|0|8,0:0|0:0|0:0|0:0,0:0:0:0:
412,192,215160,1,2,1:0:0:0:
362,139,215399,2,0,P|326:86|268:60,3,129.999990463257,0|0|0|8,0:0|0:0|0:0|0:0,0:0:0:0:
196,60,217065,1,2,1:0:0:0:
156,120,217303,2,0,P|140:182|158:243,3,129.999990463257,0|0|0|8,0:0|0:0|0:0|0:0,0:0:0:0:
100,288,218970,1,2,1:0:0:0:
96,360,219208,2,0,B|144:372|176:328|176:328|228:312,3,129.999990463257,0|0|0|8,0:0|0:0|0:0|0:0,0:0:0:0:
256,260,220875,1,2,1:0:0:0:
299,316,221113,6,0,B|336:328|336:328|368:372|416:360,3,129.999990463257,4|0|0|8,0:0|0:0|0:0|0:0,0:0:0:0:
408,288,222780,1,2,1:0:0:0:
472,256,223018,2,0,P|424:216|344:248,3,129.999990463257,0|0|0|8,0:0|0:0|0:0|0:0,0:0:0:0:
300,192,224684,1,2,1:0:0:0:
240,152,224922,2,0,P|192:192|112:160,3,129.999990463257,0|0|0|8,0:0|0:0|0:0|0:0,0:0:0:0:
172,120,226589,6,0,P|100:112|68:216,1,194.999985694886,2|0,1:0|0:0,0:0:0:0:
120,260,227541,2,0,P|216:268|296:212,1,194.999985694886
256,192,228732,12,0,230399,0:0:0:0:
