osu file format v13

[General]
AudioFilename: what's your job.mp3
AudioLeadIn: 0
PreviewTime: 75927
Countdown: 1
SampleSet: Soft
StackLeniency: 0.7
Mode: 0
LetterboxInBreaks: 1
WidescreenStoryboard: 1

[Editor]
DistanceSpacing: 0.9
BeatDivisor: 4
GridSize: 16
TimelineZoom: 2

[Metadata]
Title:Play Hard
TitleUnicode:Play Hard
Artist:David Guetta ft. Ne-Yo and Akon
ArtistUnicode:David Guetta ft. Ne-Yo and Akon
Creator:Tuxxy
Version:Play Normal
Source:
Tags:alice deejay cover
BeatmapID:532381
BeatmapSetID:228055

[Difficulty]
HPDrainRate:4
CircleSize:3
OverallDifficulty:5
ApproachRate:4
SliderMultiplier:0.7
SliderTickRate:1

[Events]
//Background and Video events
0,0,"bg.jpg",0,0
//Break Periods
2,151819,156530
//Storyboard Layer 0 (Background)
//Storyboard Layer 1 (Fail)
//Storyboard Layer 2 (Pass)
//Storyboard Layer 3 (Foreground)
//Storyboard Sound Samples
//Background Colour Transformations
3,100,163,162,255

[TimingPoints]
234.727272727273,461.538461538462,4,2,0,50,1,0
14542,-80,4,1,0,75,0,0
44542,-100,4,2,0,75,0,0
75927,-66.6666666666667,4,1,0,75,0,1
88850,-66.6666666666667,4,2,0,75,0,1
90696,-80,4,1,0,75,0,0
111003,-80,4,2,0,75,0,0
112850,-80,4,1,0,75,0,0
122080,-100,4,2,0,75,0,0
159003,-66.6666666666667,4,1,0,75,0,1
188542,-100,4,2,0,75,0,0

[HitObjects]
112,96,234,6,0,P|160:64|176:64,2,70,0|8|0,0:0|0:0|0:0,0:0:0:0:
64,144,1619,1,8,0:0:0:0:
80,208,2080,2,0,P|112:240|144:256,1,70,0|8,0:0|0:0,0:0:0:0:
192,208,3003,2,0,L|192:256,2,35,0|0|8,0:0|0:0|0:0,0:0:0:0:
208,144,3927,6,0,L|256:80,2,70,0|8|0,0:0|0:0|0:0,0:0:0:0:
192,208,5311,1,8,0:0:0:0:
128,208,5773,2,0,L|80:208,2,35,0|0|8,0:0|0:0|0:0,0:0:0:0:
176,160,6696,2,0,P|224:160|240:144,1,70,0|8,0:0|0:0,0:0:0:0:
272,96,7619,6,0,P|288:80|336:64,2,70,0|8|0,0:0|0:0|0:0,0:0:0:0:
208,128,9003,1,8,0:0:0:0:
224,192,9465,2,0,L|176:256,1,70,0|8,0:0|0:0,0:0:0:0:
224,192,10388,2,0,L|272:256,1,70,0|8,0:0|0:0,0:0:0:0:
256,192,11311,12,8,14542,0:0:0:0:
160,128,15003,5,0,0:0:0:0:
160,128,15234,1,0,0:0:0:0:
160,128,15465,1,8,0:0:0:0:
272,96,15927,2,0,P|304:80|368:96,1,87.5,0|8,0:0|0:0,0:0:0:0:
400,192,16850,6,0,L|400:240,2,43.75,0|0|8,0:0|0:0|0:0,0:0:0:0:
304,192,17773,2,0,L|304:144,2,43.75,0|0|8,0:0|0:0|0:0,0:0:0:0:
208,192,18696,6,0,P|144:192|128:160,1,87.5,0|8,0:0|0:0,0:0:0:0:
192,112,19619,1,0,0:0:0:0:
192,112,19850,1,0,0:0:0:0:
192,112,20080,1,8,0:0:0:0:
288,112,20542,6,0,L|336:112,2,43.75,0|0|8,0:0|0:0|0:0,0:0:0:0:
400,112,21465,2,8,L|400:208,1,87.5,0|8,0:0|0:0,0:0:0:0:
320,192,22388,6,0,B|272:208|272:208|224:176,1,87.5,0|8,0:0|0:0,0:0:0:0:
160,192,23311,1,0,0:0:0:0:
160,192,23542,1,0,0:0:0:0:
160,192,23773,1,8,0:0:0:0:
112,128,24234,6,0,L|144:112|208:80,1,87.5,0|8,0:0|0:0,0:0:0:0:
160,192,25157,1,0,0:0:0:0:
160,192,25388,1,0,0:0:0:0:
160,192,25619,1,8,0:0:0:0:
176,112,26080,6,0,L|272:112,1,87.5,0|8,0:0|0:0,0:0:0:0:
256,192,27003,2,0,L|208:192,2,43.75,0|0|8,0:0|0:0|0:0,0:0:0:0:
336,192,27927,6,0,P|352:160|208:64,1,262.5,0|8,0:0|0:0,0:0:0:0:
128,48,29773,6,0,P|128:80|80:112,2,87.5,0|8|0,0:0|0:0|0:0,0:0:0:0:
208,48,31157,1,8,0:0:0:0:
288,48,31619,2,0,P|304:96|352:112,2,87.5,0|8|0,0:0|0:0|0:0,0:0:0:0:
256,208,33465,6,0,L|256:112,1,87.5,0|8,0:0|0:0,0:0:0:0:
176,144,34388,1,0,0:0:0:0:
176,144,34619,1,0,0:0:0:0:
176,144,34850,1,8,0:0:0:0:
96,176,35311,2,0,P|96:224|128:256,1,87.5,0|2,0:0|0:0,0:0:0:0:
192,240,36234,2,0,P|224:224|240:176,1,87.5,2|0,0:0|0:0,0:0:0:0:
176,144,37157,6,0,L|80:144,1,87.5,0|8,0:0|0:0,0:0:0:0:
112,64,38080,1,0,0:0:0:0:
112,64,38311,1,0,0:0:0:0:
112,64,38542,1,8,0:0:0:0:
192,64,39003,6,8,L|288:64,1,87.5,0|8,0:0|0:0,0:0:0:0:
352,64,39927,2,0,L|416:64,2,43.75,0|0|8,0:0|0:0|0:0,0:0:0:0:
288,112,40850,6,0,L|288:160,2,43.75,0|0|8,0:0|0:0|0:0,0:0:0:0:
208,112,41773,1,0,0:0:0:0:
208,112,42003,1,0,0:0:0:0:
208,112,42234,1,8,0:0:0:0:
128,112,42696,2,0,P|112:80|64:48,1,87.5
32,128,43619,1,0,0:0:0:0:
32,160,43850,1,0,0:0:0:0:
32,192,44080,1,8,0:0:0:0:
112,192,44542,5,6,0:0:0:0:
272,192,45465,5,8,0:0:0:0:
432,192,46388,6,0,P|448:144|384:80,2,140,0|8|0,0:0|0:0|0:0,0:0:0:0:
352,192,48696,1,8,0:0:0:0:
272,192,49157,1,0,0:0:0:0:
192,192,49619,2,0,P|192:144|384:80,1,280,4|8,0:0|0:0,0:0:0:0:
352,144,51927,5,0,0:0:0:0:
352,144,52157,1,0,0:0:0:0:
352,144,52388,1,8,0:0:0:0:
288,192,52850,1,0,0:0:0:0:
288,192,53080,1,0,0:0:0:0:
288,192,53311,2,0,P|224:256|160:128,1,280,8|8,0:0|0:0,0:0:0:0:
272,96,55619,5,0,0:0:0:0:
352,96,56080,1,8,0:0:0:0:
320,176,56542,1,0,0:0:0:0:
320,176,56773,1,0,0:0:0:0:
304,208,57003,2,0,B|176:320|176:320|128:208,1,280,4|8,0:0|0:0,0:0:0:0:
256,192,59311,12,4,61157,0:0:0:0:
128,192,61619,5,8,0:0:0:0:
176,128,62080,1,0,0:0:0:0:
224,192,62542,1,8,0:0:0:0:
272,128,63003,1,0,0:0:0:0:
320,192,63465,1,8,0:0:0:0:
368,128,63927,1,0,0:0:0:0:
416,192,64388,1,8,0:0:0:0:
368,256,64850,6,0,L|304:288|304:288,1,70,0|8,0:0|0:0,0:0:0:0:
240,224,65773,2,0,L|272:208|304:192,1,70,0|8,0:0|0:0,0:0:0:0:
320,96,66696,5,0,0:0:0:0:
320,96,66927,1,0,0:0:0:0:
320,96,67157,1,8,0:0:0:0:
240,96,67619,2,0,P|176:112|160:112,1,70,0|8,0:0|0:0,0:0:0:0:
80,128,68542,6,0,L|32:192|32:192,1,70,0|8,0:0|0:0,0:0:0:0:
112,208,69465,2,0,P|96:256|96:288,1,70,0|8,0:0|0:0,0:0:0:0:
160,256,70388,2,0,L|240:256,1,70,0|8,0:0|0:0,0:0:0:0:
288,208,71311,1,0,0:0:0:0:
288,208,71542,1,0,0:0:0:0:
288,208,71773,1,8,0:0:0:0:
256,192,72234,12,8,75465,0:0:0:0:
96,192,75927,6,0,L|96:128|96:80,2,105.000004005432,0|8|0,0:0|0:0|0:0,0:0:0:0:
192,192,77311,1,8,0:0:0:0:
192,192,77542,1,0,0:0:0:0:
192,192,77773,2,0,L|192:320,2,105.000004005432,0|8|0,0:0|0:0|0:0,0:0:0:0:
96,192,79157,1,8,0:0:0:0:
48,112,79619,6,0,P|80:80|144:96,1,105.000004005432,0|8,0:0|0:0,0:0:0:0:
176,176,80542,1,0,0:0:0:0:
176,176,80773,1,0,0:0:0:0:
176,176,81003,1,8,0:0:0:0:
272,176,81465,6,0,P|320:208|384:208,2,105.000004005432,0|8|0,0:0|0:0|0:0,0:0:0:0:
192,128,82850,1,8,0:0:0:0:
96,128,83311,6,0,P|112:80|176:48,1,105.000004005432,0|8,0:0|0:0,0:0:0:0:
155,50,84003,1,0,0:0:0:0:
155,50,84234,1,0,0:0:0:0:
256,48,84696,1,8,0:0:0:0:
352,48,85157,6,0,P|416:112|416:144,1,105.000004005432,0|8,0:0|0:0,0:0:0:0:
417,121,85850,1,0,0:0:0:0:
417,121,86080,1,0,0:0:0:0:
320,128,86542,1,8,0:0:0:0:
240,176,87003,6,0,L|240:240,2,52.5000020027161,0|0|8,0:0|0:0|0:0,0:0:0:0:
192,96,87927,1,0,0:0:0:0:
192,96,88157,1,0,0:0:0:0:
192,96,88388,1,8,0:0:0:0:
144,176,88850,6,0,P|192:240|384:176,1,315.000012016297,4|8,0:0|0:0,0:0:0:0:
384,112,90696,5,0,0:0:0:0:
352,112,90927,1,0,0:0:0:0:
320,112,91157,1,8,0:0:0:0:
256,112,91619,2,0,L|160:144|160:144,1,87.5,0|8,0:0|0:0,0:0:0:0:
176,208,92542,5,0,0:0:0:0:
208,208,92773,1,0,0:0:0:0:
240,208,93003,1,8,0:0:0:0:
304,208,93465,2,8,P|336:192|368:144,1,87.5,8|8,0:0|0:0,0:0:0:0:
432,224,94388,6,0,L|432:160,2,43.75,0|0|8,0:0|0:0|0:0,0:0:0:0:
384,272,95311,2,0,P|336:288|304:320,1,87.5,0|8,0:0|0:0,0:0:0:0:
256,272,96234,5,0,0:0:0:0:
256,272,96465,1,0,0:0:0:0:
256,272,96696,1,8,0:0:0:0:
208,224,97157,2,0,L|256:144,1,87.5,0|8,0:0|0:0,0:0:0:0:
144,128,98080,6,0,P|176:112|240:112,1,87.5,0|8,0:0|0:0,0:0:0:0:
240,48,99003,1,0,0:0:0:0:
240,48,99234,1,0,0:0:0:0:
240,48,99465,1,8,0:0:0:0:
240,48,99696,1,0,0:0:0:0:
240,48,99927,2,0,L|304:128,2,87.5,0|8|4,0:0|0:0|0:0,0:0:0:0:
144,112,101773,6,0,L|144:208,1,87.5,0|8,0:0|0:0,0:0:0:0:
192,240,102696,2,0,L|256:304,1,87.5,0|8,0:0|0:0,0:0:0:0:
304,240,103619,6,2,L|400:240,3,87.5,0|0|0|0,0:0|0:0|0:0|0:0,0:0:0:0:
416,192,105465,5,0,0:0:0:0:
384,128,105927,1,8,0:0:0:0:
352,80,106388,2,0,L|416:80,2,43.75,8|0|8,0:0|0:0|0:0,0:0:0:0:
304,128,107311,6,0,L|224:176,1,87.5,0|8,0:0|0:0,0:0:0:0:
208,96,108234,2,0,L|144:96,2,43.75,0|0|8,0:0|0:0|0:0,0:0:0:0:
224,160,109157,6,0,L|224:256,2,87.5,0|8|0,0:0|0:0|0:0,0:0:0:0:
288,160,110542,1,8,0:0:0:0:
288,96,111003,6,0,L|288:32,2,43.75,0|0|8,0:0|0:0|0:0,0:0:0:0:
288,160,111927,2,0,L|288:224,2,43.75,0|0|8,0:0|0:0|0:0,0:0:0:0:
224,160,112850,6,0,L|224:64,2,87.5,0|8|0,0:0|0:0|0:0,0:0:0:0:
224,224,114234,1,8,0:0:0:0:
224,160,114696,5,0,0:0:0:0:
224,160,114927,1,0,0:0:0:0:
224,160,115157,1,8,0:0:0:0:
160,160,115619,2,8,L|160:256,1,87.5,0|8,0:0|0:0,0:0:0:0:
160,160,116542,6,0,L|160:96,2,43.75,0|0|8,0:0|0:0|0:0,0:0:0:0:
160,160,117465,2,0,L|160:224,2,43.75,0|0|8,0:0|0:0|0:0,0:0:0:0:
256,192,118388,12,4,120234,0:0:0:0:
128,192,122080,6,0,P|160:128|224:96,2,140,0|8|0,0:0|0:0|0:0,0:0:0:0:
176,240,124388,1,8,0:0:0:0:
240,208,124850,1,0,0:0:0:0:
240,208,125080,1,0,0:0:0:0:
240,208,125311,2,0,P|304:240|320:96,1,280,4|8,0:0|0:0,0:0:0:0:
256,80,127619,5,0,0:0:0:0:
256,80,127850,1,0,0:0:0:0:
256,80,128080,1,8,0:0:0:0:
208,128,128542,1,0,0:0:0:0:
208,128,128773,1,0,0:0:0:0:
208,128,129003,2,0,P|208:192|368:176,1,280,8|8,0:0|0:0,0:0:0:0:
336,128,131311,6,0,L|336:80,2,35,0|0|8,0:0|0:0|0:0,0:0:0:0:
272,128,132234,1,0,0:0:0:0:
208,128,132696,2,4,P|128:160|208:288,1,280,4|8,0:0|0:0,0:0:0:0:
256,192,135003,12,4,136388,0:0:0:0:
64,192,136850,6,0,L|64:160|64:112,1,70,0|8,0:0|0:0,0:0:0:0:
112,160,137773,2,0,L|112:240,1,70,0|8,0:0|0:0,0:0:0:0:
160,192,138696,2,0,L|160:112,3,70,0|8|0|8,0:0|0:0|0:0|0:0,0:0:0:0:
208,96,140542,6,0,L|288:96,1,70,0|8,0:0|0:0,0:0:0:0:
240,144,141465,2,0,L|320:144,1,70,0|8,0:0|0:0,0:0:0:0:
320,208,142388,2,0,L|240:208,3,70,0|8|0|8,0:0|0:0|0:0|0:0,0:0:0:0:
160,192,144234,5,0,0:0:0:0:
160,192,144465,1,0,0:0:0:0:
160,192,144696,1,8,0:0:0:0:
208,240,145157,1,0,0:0:0:0:
208,240,145388,1,0,0:0:0:0:
208,240,145619,1,8,0:0:0:0:
256,192,146080,1,0,0:0:0:0:
256,192,146311,1,0,0:0:0:0:
256,192,146542,1,8,0:0:0:0:
304,240,147003,1,0,0:0:0:0:
304,240,147234,1,0,0:0:0:0:
304,240,147465,1,8,0:0:0:0:
256,192,147927,12,2,151619,0:0:0:0:
256,192,157850,5,2,0:0:0:0:
256,192,158080,2,0,L|192:192,2,52.5,8|8|8,0:0|0:0|0:0,0:0:0:0:
304,192,159003,6,0,P|336:160|336:80,2,105.000004005432,0|8|0,0:0|0:0|0:0,0:0:0:0:
240,256,160388,1,8,0:0:0:0:
200,240,160619,1,0,0:0:0:0:
192,192,160850,2,0,L|192:128,2,52.5000020027161,0|0|8,0:0|0:0|0:0,0:0:0:0:
272,160,161773,2,0,L|272:96,2,52.5000020027161,0|0|8,0:0|0:0|0:0,0:0:0:0:
208,96,162696,6,8,P|176:80|96:64,1,105.000004005432,0|8,0:0|0:0,0:0:0:0:
96,112,163388,2,0,P|112:144|176:176,2,105.000004005432,0|8|0,0:0|0:0|0:0,0:0:0:0:
64,144,164542,2,0,L|64:256,1,105.000004005432,0|8,0:0|0:0,0:0:0:0:
144,192,165465,1,0,0:0:0:0:
144,192,165696,1,0,0:0:0:0:
144,192,165927,1,8,0:0:0:0:
240,192,166388,6,0,P|256:128|304:112,1,105.000004005432,0|8,0:0|0:0,0:0:0:0:
336,192,167311,1,0,0:0:0:0:
336,192,167542,1,0,0:0:0:0:
336,192,167773,1,8,0:0:0:0:
288,272,168234,2,0,L|352:272,2,52.5000020027161,0|0|8,0:0|0:0|0:0,0:0:0:0:
208,304,169157,1,0,0:0:0:0:
160,320,169388,1,0,0:0:0:0:
144,272,169619,2,0,P|112:256|80:176,1,105.000004005432,8|0,0:0|0:0,0:0:0:0:
176,192,170542,5,8,0:0:0:0:
272,192,171003,2,0,L|272:128,2,52.5000020027161,0|0|8,0:0|0:0|0:0,0:0:0:0:
368,192,171927,2,0,P|384:256|416:288,2,105.000004005432,0|8|0,0:0|0:0|0:0,0:0:0:0:
368,96,173311,1,8,0:0:0:0:
272,80,173773,6,0,P|224:64|160:64,1,105.000004005432,0|8,0:0|0:0,0:0:0:0:
128,96,174696,1,0,0:0:0:0:
128,96,174927,1,0,0:0:0:0:
128,96,175157,1,8,0:0:0:0:
48,160,175619,6,0,P|96:192|144:208,1,105.000004005432,0|8,0:0|0:0,0:0:0:0:
224,176,176542,1,0,0:0:0:0:
224,176,176773,1,0,0:0:0:0:
224,176,177003,1,8,0:0:0:0:
320,176,177465,6,0,L|320:64,2,105.000004005432,0|8|0,0:0|0:0|0:0,0:0:0:0:
320,224,178619,1,0,0:0:0:0:
320,224,178850,1,8,0:0:0:0:
224,208,179311,6,0,L|224:272,2,52.5000020027161,0|0|8,0:0|0:0|0:0,0:0:0:0:
160,144,180234,2,0,P|224:128|272:128,1,105.000004005432,0|8,0:0|0:0,0:0:0:0:
352,144,181157,6,0,P|368:176|432:224,2,105.000004005432,0|8|0,0:0|0:0|0:0,0:0:0:0:
256,144,182542,1,8,0:0:0:0:
160,144,183003,2,0,L|160:80,2,52.5000020027161,0|0|8,0:0|0:0|0:0,0:0:0:0:
64,144,183927,2,0,P|48:208|80:240,1,105.000004005432,0|8,0:0|0:0,0:0:0:0:
144,192,184850,6,0,L|144:128,2,52.5000020027161,0|0|8,0:0|0:0|0:0,0:0:0:0:
240,192,185773,1,0,0:0:0:0:
240,192,186003,1,0,0:0:0:0:
240,192,186234,1,8,0:0:0:0:
320,144,186696,6,0,L|384:144,3,52.5000020027161,0|0|8|0,0:0|0:0|0:0|0:0,0:0:0:0:
352,192,187619,2,0,L|416:192,2,52.5000020027161,0|0|8,0:0|0:0|0:0,0:0:0:0:
256,192,188542,5,4,0:0:0:0:
