osu file format v12

[General]
AudioFilename: 04 Memories.mp3
AudioLeadIn: 2000
PreviewTime: 44687
Countdown: 0
SampleSet: Normal
StackLeniency: 0.7
Mode: 0
LetterboxInBreaks: 0
WidescreenStoryboard: 0

[Editor]
DistanceSpacing: 1
BeatDivisor: 4
GridSize: 4

[Metadata]
Title:Memories
TitleUnicode:Memories
Artist:David Guetta ft. Kid Cudi
ArtistUnicode:David Guetta ft. Kid Cudi
Creator:mancuso_JM_
Version:Normal
Source:
Tags:One Love mancusojuanmattos
BeatmapID:307947
BeatmapSetID:119977

[Difficulty]
HPDrainRate:3
CircleSize:4
OverallDifficulty:4
ApproachRate:5
SliderMultiplier:1.4
SliderTickRate:1

[Events]
//Background and Video events
0,0,"david_guetta_.jpg",0,0
//Break Periods
2,74426,87795
2,148272,161641
//Storyboard Layer 0 (Background)
//Storyboard Layer 1 (Fail)
//Storyboard Layer 2 (Pass)
//Storyboard Layer 3 (Foreground)
//Storyboard Sound Samples
//Background Colour Transformations
3,100,163,162,255

[TimingPoints]
380,461.538461538462,4,1,0,70,1,0
29918,-100,4,1,0,45,0,0
44687,-100,4,1,0,70,0,1
44803,-100,4,1,0,70,0,0
46533,-100,4,1,0,70,0,1
74226,-100,4,1,0,45,0,0
88995,-100,4,1,0,55,0,0
103764,-100,4,1,0,70,0,0
118533,-100,4,1,0,70,0,1
118649,-100,4,1,0,70,0,0
120380,-100,4,1,0,70,0,1
148072,-100,4,1,0,70,0,0
177610,-100,4,1,0,70,0,1
177726,-100,4,1,0,70,0,0
179456,-100,4,1,0,70,0,1
205303,-100,4,1,0,70,0,0
206226,-100,4,1,0,60,0,0
206687,-100,4,1,0,45,0,0
207149,-100,4,1,0,30,0,0
207610,-100,4,1,0,15,0,0
208072,-100,4,2,0,5,0,0

[HitObjects]
192,260,380,2,0,P|256:284|320:260,1,140,0|8,0:0|0:0,0:0:0:0:
320,124,1303,2,0,P|255:100|191:124,1,140,0|8,0:0|0:0,0:0:0:0:
76,204,2226,2,0,L|68:273,2,70,0|0|8,0:0|0:0|0:0,0:0:0:0:
64,64,3149,2,0,P|131:52|194:82,1,140,0|8,0:0|0:0,0:0:0:0:
256,208,4072,6,0,B|244:256|256:276|268:296|256:346,2,140,0|8|0,0:0|0:0|0:0,0:0:0:0:
317,82,5456,2,0,P|380:52|448:64,1,140,8|0,0:0|0:0,0:0:0:0:
488,200,6380,1,8,0:0:0:0:
448,336,6841,2,0,L|378:328,1,70
360,260,7303,1,8,0:0:0:0:
232,216,7764,6,0,P|171:248|103:239,1,140,0|8,0:0|0:0,0:0:0:0:
80,100,8687,2,0,P|140:67|208:76,1,140,0|8,0:0|0:0,0:0:0:0:
336,132,9610,1,0,0:0:0:0:
464,76,10072,1,8,0:0:0:0:
479,215,10533,2,0,P|485:284|445:340,1,140,0|8,0:0|0:0,0:0:0:0:
304,324,11456,6,0,P|236:308|171:332,1,140,0|8,0:0|0:0,0:0:0:0:
36,360,12380,2,0,L|24:220,1,140,0|8,0:0|0:0,0:0:0:0:
256,60,13764,1,8,0:0:0:0:
440,268,14687,2,0,L|402:327,1,70,8|0,0:0|0:0,0:0:0:0:
332,328,15149,5,0,0:0:0:0:
192,332,15610,2,0,P|158:340|123:339,1,70,8|0,0:0|0:0,0:0:0:0:
71,291,16072,2,0,P|47:226|52:157,1,140,2|8,0:2|0:0,0:0:0:0:
172,84,16995,2,0,P|196:149|191:218,1,140,2|8,0:2|0:0,0:0:0:0:
208,356,17918,2,0,L|276:344,1,70,2|2,0:2|0:2,0:0:0:0:
299,275,18380,2,0,P|368:284|430:254,1,140,8|2,0:0|0:2,0:0:0:0:
480,124,19303,6,0,L|445:62,1,70,8|0,0:0|0:0,0:0:0:0:
383,32,19764,2,0,B|344:48|344:48|304:20|251:35,1,140,2|8,0:2|0:0,0:0:0:0:
116,68,20687,2,0,L|104:136,1,70,2|0,0:2|0:0,0:0:0:0:
128,204,21149,2,0,P|195:187|257:216,1,140,8|2,0:0|0:2,0:0:0:0:
308,348,22072,1,8,0:0:0:0:
447,339,22533,6,0,P|428:273|436:204,1,140,0|8,0:0|0:0,0:0:0:0:
464,136,23226,1,0,0:0:0:0:
392,140,23456,2,0,P|322:148|256:128,1,140,0|8,0:0|0:0,0:0:0:0:
124,88,24380,1,2,0:2:0:0:
56,212,24841,1,8,0:0:0:0:
152,312,25303,2,0,B|192:340|228:332|248:304|256:268|256:268|264:304|284:332|320:340|360:312,1,280,2|0,0:2|0:0,0:0:0:0:
444,200,26687,6,0,P|436:166|439:131,1,70,8|0,0:0|0:0,0:0:0:0:
392,76,27149,2,0,P|325:96|257:84,1,140,2|8,0:2|0:0,0:0:0:0:
116,80,28072,2,0,P|119:114|111:148,1,70,2|0,0:2|0:0,0:0:0:0:
48,179,28533,2,0,P|31:247|48:314,1,140,8|2,0:0|0:2,0:0:0:0:
184,352,29456,1,8,0:0:0:0:
328,352,29918,5,0,0:0:0:0:
440,267,30380,2,0,P|451:199|435:131,1,140,8|0,0:0|0:0,0:0:0:0:
308,76,31303,2,0,L|238:68,1,70,8|0,0:0|0:0,0:0:0:0:
204,128,31764,2,0,P|227:193|215:261,2,140,2|8|2,0:2|0:0|0:2,0:0:0:0:
64,116,33149,1,8,0:0:0:0:
4,244,33610,5,2,0:2:0:0:
83,359,34072,2,0,P|152:365|209:327,1,140,8|2,0:0|0:2,0:0:0:0:
256,196,34995,1,8,0:0:0:0:
302,327,35456,2,0,P|359:365|428:359,1,140,2|8,0:2|0:0,0:0:0:0:
488,232,36380,2,0,L|495:162,1,70
454,104,36841,2,0,B|416:104|416:104|376:136|320:117,1,140,8|2,0:0|0:2,0:0:0:0:
187,75,37764,6,0,P|119:74|64:115,1,140,8|0,0:0|0:0,0:0:0:0:
108,248,38687,1,8,0:0:0:0:
108,248,39149,2,0,P|176:249|231:208,2,140,2|8|2,0:2|0:0|0:2,0:0:0:0:
52,120,40533,1,8,0:0:0:0:
160,28,40995,5,2,0:2:0:0:
256,128,41456,1,8,0:0:0:0:
352,28,41918,2,0,P|385:40|420:38,1,70,2|0,0:2|0:0,0:0:0:0:
488,56,42380,2,0,L|484:196,1,140,8|0,0:0|0:0,0:0:0:0:
496,336,43303,2,0,P|461:332|426:335,1,70,8|0,0:0|0:0,0:0:0:0:
360,360,43764,2,0,P|296:376|224:360,1,140,2|8,0:2|0:0,0:0:0:0:
112,280,44687,5,4,0:0:0:0:
28,168,45149,2,0,P|15:99|25:30,2,140,8|2|8,0:0|0:2|0:0,0:0:0:0:
164,192,46533,6,0,L|236:172,1,70,2|2,0:2|0:2,0:0:0:0:
284,228,46995,2,0,L|149:267,2,140,8|2|8,0:0|0:2|0:0,0:0:0:0:
384,124,48380,1,4,0:0:0:0:
444,252,48841,1,8,0:0:0:0:
320,316,49303,2,0,B|284:324|256:344|256:344|228:324|192:316,1,140,2|8,0:2|0:0,0:0:0:0:
128,192,50226,6,0,P|132:157|125:123,1,70,2|2,0:2|0:2,0:0:0:0:
68,80,50687,2,0,L|206:61,1,140,8|2,0:0|0:2,0:0:0:0:
344,92,51610,1,8,0:0:0:0:
464,160,52072,1,4,0:0:0:0:
412,292,52533,1,8,0:0:0:0:
412,292,52764,2,0,P|344:275|280:300,1,140,2|2,0:2|0:2,0:0:0:0:
232,352,53456,1,8,0:0:0:0:
96,315,53918,6,0,P|96:281|88:246,1,70,2|2,0:2|0:2,0:0:0:0:
28,208,54380,2,0,P|16:139|25:70,1,140,8|2,0:0|0:2,0:0:0:0:
160,32,55303,2,0,L|229:24,1,70,8|0,0:0|0:0,0:0:0:0:
288,64,55764,1,4,0:0:0:0:
424,40,56226,2,0,P|444:106|432:174,2,140,8|2|8,0:0|0:2|0:0,0:0:0:0:
288,64,57610,6,0,P|284:100|292:140,2,70,2|2|8,0:2|0:2|0:0,0:0:0:0:
424,40,58533,2,0,P|444:106|432:174,1,140,2|8,0:2|0:0,0:0:0:0:
360,296,59456,1,4,0:0:0:0:
228,344,59918,2,0,P|193:339|159:346,1,70,8|0,0:0|0:0,0:0:0:0:
100,308,60380,2,0,P|113:239|97:172,1,140,2|8,0:2|0:0,0:0:0:0:
116,32,61303,6,0,L|185:25,1,70,2|2,0:2|0:2,0:0:0:0:
228,80,61764,2,0,L|297:73,1,70,8|0,0:0|0:0,0:0:0:0:
368,80,62226,2,0,P|360:149|378:216,1,140,2|8,0:2|0:0,0:0:0:0:
428,348,63149,2,0,P|359:340|292:358,1,140,4|8,0:0|0:0,0:0:0:0:
220,358,63841,2,0,P|153:340|84:348,1,140,2|2,0:2|0:2,0:0:0:0:
16,328,64533,1,8,0:0:0:0:
16,188,64995,6,0,P|8:118|24:51,1,140,2|8,0:2|0:0,0:0:0:0:
88,20,65687,1,0,0:0:0:0:
152,51,65918,2,0,P|168:119|160:188,1,140,2|8,0:2|0:0,0:0:0:0:
200,324,66841,2,0,L|269:317,2,70,4|0|8,0:0|0:0|0:0,0:0:0:0:
168,260,67533,2,0,L|312:244,1,140,2|2,0:2|0:2,0:0:0:0:
368,280,68226,1,8,0:0:0:0:
452,172,68687,6,0,B|412:148|360:172|360:172|333:137,1,140,2|8,0:2|0:0,0:0:0:0:
256,20,69610,1,2,0:2:0:0:
178,137,70072,2,0,B|152:172|152:172|100:148|60:172,1,140,8|4,0:0|0:0,0:0:0:0:
16,304,70995,1,8,0:0:0:0:
16,304,71226,2,0,P|80:328|144:303,1,140,2|2,0:2|0:2,0:0:0:0:
193,254,71918,2,0,P|257:229|321:253,1,140,8|0,0:0|0:0,0:0:0:0:
456,284,72841,6,0,P|460:249|454:214,1,70,8|0,0:0|0:0,0:0:0:0:
384,200,73303,2,0,P|372:131|391:64,2,140,2|8|2,0:2|0:0|0:2,0:0:0:0:
64,204,88995,5,2,0:2:0:0:
191,147,89456,2,0,P|226:151|260:145,1,70,8|0,0:0|0:0,0:0:0:0:
311,96,89918,2,0,P|379:79|447:95,1,140,2|8,0:2|0:0,0:0:0:0:
447,235,90841,2,0,P|379:250|311:234,2,140,2|8|2,0:2|0:0|0:2,0:0:0:0:
500,364,92226,2,0,P|468:379|433:381,1,70,8|0,0:0|0:0,0:0:0:0:
376,344,92687,1,2,0:2:0:0:
240,308,93149,6,0,P|205:303|170:308,1,70,8|0,0:0|0:0,0:0:0:0:
99,303,93610,2,0,P|88:235|95:165,1,140,2|8,0:2|0:0,0:0:0:0:
236,168,94533,2,0,P|243:98|232:29,2,140,2|8|2,0:2|0:0|0:2,0:0:0:0:
252,308,95918,2,0,L|321:304,1,70,8|0,0:0|0:0,0:0:0:0:
380,264,96380,1,2,0:2:0:0:
492,180,96841,5,8,0:0:0:0:
496,112,97072,1,0,0:0:0:0:
460,52,97303,2,0,P|392:36|326:55,1,140,2|8,0:2|0:0,0:0:0:0:
185,55,98226,2,0,P|119:36|52:52,1,140,2|8,0:2|0:0,0:0:0:0:
52,192,99149,2,0,P|118:211|185:195,1,140,2|8,0:2|0:0,0:0:0:0:
240,148,99841,1,0,0:0:0:0:
272,84,100072,5,2,0:2:0:0:
408,47,100533,2,0,P|400:117|413:185,1,140,8|2,0:0|0:2,0:0:0:0:
496,300,101456,1,8,0:0:0:0:
356,292,101918,2,0,B|308:272|268:296|268:296|222:278,2,140,2|8|2,0:2|0:0|0:2,0:0:0:0:
496,300,103303,1,8,0:0:0:0:
512,164,103764,5,4,0:0:0:0:
448,40,104226,2,0,B|404:68|364:52|364:52|320:80,1,140,8|2,0:0|0:2,0:0:0:0:
256,204,105149,1,8,0:0:0:0:
192,80,105610,2,0,B|148:52|148:52|108:68|64:40,1,140,2|8,0:2|0:0,0:0:0:0:
4,168,106533,2,0,L|12:240,1,70,2|2,0:2|0:2,0:0:0:0:
60,287,106995,2,0,P|125:266|191:287,1,140,8|4,0:0|0:0,0:0:0:0:
315,352,107918,6,0,P|349:343|384:343,1,70,8|0,0:0|0:0,0:0:0:0:
455,355,108380,2,0,P|431:291|438:222,1,140,2|8,0:2|0:0,0:0:0:0:
464,84,109303,1,2,0:2:0:0:
412,36,109533,1,0,0:0:0:0:
344,32,109764,2,0,P|275:30|219:71,1,140,8|2,0:0|0:2,0:0:0:0:
116,168,110687,1,8,0:0:0:0:
60,296,111149,5,4,0:0:0:0:
191,344,111610,2,0,P|225:335|259:342,1,70,8|0,0:0|0:0,0:0:0:0:
320,304,112072,2,0,B|304:252|304:252|332:220|318:171,1,140,2|8,0:2|0:0,0:0:0:0:
196,104,112995,2,0,B|182:152|210:184|210:184|194:236,2,140,2|8|2,0:2|0:0|0:2,0:0:0:0:
320,40,114380,2,0,L|389:32,1,70,8|0,0:0|0:0,0:0:0:0:
459,44,114841,6,0,P|448:112|467:179,1,140,4|8,0:0|0:0,0:0:0:0:
500,244,115533,1,0,0:0:0:0:
428,240,115764,2,0,P|360:229|293:248,1,140,2|8,0:2|0:0,0:0:0:0:
180,332,116687,2,0,P|146:340|111:333,2,70,2|0|8,0:2|0:0|0:0,0:0:0:0:
256,212,117610,2,0,L|256:136,2,70,2|2|8,0:2|0:2|0:0,0:0:0:0:
332,332,118533,5,4,0:0:0:0:
468,304,118995,1,8,0:0:0:0:
500,167,119456,2,0,P|516:100|500:32,1,140,2|8,0:2|0:0,0:0:0:0:
364,64,120380,6,0,P|372:97|365:131,2,70,2|2|8,0:2|0:2|0:0,0:0:0:0:
227,33,121303,2,0,P|211:100|227:168,1,140,2|8,0:2|0:0,0:0:0:0:
256,232,121995,1,0,0:0:0:0:
256,232,122226,1,4,0:0:0:0:
192,356,122687,1,8,0:0:0:0:
192,356,122918,2,0,P|124:339|57:356,1,140,2|2,0:2|0:2,0:0:0:0:
4,312,123610,2,0,P|20:244|3:177,1,140,8|2,0:0|0:2,0:0:0:0:
32,40,124533,6,0,L|104:32,1,70,8|0,0:0|0:0,0:0:0:0:
151,84,124995,2,0,P|217:63|283:83,1,140,2|8,0:2|0:0,0:0:0:0:
284,224,125918,2,0,P|218:244|152:223,2,140,4|8|0,0:0|0:0|0:0,0:0:0:0:
412,172,127303,1,8,0:0:0:0:
476,296,127764,5,2,0:2:0:0:
432,352,127995,1,2,0:2:0:0:
367,327,128226,2,0,P|302:307|238:332,2,140,8|2|8,0:0|0:2|0:0,0:0:0:0:
496,267,129610,2,0,P|503:198|488:130,1,140,4|8,0:0|0:0,0:0:0:0:
460,63,130303,2,0,P|395:89|328:74,1,140,2|2,0:2|0:2,0:0:0:0:
268,40,130995,1,8,0:0:0:0:
128,32,131456,6,0,L|124:108,1,70,2|2,0:2|0:2,0:0:0:0:
56,120,131918,2,0,L|52:189,1,70,8|0,0:0|0:0,0:0:0:0:
76,256,132380,2,0,B|124:244|160:264|160:264|201:230,1,140,2|8,0:2|0:0,0:0:0:0:
300,130,133303,2,0,B|348:118|384:138|384:138|425:104,2,140,4|8|2,0:0|0:0|0:2,0:0:0:0:
172,72,134687,1,8,0:0:0:0:
224,204,135149,6,0,L|224:276,1,70,2|2,0:2|0:2,0:0:0:0:
276,319,135610,2,0,P|340:295|408:306,2,140,8|2|8,0:0|0:2|0:0,0:0:0:0:
135,315,136995,2,0,P|126:246|136:177,1,140,4|8,0:0|0:0,0:0:0:0:
188,128,137687,2,0,L|257:120,1,70,0|0,0:2|0:0,0:0:0:0:
384,60,138380,1,8,0:0:0:0:
463,175,138841,6,0,P|472:209|465:243,2,70,2|2|8,0:2|0:2|0:0,0:0:0:0:
444,108,139533,1,0,0:0:0:0:
444,108,139764,2,0,P|377:129|310:112,1,140,2|8,0:2|0:0,0:0:0:0:
192,40,140687,2,0,P|124:23|58:44,1,140,4|8,0:0|0:0,0:0:0:0:
16,100,141380,2,0,P|0:167|20:233,1,140,2|2,0:2|0:2,0:0:0:0:
92,232,142072,2,0,P|156:208|222:226,1,140,8|2,0:0|0:2,0:0:0:0:
340,324,142995,6,0,L|412:316,1,70,8|0,0:0|0:0,0:0:0:0:
452,260,143456,2,0,P|436:192|449:124,1,140,2|8,0:2|0:0,0:0:0:0:
348,28,144380,2,0,L|272:36,1,70,4|0,0:0|0:0,0:0:0:0:
220,76,144841,1,8,0:0:0:0:
152,96,145072,2,0,L|160:236,1,140,2|2,0:2|0:2,0:0:0:0:
104,276,145764,1,8,0:0:0:0:
200,376,146226,6,0,B|232:364|256:336|256:336|280:364|312:376,1,140,4|8,0:0|0:0,0:0:0:0:
312,224,147149,2,0,B|280:236|256:264|256:264|232:236|200:224,1,140,0|8,0:0|0:0,0:0:0:0:
256,96,148072,1,4,0:0:0:0:
60,312,162841,6,0,B|88:336|152:320|152:320|186:347,1,140,4|8,0:0|0:0,0:0:0:0:
325,347,163764,2,0,B|360:320|360:320|424:336|452:312,1,140,0|8,0:0|0:0,0:0:0:0:
468,172,164687,2,0,L|458:102,1,70
420,44,165149,2,0,B|376:44|376:44|324:44|300:92,1,140,8|0,0:0|0:0,0:0:0:0:
256,224,166072,1,8,0:0:0:0:
212,92,166533,6,0,B|188:44|136:44|136:44|92:44,1,140,0|8,0:0|0:0,0:0:0:0:
16,72,167226,2,0,B|40:120|92:120|92:120|136:120,1,140,2|2,0:2|0:2,0:0:0:0:
136,264,168149,2,0,B|92:264|92:264|40:264|16:312,2,140,2|2|2,0:2|0:2|0:2,0:0:0:0:
184,316,169303,1,0,0:0:0:0:
316,364,169764,1,8,0:0:0:0:
440,300,170226,6,0,L|452:232,2,70,2|2|8,0:2|0:2|0:0,0:0:0:0:
368,308,170918,2,0,L|391:169,1,140,2|2,0:2|0:2,0:0:0:0:
351,111,171610,1,8,0:0:0:0:
296,156,171841,2,0,L|273:295,2,140,2|2|2,0:2|0:2|0:2,0:0:0:0:
351,111,172995,1,0,0:0:0:0:
240,28,173456,1,8,0:0:0:0:
104,60,173918,5,0,0:0:0:0:
35,40,174149,2,0,P|24:108|33:177,1,140,2|2,0:2|0:2,0:0:0:0:
56,316,175072,2,0,P|121:294|187:313,1,140,2|2,0:2|0:2,0:0:0:0:
324,313,175995,2,0,P|390:294|456:316,1,140,2|2,0:2|0:2,0:0:0:0:
508,268,176687,2,0,L|504:129,1,140,0|8,0:0|0:0,0:0:0:0:
424,60,177610,5,4,0:0:0:0:
336,172,178072,1,8,0:0:0:0:
288,40,178533,1,0,0:0:0:0:
424,60,178995,1,8,0:0:0:0:
336,172,179456,6,0,L|329:241,1,70,2|2,0:2|0:2,0:0:0:0:
287,299,179918,2,0,B|244:300|244:300|200:328|200:328|156:328,1,140,8|2,0:0|0:2,0:0:0:0:
44,244,180841,1,8,0:0:0:0:
136,140,181303,2,0,P|193:102|219:38,1,140,4|8,0:0|0:0,0:0:0:0:
292,38,181995,2,0,P|318:102|376:140,1,140,2|2,0:2|0:2,0:0:0:0:
444,120,182687,1,8,0:0:0:0:
500,247,183149,6,0,P|491:281|496:316,1,70,2|2,0:2|0:2,0:0:0:0:
452,372,183610,2,0,P|418:363|383:367,1,70,8|0,0:0|0:0,0:0:0:0:
315,356,184072,2,0,P|249:375|183:357,1,140,2|8,0:2|0:0,0:0:0:0:
56,296,184995,1,4,0:0:0:0:
184,244,185456,1,8,0:0:0:0:
184,244,185687,2,0,P|250:225|316:243,1,140,2|2,0:2|0:2,0:0:0:0:
372,288,186380,1,8,0:0:0:0:
492,212,186841,6,0,L|480:144,1,70,2|2,0:2|0:2,0:0:0:0:
448,80,187303,2,0,P|382:60|323:94,1,140,8|2,0:0|0:2,0:0:0:0:
188,94,188226,2,0,P|129:60|64:80,1,140,8|4,0:0|0:0,0:0:0:0:
8,212,189149,2,0,L|16:284,1,70,8|0,0:0|0:0,0:0:0:0:
64,332,189610,2,0,B|108:332|108:332|152:360|152:360|196:360,1,140,2|8,0:2|0:0,0:0:0:0:
332,332,190533,6,0,P|335:297|333:262,1,70,2|2,0:2|0:2,0:0:0:0:
264,244,190995,2,0,P|261:209|265:174,1,70,8|0,0:0|0:0,0:0:0:0:
332,152,191456,2,0,P|344:83|329:15,1,140,2|8,0:2|0:0,0:0:0:0:
182,15,192380,2,0,P|167:83|180:152,1,140,4|8,0:0|0:0,0:0:0:0:
200,220,193072,2,0,B|232:232|256:260|256:260|280:232|312:220,1,140,2|2,0:2|0:2,0:0:0:0:
380,208,193764,1,8,0:0:0:0:
348,344,194226,6,0,P|324:369|291:379,1,70,2|2,0:2|0:2,0:0:0:0:
220,379,194687,2,0,P|187:369|164:344,1,70,8|0,0:0|0:0,0:0:0:0:
192,280,195149,2,0,P|256:256|320:280,1,140,2|8,0:2|0:0,0:0:0:0:
460,300,196072,1,4,0:0:0:0:
492,164,196533,1,8,0:0:0:0:
492,164,196764,2,0,P|433:131|365:143,1,140,2|2,0:2|0:2,0:0:0:0:
320,196,197456,1,8,0:0:0:0:
184,160,197918,5,2,0:2:0:0:
116,140,198149,1,2,0:2:0:0:
55,172,198380,2,0,P|43:240|60:308,2,140,8|2|8,0:0|0:2|0:0,0:0:0:0:
168,91,199764,2,0,P|196:72|220:46,1,70,4|0,0:0|0:2,0:0:0:0:
291,46,200226,2,0,P|315:72|343:91,1,70,8|0,0:0|0:2,0:0:0:0:
312,156,200687,2,0,B|280:144|256:116|256:116|232:144|200:156,1,140,0|8,0:0|0:0,0:0:0:0:
135,280,201610,6,0,P|128:313|138:346,1,70,2|2,0:2|0:2,0:0:0:0:
208,359,202072,2,0,P|273:339|337:365,2,140,8|2|8,0:0|0:2|0:0,0:0:0:0:
68,359,203456,2,0,P|79:291|67:222,1,140,4|8,0:0|0:0,0:0:0:0:
16,176,204149,2,0,L|155:160,1,140,2|2,0:2|0:2,0:0:0:0:
196,104,204841,1,8,0:0:0:0:
324,48,205303,5,0,0:0:0:0:
324,48,205764,1,0,0:0:0:0:
256,192,206226,12,0,208072,0:0:0:0:
