osu file format v12

[General]
AudioFilename: 04 Memories.mp3
AudioLeadIn: 2000
PreviewTime: 44687
Countdown: 0
SampleSet: Normal
StackLeniency: 0.7
Mode: 0
LetterboxInBreaks: 0
WidescreenStoryboard: 0

[Editor]
DistanceSpacing: 1
BeatDivisor: 4
GridSize: 4

[Metadata]
Title:Memories
TitleUnicode:Memories
Artist:David Guetta ft. Kid Cudi
ArtistUnicode:David Guetta ft. Kid Cudi
Creator:mancuso_JM_
Version:Hard
Source:
Tags:One Love mancusojuanmattos
BeatmapID:307798
BeatmapSetID:119977

[Difficulty]
HPDrainRate:6
CircleSize:4
OverallDifficulty:6
ApproachRate:7
SliderMultiplier:1.8
SliderTickRate:1

[Events]
//Background and Video events
0,0,"david_guetta_.jpg",0,0
//Break Periods
2,148272,161941
//Storyboard Layer 0 (Background)
//Storyboard Layer 1 (Fail)
//Storyboard Layer 2 (Pass)
//Storyboard Layer 3 (Foreground)
//Storyboard Sound Samples
//Background Colour Transformations
3,100,163,162,255

[TimingPoints]
380,461.538461538462,4,1,0,70,1,0
29918,-100,4,1,0,45,0,0
44687,-100,4,1,0,70,0,1
44803,-100,4,1,0,70,0,0
46533,-100,4,1,0,70,0,1
74226,-125,4,1,0,45,0,0
88995,-111.111111111111,4,1,0,55,0,0
103764,-100,4,1,0,70,0,0
118533,-100,4,1,0,70,0,1
118649,-100,4,1,0,70,0,0
120380,-100,4,1,0,70,0,1
148072,-100,4,1,0,70,0,0
177610,-100,4,1,0,70,0,1
177726,-100,4,1,0,70,0,0
179456,-100,4,1,0,70,0,1
205303,-100,4,1,0,70,0,0
206226,-100,4,1,0,60,0,0
206687,-100,4,1,0,45,0,0
207149,-100,4,1,0,30,0,0
207610,-100,4,1,0,15,0,0
208072,-100,4,2,0,5,0,0

[HitObjects]
36,308,380,2,0,P|80:316|121:300,1,90
152,216,841,2,0,P|235:244|315:208,1,180,8|0,0:0|0:0,0:0:0:0:
364,132,1533,1,0,0:0:0:0:
416,60,1764,1,8,0:0:0:0:
416,60,2226,6,0,P|464:135|449:222,1,180,0|8,0:0|0:0,0:0:0:0:
380,280,2918,2,0,L|294:307,1,90
204,292,3380,1,0,0:0:0:0:
204,292,3610,2,0,P|146:259|81:271,1,135,8|8,0:0|0:0,0:0:0:0:
52,284,4072,6,0,L|40:194,1,90
40,100,4533,2,0,P|108:44|195:55,1,180,8|0,0:0|0:0,0:0:0:0:
284,76,5226,1,0,0:0:0:0:
340,148,5456,1,8,0:0:0:0:
456,284,5918,5,0,0:0:0:0:
408,360,6149,1,0,0:0:0:0:
351,287,6380,2,0,P|307:284|265:299,1,90,8|0,0:0|0:0,0:0:0:0:
196,356,6841,2,0,P|153:371|109:367,1,90
31,316,7303,2,0,P|39:249|26:183,1,135,8|8,0:0|0:0,0:0:0:0:
0,164,7764,6,0,L|88:144,1,90
136,68,8226,1,8,0:0:0:0:
312,32,8687,1,0,0:0:0:0:
380,92,8918,1,0,0:0:0:0:
428,16,9149,1,8,0:0:0:0:
496,184,9610,6,0,P|504:228|498:272,1,90
415,307,10072,2,0,P|331:284|250:320,1,180,8|0,0:0|0:0,0:0:0:0:
180,376,10764,1,0,0:0:0:0:
184,288,10995,2,0,L|191:153,1,135,8|8,0:0|0:0,0:0:0:0:
164,136,11456,6,0,L|260:128,1,90
320,64,11918,1,8,0:0:0:0:
320,64,12380,5,0,0:0:0:0:
424,4,12611,1,0,0:0:0:0:
412,124,12841,1,8,0:0:0:0:
412,124,13303,5,0,0:0:0:0:
412,244,13533,1,0,0:0:0:0:
512,176,13764,1,8,0:0:0:0:
415,324,14226,6,0,P|372:336|328:331,1,90
248,292,14687,2,0,P|182:280|112:304,1,135,8|8,0:0|0:0,0:0:0:0:
100,328,15149,6,0,L|69:243,1,90,4|0,0:0|0:0,0:0:0:0:
40,156,15610,1,8,0:0:0:0:
52,68,15841,1,0,0:0:0:0:
124,120,16072,1,2,0:2:0:0:
212,144,16303,2,0,B|256:156|256:156|300:144,1,90,0|8,0:0|0:0,0:0:0:0:
388,120,16764,1,0,0:0:0:0:
336,224,16995,6,0,B|284:228|256:260|256:260|228:228|176:224,2,180,2|8|2,0:2|0:0|0:2,0:0:0:0:
424,208,18149,1,2,0:2:0:0:
392,291,18380,2,0,P|348:342|283:354,1,135,8|8,0:0|0:0,0:0:0:0:
260,336,18841,6,0,P|216:327|176:347,1,90
88,344,19303,2,0,L|72:256,1,90,8|0,0:0|0:0,0:0:0:0:
124,180,19764,2,0,L|108:92,2,90,2|0|8,0:2|0:0|0:0,0:0:0:0:
144,192,20687,5,2,0:2:0:0:
232,220,20918,1,0,0:0:0:0:
255,132,21149,2,0,P|327:80|415:82,1,180,8|2,0:0|0:2,0:0:0:0:
496,128,21841,2,0,P|507:171|502:215,1,90,2|8,0:2|0:0,0:0:0:0:
440,280,22303,1,0,0:0:0:0:
364,328,22533,5,2,0:2:0:0:
192,272,22995,2,0,P|147:272|109:294,1,90,8|2,0:0|0:2,0:0:0:0:
24,272,23456,2,0,P|23:227|1:189,1,90
32,104,23918,2,0,P|76:103|116:80,1,90,8|2,0:0|0:2,0:0:0:0:
196,124,24380,5,0,0:0:0:0:
196,124,24841,1,8,0:0:0:0:
360,48,25303,2,0,P|376:89|372:136,1,90,2|0,0:2|0:0,0:0:0:0:
288,159,25764,2,0,P|276:225|297:289,1,135,8|8,0:0|0:0,0:0:0:0:
320,312,26226,6,0,L|230:323,1,90
208,236,26687,2,0,L|118:247,1,90,8|0,0:0|0:0,0:0:0:0:
92,160,27149,2,0,L|2:171,2,90,2|0|8,0:2|0:0|0:0,0:0:0:0:
232,48,28072,5,2,0:2:0:0:
316,16,28303,1,0,0:0:0:0:
388,68,28533,2,0,P|399:111|396:160,1,90,8|0,0:0|0:0,0:0:0:0:
328,292,28995,2,0,P|316:248|318:204,1,90,2|0,0:2|0:0,0:0:0:0:
256,140,29456,2,0,P|190:156|124:145,1,135,8|8,0:0|0:0,0:0:0:0:
104,120,29918,6,0,L|96:209,1,90
112,300,30380,2,0,L|201:292,1,90,8|0,0:0|0:0,0:0:0:0:
256,364,30841,2,0,L|345:356,1,90
436,360,31303,1,8,0:0:0:0:
508,308,31533,1,0,0:0:0:0:
496,220,31764,6,0,P|503:131|473:46,1,180,0|8,0:0|0:0,0:0:0:0:
256,36,32687,2,0,B|240:84|256:124|256:124|272:168|256:212,1,180,0|8,0:0|0:0,0:0:0:0:
330,370,33610,6,0,P|256:326|182:370,1,180,0|8,0:0|0:0,0:0:0:0:
128,296,34303,2,0,P|161:265|204:248,1,90
383,295,34764,2,0,P|350:265|309:248,1,90,0|8,0:0|0:0,0:0:0:0:
200,104,35456,5,0,0:0:0:0:
256,32,35687,1,0,0:0:0:0:
312,104,35918,1,8,0:0:0:0:
380,272,36380,2,0,P|336:279|292:270,1,90,0|0,0:0|0:0,0:0:0:0:
131,272,36841,2,0,P|175:279|219:270,1,90,8|0,0:0|0:0,0:0:0:0:
256,188,37303,5,0,0:0:0:0:
368,48,37764,1,8,0:0:0:0:
456,64,37995,1,0,0:0:0:0:
403,136,38226,2,0,P|400:180|410:224,1,90
488,272,38687,2,0,P|491:316|481:360,1,90,8|0,0:0|0:0,0:0:0:0:
391,359,39149,6,0,P|306:336|224:367,1,180,0|8,0:0|0:0,0:0:0:0:
136,372,39841,1,0,0:0:0:0:
136,372,40072,2,0,P|111:286|132:199,1,180,0|8,0:0|0:0,0:0:0:0:
256,76,40995,5,0,0:0:0:0:
436,52,41456,2,0,L|448:144,1,90,8|0,0:0|0:0,0:0:0:0:
352,196,41918,2,0,L|340:106,2,90,0|0|8,0:0|0:0|0:0,0:0:0:0:
428,248,42610,1,0,0:0:0:0:
388,328,42841,6,0,P|343:331|301:315,1,90
210,315,43303,2,0,P|168:331|124:328,1,90,8|0,0:0|0:0,0:0:0:0:
104,240,43764,2,0,P|145:224|190:227,1,90,0|0,0:0|0:0,0:0:0:0:
279,223,44226,2,0,P|346:224|395:181,1,135,8|8,0:0|0:0,0:0:0:0:
388,156,44687,6,0,L|332:85,1,90,4|0,0:0|0:0,0:0:0:0:
256,36,45149,1,8,0:0:0:0:
180,85,45380,2,0,L|124:156,1,90,2|0,0:2|0:0,0:0:0:0:
48,204,45841,1,0,0:0:0:0:
76,288,46072,1,8,0:0:0:0:
256,312,46533,6,0,P|299:303|343:315,1,90,2|2,0:2|0:2,0:0:0:0:
408,252,46995,2,0,P|399:208|411:164,1,90,8|2,0:0|0:2,0:0:0:0:
408,76,47456,2,0,L|228:68,1,180,2|8,0:2|0:0,0:0:0:0:
140,52,48149,1,0,0:0:0:0:
130,71,48264,1,8,0:0:0:0:
120,91,48380,5,4,0:0:0:0:
112,272,48841,1,8,0:0:0:0:
184,328,49072,2,0,P|267:356|351:328,1,180,2|2,0:2|0:2,0:0:0:0:
428,280,49764,1,8,0:0:0:0:
496,220,49995,1,0,0:0:0:0:
448,144,50226,6,0,L|432:56,1,90,2|2,0:2|0:2,0:0:0:0:
348,24,50687,1,8,0:0:0:0:
260,8,50918,1,2,0:2:0:0:
172,32,51149,2,0,B|188:92|188:92|204:148|167:204,1,180,2|8,0:2|0:0,0:0:0:0:
160,292,51841,1,0,0:0:0:0:
175,307,51956,1,8,0:0:0:0:
190,322,52072,6,0,B|248:308|248:308|272:324|292:340|292:340|354:319,1,180,4|8,0:0|0:0,0:0:0:0:
380,231,52764,2,0,P|388:188|378:144,1,90,2|0,0:2|0:0,0:0:0:0:
289,27,53226,2,0,P|283:71|292:116,1,90,2|8,0:2|0:0,0:0:0:0:
264,200,53687,1,0,0:0:0:0:
264,199,53918,6,0,P|199:183|136:208,1,135,2|2,0:2|0:2,0:0:0:0:
120,232,54380,2,0,L|87:148,2,90,8|0|2,0:0|0:0|0:2,0:0:0:0:
112,320,55072,1,0,0:0:0:0:
188,368,55303,1,8,0:0:0:0:
272,340,55533,1,0,0:0:0:0:
287,324,55649,1,8,0:0:0:0:
302,308,55764,6,0,B|332:252|392:248|392:248|419:187,1,180,4|8,0:0|0:0,0:0:0:0:
340,144,56456,2,0,B|310:200|250:204|250:204|222:264,1,180,2|2,0:2|0:2,0:0:0:0:
196,352,57149,1,8,0:0:0:0:
108,368,57380,1,0,0:0:0:0:
28,328,57610,6,0,P|19:283|28:239,1,90,2|2,0:2|0:2,0:0:0:0:
108,124,58072,2,0,P|116:168|107:212,2,90,8|2|2,0:0|0:2|0:2,0:0:0:0:
172,60,58764,2,0,P|216:68|260:59,1,90,0|8,0:0|0:0,0:0:0:0:
348,44,59226,1,0,0:0:0:0:
359,61,59341,1,8,0:0:0:0:
370,79,59456,5,4,0:0:0:0:
488,276,59918,1,8,0:0:0:0:
488,276,60149,2,0,P|402:299|317:275,1,180,2|2,0:2|0:2,0:0:0:0:
236,240,60841,2,0,P|191:231|148:240,1,90,8|0,0:0|0:0,0:0:0:0:
60,228,61303,6,0,P|43:162|57:97,1,135,2|2,0:2|0:2,0:0:0:0:
80,76,61764,2,0,L|169:68,1,90,8|0,0:0|0:0,0:0:0:0:
228,136,62226,2,0,B|284:156|336:120|336:120|396:148,1,180,2|8,0:2|0:0,0:0:0:0:
396,236,62918,1,0,0:0:0:0:
396,236,63033,1,8,0:0:0:0:
396,236,63149,6,0,B|336:264|336:264|284:228|228:248,1,180,4|8,0:0|0:0,0:0:0:0:
140,272,63841,2,0,P|115:185|127:97,1,180,2|2,0:2|0:2,0:0:0:0:
200,40,64533,2,0,P|243:48|286:35,1,90,8|0,0:0|0:0,0:0:0:0:
372,60,64995,6,0,L|391:147,1,90,2|2,0:2|0:2,0:0:0:0:
480,152,65456,2,0,L|499:239,1,90,8|0,0:0|0:0,0:0:0:0:
420,280,65918,2,0,L|439:367,2,90,2|2|8,0:2|0:2|0:0,0:0:0:0:
332,252,66610,1,0,0:0:0:0:
332,252,66726,1,8,0:0:0:0:
332,252,66841,5,4,0:0:0:0:
156,284,67303,1,8,0:0:0:0:
72,316,67533,2,0,P|47:230|64:142,1,180,2|2,0:2|0:2,0:0:0:0:
128,76,68226,2,0,L|217:64,1,90,8|0,0:0|0:0,0:0:0:0:
296,24,68687,5,2,0:2:0:0:
384,4,68918,1,2,0:2:0:0:
432,80,69149,1,8,0:0:0:0:
368,140,69380,1,0,0:0:0:0:
279,116,69610,2,0,P|297:200|377:232,1,180,2|8,0:2|0:0,0:0:0:0:
468,224,70303,1,0,0:0:0:0:
468,224,70418,1,8,0:0:0:0:
468,224,70533,5,4,0:0:0:0:
332,344,70995,1,8,0:0:0:0:
244,336,71226,2,0,B|184:352|184:352|160:296|98:276,1,180,2|2,0:2|0:2,0:0:0:0:
23,227,71918,2,0,P|15:183|22:139,1,90,8|0,0:0|0:0,0:0:0:0:
100,96,72380,6,0,B|144:88|144:88|167:49,1,90,2|2,0:2|0:2,0:0:0:0:
256,20,72841,1,8,0:0:0:0:
344,49,73072,2,0,B|368:88|368:88|412:96,1,90,0|2,0:0|0:2,0:0:0:0:
460,172,73533,1,0,0:0:0:0:
448,260,73764,2,0,P|382:248|319:269,1,135,8|8,0:0|0:0,0:0:0:0:
319,269,74226,5,2,0:2:0:0:
152,304,74687,2,0,P|160:232|148:161,1,144,8|2,0:0|0:2,0:0:0:0:
256,60,75610,1,8,0:0:0:0:
256,60,76072,2,0,L|256:204,1,144,2|8,0:2|0:0,0:0:0:0:
359,303,76995,2,0,P|351:232|363:161,1,144,2|8,0:2|0:0,0:0:0:0:
408,108,77687,1,0,0:0:0:0:
460,60,77918,5,2,0:2:0:0:
316,36,78380,2,0,L|172:28,1,144,8|2,0:0|0:2,0:0:0:0:
40,88,79303,1,8,0:0:0:0:
164,160,79764,2,0,L|307:167,2,144,2|8|2,0:2|0:0|0:2,0:0:0:0:
72,272,81149,1,8,0:0:0:0:
64,344,81380,1,0,0:0:0:0:
132,320,81610,5,2,0:2:0:0:
276,320,82072,2,0,P|345:336|416:316,1,144,8|2,0:0|0:2,0:0:0:0:
412,172,82995,1,8,0:0:0:0:
412,172,83456,2,0,P|342:155|273:174,2,144,2|8|2,0:2|0:0|0:2,0:0:0:0:
472,304,84841,1,8,0:0:0:0:
424,356,85072,1,0,0:0:0:0:
400,288,85303,5,2,0:2:0:0:
256,284,85764,1,8,0:0:0:0:
256,284,86226,1,2,0:2:0:0:
144,192,86687,1,8,0:0:0:0:
144,192,87149,1,2,0:2:0:0:
256,100,87610,1,8,0:0:0:0:
256,100,88072,1,2,0:2:0:0:
368,192,88533,1,8,0:0:0:0:
368,192,88764,1,0,0:0:0:0:
368,192,88995,1,2,0:2:0:0:
255,308,89456,6,0,P|216:315|176:312,1,80.9999975280763,8|0,0:0|0:0,0:0:0:0:
172,232,89918,2,0,P|211:224|251:227,2,80.9999975280763,2|2|8,0:2|0:2|0:0,0:0:0:0:
100,272,90610,1,0,0:0:0:0:
24,304,90841,2,0,L|0:144,1,161.999995056153,2|8,0:2|0:0,0:0:0:0:
128,44,91764,2,0,B|160:20|192:16|224:28|248:56|256:88|256:88|264:56|288:28|320:16|352:20|384:44,1,323.999990112305,2|0,0:2|0:0,0:0:0:0:
468,180,93149,6,0,L|464:268,1,80.9999975280763,8|0,0:0|0:0,0:0:0:0:
420,328,93610,1,2,0:2:0:0:
340,304,93841,1,0,0:0:0:0:
296,372,94072,1,8,0:0:0:0:
272,368,94533,5,2,0:2:0:0:
214,310,94764,1,2,0:2:0:0:
155,252,94995,2,0,P|135:174|154:96,2,161.999995056153,8|2|8,0:0|0:2|0:0,0:0:0:0:
214,310,96149,1,0,0:0:0:0:
284,268,96380,5,2,0:2:0:0:
445,268,96841,2,0,P|465:190|446:112,2,161.999995056153,8|2|8,0:0|0:2|0:0,0:0:0:0:
256,336,98226,1,2,0:2:0:0:
256,336,98687,1,8,0:0:0:0:
388,244,99149,2,0,B|348:212|348:212|304:252|256:188|256:188|208:252|164:212|164:212|124:244,1,323.999990112305,2|0,0:2|0:0,0:0:0:0:
256,336,100533,5,8,0:0:0:0:
332,304,100764,1,0,0:0:0:0:
388,244,100995,2,0,P|380:204|385:164,1,80.9999975280763,2|0,0:2|0:0,0:0:0:0:
468,164,101456,2,0,P|473:123|465:84,1,80.9999975280763,8|0,0:0|0:0,0:0:0:0:
403,32,101918,6,0,P|326:52|251:25,1,161.999995056153,2|8,0:2|0:0,0:0:0:0:
172,16,102610,1,0,0:0:0:0:
96,40,102841,1,2,0:2:0:0:
84,124,103072,2,0,L|72:204,1,80.9999975280763,0|8,0:0|0:0,0:0:0:0:
100,280,103533,1,0,0:0:0:0:
164,340,103764,5,4,0:0:0:0:
344,348,104226,2,0,P|387:339|429:354,1,90,8|0,0:0|0:0,0:0:0:0:
496,296,104687,2,0,P|481:253|489:210,1,90,2|0,0:2|0:0,0:0:0:0:
508,120,105149,1,8,0:0:0:0:
424,92,105380,1,0,0:0:0:0:
352,36,105610,6,0,P|319:115|234:125,1,180,2|8,0:2|0:0,0:0:0:0:
148,100,106303,1,0,0:0:0:0:
68,64,106533,2,0,L|49:152,1,90,2|0,0:2|0:0,0:0:0:0:
52,243,106995,2,0,P|117:231|179:255,1,135,8|8,0:0|0:0,0:0:0:0:
204,272,107456,6,0,P|248:280|289:257,1,90,4|0,0:0|0:0,0:0:0:0:
344,188,107918,2,0,P|335:144|346:100,1,90,8|0,0:0|0:0,0:0:0:0:
436,100,108380,2,0,P|446:143|438:187,1,90,2|0,0:2|0:0,0:0:0:0:
396,268,108841,1,8,0:0:0:0:
384,284,109303,5,2,0:2:0:0:
324,352,109533,1,0,0:0:0:0:
256,292,109764,2,0,B|200:268|200:268|168:324|98:312,1,180,8|2,0:0|0:2,0:0:0:0:
20,272,110456,1,0,0:0:0:0:
4,184,110687,2,0,P|-12:118|-1:52,1,135,8|8,0:0|0:0,0:0:0:0:
20,28,111149,6,0,L|109:20,1,90
168,88,111610,2,0,L|257:80,1,90,8|0,0:0|0:0,0:0:0:0:
336,36,112072,1,2,0:2:0:0:
420,8,112303,1,0,0:0:0:0:
452,92,112533,1,8,0:0:0:0:
368,124,112764,1,2,0:2:0:0:
288,164,112995,6,0,P|264:250|294:333,2,180,0|8|0,0:0|0:0|0:0,0:0:0:0:
280,76,114149,2,0,L|190:68,1,90,0|8,0:0|0:0,0:0:0:0:
104,88,114610,1,0,0:0:0:0:
96,108,114726,1,8,0:0:0:0:
89,129,114841,5,0,0:0:0:0:
124,304,115303,2,0,P|167:312|211:300,1,90,8|0,0:0|0:0,0:0:0:0:
300,300,115764,2,0,P|344:312|388:304,2,90,2|0|8,0:2|0:0|0:0,0:0:0:0:
324,120,116687,5,2,0:2:0:0:
256,64,116918,1,0,0:0:0:0:
188,120,117149,1,8,0:0:0:0:
256,180,117380,1,0,0:0:0:0:
328,236,117610,2,0,B|280:252|256:288|256:288|232:252|184:236,1,180,2|8,0:2|0:0,0:0:0:0:
96,212,118303,1,0,0:0:0:0:
84,232,118418,1,8,0:0:0:0:
72,252,118533,5,4,0:0:0:0:
216,360,118995,1,8,0:0:0:0:
215,360,119226,2,0,P|301:336|385:363,1,180,2|2,0:2|0:2,0:0:0:0:
476,348,119918,2,0,L|472:258,1,90,8|0,0:0|0:0,0:0:0:0:
436,176,120380,5,2,0:2:0:0:
488,104,120610,1,2,0:2:0:0:
427,36,120841,2,0,P|383:39|342:22,1,90,8|0,0:0|0:0,0:0:0:0:
252,20,121303,2,0,B|192:12|192:12|160:68|92:65,1,180,2|8,0:2|0:0,0:0:0:0:
32,132,121995,1,0,0:0:0:0:
20,152,122110,1,8,0:0:0:0:
8,172,122226,6,0,L|97:164,1,90,4|0,0:0|0:0,0:0:0:0:
180,204,122687,1,8,0:0:0:0:
184,292,122918,2,0,B|231:276|255:240|255:240|279:276|327:292,1,180,2|2,0:2|0:2,0:0:0:0:
415,275,123610,2,0,P|412:231|423:188,1,90,8|0,0:0|0:0,0:0:0:0:
504,68,124072,6,0,P|507:112|496:155,2,90,2|2|8,0:2|0:2|0:0,0:0:0:0:
424,28,124764,1,0,0:0:0:0:
424,28,124995,2,0,B|376:20|376:20|304:8|252:52,1,180,2|8,0:2|0:0,0:0:0:0:
188,116,125687,1,0,0:0:0:0:
172,131,125803,1,8,0:0:0:0:
156,146,125918,5,4,0:0:0:0:
76,184,126149,1,0,0:0:0:0:
28,260,126380,1,8,0:0:0:0:
80,332,126610,2,0,B|140:312|192:348|192:348|251:330,1,180,2|2,0:2|0:2,0:0:0:0:
304,255,127303,2,0,P|347:243|391:247,1,90,8|0,0:0|0:0,0:0:0:0:
480,232,127764,6,0,P|471:165|487:100,1,135,2|2,0:2|0:2,0:0:0:0:
488,56,128226,2,0,P|444:64|399:57,1,90,8|0,0:0|0:0,0:0:0:0:
312,40,128687,2,0,P|225:20|141:48,1,180,2|8,0:2|0:0,0:0:0:0:
80,112,129380,1,0,0:0:0:0:
72,132,129495,1,8,0:0:0:0:
64,152,129610,5,4,0:0:0:0:
76,332,130072,2,0,P|119:339|163:328,1,90,8|0,0:0|0:0,0:0:0:0:
176,240,130533,2,0,P|256:276|343:258,1,180,2|8,0:2|0:0,0:0:0:0:
452,112,131456,6,0,P|448:67|457:23,2,90,2|2|8,0:2|0:2|0:0,0:0:0:0:
468,200,132149,1,0,0:0:0:0:
380,172,132380,2,0,P|299:134|214:155,1,180,2|8,0:2|0:0,0:0:0:0:
208,244,133072,1,0,0:0:0:0:
208,244,133187,1,8,0:0:0:0:
208,244,133303,6,0,P|288:281|373:260,1,180,4|8,0:0|0:0,0:0:0:0:
460,276,133995,2,0,P|396:338|309:356,1,180,2|2,0:2|0:2,0:0:0:0:
220,344,134687,1,8,0:0:0:0:
40,344,135149,6,0,P|31:277|39:210,1,135,2|2,0:2|0:2,0:0:0:0:
48,180,135610,2,0,L|135:160,1,90,8|0,0:0|0:0,0:0:0:0:
176,80,136072,2,0,L|263:60,1,90,2|0,0:2|0:0,0:0:0:0:
344,20,136533,1,8,0:0:0:0:
428,52,136764,1,0,0:0:0:0:
448,60,136880,1,8,0:0:0:0:
468,67,136995,6,0,B|448:128|448:128|468:160|488:188|488:188|474:230,1,180,4|8,0:0|0:0,0:0:0:0:
428,308,137687,2,0,B|360:292|320:332|320:332|256:321,1,180,2|2,0:2|0:2,0:0:0:0:
179,275,138380,2,0,P|135:271|92:283,1,90,8|0,0:0|0:0,0:0:0:0:
24,228,138841,6,0,P|28:183|16:140,1,90,2|2,0:2|0:2,0:0:0:0:
80,80,139303,2,0,P|124:84|167:72,1,90,8|0,0:0|0:0,0:0:0:0:
244,124,139764,2,0,P|239:168|251:211,1,90,2|0,0:2|0:0,0:0:0:0:
318,272,140226,2,0,P|383:255|448:272,1,135,8|8,0:0|0:0,0:0:0:0:
472,292,140687,6,0,L|488:204,1,90,4|0,0:0|0:0,0:0:0:0:
484,112,141149,1,8,0:0:0:0:
432,40,141380,2,0,B|380:24|344:48|344:48|308:68|258:48,1,180,2|2,0:2|0:2,0:0:0:0:
172,31,142072,2,0,P|164:76|172:120,1,90,8|0,0:0|0:0,0:0:0:0:
236,184,142533,6,0,P|244:228|236:272,1,90,2|2,0:2|0:2,0:0:0:0:
272,356,142995,2,0,P|336:339|401:357,1,135,8|8,0:0|0:0,0:0:0:0:
428,372,143456,2,0,L|448:284,1,90
504,212,143918,1,8,0:0:0:0:
480,124,144149,1,0,0:0:0:0:
464,108,144264,1,8,0:0:0:0:
448,92,144380,5,4,0:0:0:0:
272,48,144841,1,8,0:0:0:0:
180,48,145072,2,0,B|148:136|208:136|182:224,1,180,2|2,0:2|0:2,0:0:0:0:
224,304,145764,2,0,P|267:295|311:303,1,90,8|0,0:0|0:0,0:0:0:0:
388,356,146226,6,0,P|431:364|475:355,1,90,2|2,0:2|0:2,0:0:0:0:
476,264,146687,2,0,P|432:255|388:263,1,90,8|0,0:0|0:0,0:0:0:0:
300,240,147149,2,0,L|284:60,1,180,2|8,0:2|0:0,0:0:0:0:
196,40,147841,1,0,0:0:0:0:
196,40,147956,1,8,0:0:0:0:
196,40,148072,1,4,0:0:0:0:
368,192,162841,6,0,P|412:191|454:176,2,90,4|0|8,0:0|0:0|0:0,0:0:0:0:
288,148,163533,2,0,P|200:131|114:155,1,180,2|2,0:2|0:2,0:0:0:0:
116,244,164226,1,8,0:0:0:0:
116,244,164456,2,0,P|203:260|289:236,2,180,2|2|2,0:2|0:2|0:2,0:0:0:0:
32,208,165610,2,0,L|28:112,1,90
84,48,166072,1,8,0:0:0:0:
172,36,166303,1,0,0:0:0:0:
193,39,166418,1,8,0:0:0:0:
214,42,166533,5,0,0:0:0:0:
292,88,166764,1,0,0:0:0:0:
376,52,166995,1,8,0:0:0:0:
464,76,167226,2,0,P|476:164|460:253,1,180,2|2,0:2|0:2,0:0:0:0:
388,304,167918,1,8,0:0:0:0:
388,303,168149,2,0,P|302:280|220:311,1,180,2|2,0:2|0:2,0:0:0:0:
136,344,168841,1,8,0:0:0:0:
156,256,169072,2,0,P|179:170|148:88,1,180,2|2,0:2|0:2,0:0:0:0:
104,8,169764,1,8,0:0:0:0:
192,16,169995,1,0,0:0:0:0:
216,12,170110,1,8,0:0:0:0:
240,8,170226,5,0,0:0:0:0:
328,28,170456,2,0,P|339:71|333:115,1,90,0|8,0:0|0:0,0:0:0:0:
243,132,170918,2,0,P|224:218|247:304,1,180,2|2,0:2|0:2,0:0:0:0:
320,360,171610,2,0,P|363:368|406:354,1,90,8|0,0:0|0:0,0:0:0:0:
400,264,172072,2,0,P|356:255|313:269,2,90,2|2|8,0:2|0:2|0:0,0:0:0:0:
488,256,172764,2,0,P|504:168|481:81,1,180,2|2,0:2|0:2,0:0:0:0:
396,48,173456,2,0,L|306:44,1,90,8|0,0:0|0:0,0:0:0:0:
289,60,173803,1,8,0:0:0:0:
273,75,173918,5,0,0:0:0:0:
192,116,174149,1,0,0:0:0:0:
156,200,174380,1,8,0:0:0:0:
155,200,174610,2,0,P|143:286|193:358,1,180,2|2,0:2|0:2,0:0:0:0:
256,292,175303,1,8,0:0:0:0:
318,358,175533,2,0,P|368:286|356:200,1,180,2|2,0:2|0:2,0:0:0:0:
332,112,176226,1,8,0:0:0:0:
328,24,176456,2,0,B|280:40|256:76|256:76|232:40|185:24,1,180,2|2,0:2|0:2,0:0:0:0:
96,36,177149,2,0,P|84:102|98:167,1,135,8|8,0:0|0:0,0:0:0:0:
108,196,177610,6,0,L|197:184,1,90,4|0,0:0|0:0,0:0:0:0:
288,200,178072,1,8,0:0:0:0:
364,152,178303,1,0,0:0:0:0:
364,152,178418,1,8,0:0:0:0:
364,152,178533,1,0,0:0:0:0:
412,228,178764,1,0,0:0:0:0:
336,276,178995,1,8,0:0:0:0:
172,344,179456,6,0,P|128:351|84:342,1,90,2|2,0:2|0:2,0:0:0:0:
32,268,179918,2,0,P|22:224|30:180,1,90,8|0,0:0|0:0,0:0:0:0:
111,139,180380,2,0,P|183:191|212:275,1,180,2|8,0:2|0:0,0:0:0:0:
260,352,181072,1,0,0:0:0:0:
280,344,181187,1,8,0:0:0:0:
300,336,181303,5,4,0:0:0:0:
480,320,181764,1,8,0:0:0:0:
504,231,181995,2,0,P|516:143|492:57,1,180,2|2,0:2|0:2,0:0:0:0:
408,28,182687,2,0,L|318:24,1,90,8|0,0:0|0:0,0:0:0:0:
231,48,183149,6,0,P|223:91|233:135,1,90,2|2,0:2|0:2,0:0:0:0:
312,264,183610,2,0,P|319:220|310:176,1,90,8|0,0:0|0:0,0:0:0:0:
388,128,184072,2,0,P|415:212|396:299,1,180,2|8,0:2|0:0,0:0:0:0:
320,352,184764,1,0,0:0:0:0:
320,352,184880,1,8,0:0:0:0:
320,352,184995,5,4,0:0:0:0:
139,352,185456,2,0,P|96:360|52:350,1,90,8|0,0:0|0:0,0:0:0:0:
24,264,185918,2,0,B|40:220|24:176|24:176|8:136|24:88,1,180,2|8,0:2|0:0,0:0:0:0:
104,48,186610,1,0,0:0:0:0:
191,75,186841,6,0,P|256:91|320:71,1,135,2|0,0:2|0:0,0:0:0:0:
347,84,187303,2,0,P|344:128|354:172,1,90,8|0,0:0|0:0,0:0:0:0:
440,192,187764,2,0,P|450:235|446:280,1,90,2|0,0:2|0:0,0:0:0:0:
392,352,188226,1,8,0:0:0:0:
304,336,188456,1,0,0:0:0:0:
288,320,188572,1,8,0:0:0:0:
272,304,188687,6,0,B|208:304|208:304|144:304|105:258,1,180,4|8,0:0|0:0,0:0:0:0:
188,216,189380,2,0,B|252:216|252:216|316:216|354:261,1,180,2|2,0:2|0:2,0:0:0:0:
404,336,190072,1,8,0:0:0:0:
484,175,190533,6,0,P|488:131|476:88,1,90,2|2,0:2|0:2,0:0:0:0:
408,28,190995,2,0,P|364:15|320:20,1,90,8|0,0:0|0:0,0:0:0:0:
272,96,191456,2,0,P|314:174|390:219,1,180,2|8,0:2|0:0,0:0:0:0:
472,260,192149,1,0,0:0:0:0:
472,260,192264,1,8,0:0:0:0:
472,260,192380,5,4,0:0:0:0:
316,348,192841,1,8,0:0:0:0:
228,336,193072,2,0,B|192:304|192:304|136:344|67:305,1,180,2|2,0:2|0:2,0:0:0:0:
20,231,193764,2,0,P|24:187|20:142,1,90,8|0,0:0|0:0,0:0:0:0:
67,63,194226,6,0,P|133:75|199:60,1,135,2|2,0:2|0:2,0:0:0:0:
224,44,194687,2,0,P|267:32|311:34,1,90,8|0,0:0|0:0,0:0:0:0:
328,124,195149,2,0,P|284:135|240:133,2,90,2|2|8,0:2|0:2|0:0,0:0:0:0:
416,136,195841,1,0,0:0:0:0:
424,155,195956,1,8,0:0:0:0:
433,174,196072,5,4,0:0:0:0:
444,352,196533,2,0,L|354:348,1,90,8|0,0:0|0:0,0:0:0:0:
340,260,196995,2,0,L|160:252,1,180,2|8,0:2|0:0,0:0:0:0:
76,216,197687,1,0,0:0:0:0:
76,215,197918,6,0,P|84:172|74:128,1,90,2|2,0:2|0:2,0:0:0:0:
124,52,198380,2,0,P|167:59|211:50,1,90,8|0,0:0|0:0,0:0:0:0:
300,50,198841,2,0,P|344:59|388:52,1,90,2|0,0:2|0:0,0:0:0:0:
476,36,199303,1,8,0:0:0:0:
472,124,199533,1,0,0:0:0:0:
460,144,199649,1,8,0:0:0:0:
448,164,199764,5,4,0:0:0:0:
328,296,200226,1,8,0:0:0:0:
328,296,200456,2,0,B|280:312|256:348|256:348|232:312|185:296,1,180,2|2,0:2|0:2,0:0:0:0:
256,240,201149,2,0,L|256:150,1,90,8|0,0:0|0:0,0:0:0:0:
212,72,201610,6,0,B|256:64|256:64|300:72,2,90,2|2|8,0:2|0:2|0:0,0:0:0:0:
136,120,202303,1,0,0:0:0:0:
52,149,202533,2,0,B|60:212|60:212|20:264|49:321,1,180,2|8,0:2|0:0,0:0:0:0:
132,356,203226,1,0,0:0:0:0:
152,348,203341,1,8,0:0:0:0:
172,340,203456,5,4,0:0:0:0:
348,304,203918,1,8,0:0:0:0:
435,280,204149,2,0,P|452:192|433:104,1,180,2|2,0:2|0:2,0:0:0:0:
372,40,204841,1,8,0:0:0:0:
284,20,205072,1,0,0:0:0:0:
256,104,205303,5,0,0:0:0:0:
256,104,205764,1,0,0:0:0:0:
256,192,206226,12,0,208072,0:0:0:0:
