osu file format v12

[General]
AudioFilename: 04 Memories.mp3
AudioLeadIn: 2000
PreviewTime: 44687
Countdown: 0
SampleSet: Soft
StackLeniency: 0.7
Mode: 0
LetterboxInBreaks: 0
WidescreenStoryboard: 0

[Editor]
Bookmarks: 96841
DistanceSpacing: 1
BeatDivisor: 4
GridSize: 4

[Metadata]
Title:Memories
TitleUnicode:Memories
Artist:David Guetta ft. Kid Cudi
ArtistUnicode:David Guetta ft. Kid Cudi
Creator:mancuso_JM_
Version:Easy
Source:
Tags:One Love mancusojuanmattos
BeatmapID:318612
BeatmapSetID:119977

[Difficulty]
HPDrainRate:2
CircleSize:3
OverallDifficulty:2
ApproachRate:3
SliderMultiplier:1
SliderTickRate:1

[Events]
//Background and Video events
0,0,"david_guetta_.jpg",0,0
//Break Periods
2,74426,87555
2,148272,161401
//Storyboard Layer 0 (Background)
//Storyboard Layer 1 (Fail)
//Storyboard Layer 2 (Pass)
//Storyboard Layer 3 (Foreground)
//Storyboard Sound Samples
//Background Colour Transformations
3,100,163,162,255

[TimingPoints]
380,461.538461538462,4,1,0,70,1,0
29918,-100,4,1,0,45,0,0
44687,-100,4,1,0,70,0,1
44803,-100,4,1,0,70,0,0
46533,-100,4,1,0,70,0,1
74226,-100,4,1,0,45,0,0
88995,-100,4,1,0,55,0,0
103764,-100,4,1,0,70,0,0
118533,-100,4,1,0,70,0,1
118649,-100,4,1,0,70,0,0
120380,-100,4,1,0,70,0,1
148072,-100,4,1,0,70,0,0
177610,-100,4,1,0,70,0,1
177726,-100,4,1,0,70,0,0
179456,-100,4,1,0,70,0,1
205303,-100,4,1,0,70,0,0
206226,-100,4,1,0,60,0,0
206687,-100,4,1,0,45,0,0
207149,-100,4,1,0,30,0,0
207610,-100,4,1,0,15,0,0
208072,-100,4,2,0,5,0,0

[HitObjects]
37,349,380,2,0,B|81:373|134:355,1,100,4|8,0:0|0:0,0:0:0:0:
204,284,1303,2,0,B|257:266|301:290,1,100,0|8,0:0|0:0,0:0:0:0:
373,221,2226,2,0,B|349:177|366:123,2,100,0|8|0,0:0|0:0|0:0,0:0:0:0:
413,313,3610,1,8,0:0:0:0:
324,361,4072,6,0,P|275:373|226:365,2,100,0|8|0,0:0|0:0|0:0,0:0:0:0:
329,261,5456,1,8,0:0:0:0:
413,313,5918,2,0,P|461:300|510:308,2,100,0|8|0,0:0|0:0|0:0,0:0:0:0:
328,260,7303,2,0,L|337:160,1,100,8|0,0:0|0:0,0:0:0:0:
340,60,8226,6,0,B|285:56|256:104|256:104|229:56|173:60,1,200,8|8,0:0|0:0,0:0:0:0:
76,40,9610,1,0,0:0:0:0:
12,120,10072,2,0,L|8:220,1,100,8|0,0:0|0:0,0:0:0:0:
79,291,10995,1,8,0:0:0:0:
149,361,11456,5,0,0:0:0:0:
173,265,11918,2,0,P|153:167|179:72,1,200,8|8,0:0|0:0,0:0:0:0:
256,12,13303,1,0,0:0:0:0:
334,72,13764,2,0,P|360:167|340:264,1,200,8|8,0:0|0:0,0:0:0:0:
256,320,15149,5,0,0:0:0:0:
160,352,15610,2,8,L|52:356,1,100,8|2,0:0|0:2,0:0:0:0:
12,268,16533,1,8,0:0:0:0:
36,172,16995,2,0,L|135:168,1,100,2|8,0:2|0:0,0:0:0:0:
176,76,17918,2,0,B|208:56|240:52|256:20|256:20|272:52|304:56|336:76,1,200,2|0,0:2|0:0,0:0:0:0:
415,135,19303,6,0,P|424:185|416:234,1,100,8|2,0:0|0:2,0:0:0:0:
348,308,20226,1,8,0:0:0:0:
260,352,20687,2,0,L|160:348,1,100,2|8,0:2|0:0,0:0:0:0:
71,303,21610,2,0,P|48:207|67:110,1,200,2|0,0:2|0:0,0:0:0:0:
144,48,22995,6,0,L|248:40,2,100,8|2|8,0:0|0:2|0:0,0:0:0:0:
148,148,24380,2,0,L|247:140,1,100,2|8,0:2|0:0,0:0:0:0:
344,172,25303,2,0,B|320:224|348:268|348:268|372:312|345:363,1,200,2|0,0:2|0:0,0:0:0:0:
244,364,26687,6,0,P|194:356|146:366,1,100,8|2,0:0|0:2,0:0:0:0:
72,300,27610,2,0,P|79:250|69:202,1,100,8|2,0:0|0:2,0:0:0:0:
31,107,28533,2,0,P|81:104|125:81,1,100,8|0,0:0|0:0,0:0:0:0:
212,32,29456,1,8,0:0:0:0:
256,120,29918,5,0,0:0:0:0:
341,176,30380,2,0,P|255:222|170:176,1,200,8|8,0:0|0:0,0:0:0:0:
72,184,31764,2,0,L|68:284,1,100,2|8,0:2|0:0,0:0:0:0:
164,316,32687,2,0,B|204:288|256:324|256:324|304:356|350:325,1,200,2|0,0:2|0:0,0:0:0:0:
443,287,34072,6,0,P|431:239|439:190,1,100,8|2,0:0|0:2,0:0:0:0:
372,116,34995,2,0,P|379:66|367:18,1,100,8|0,0:0|0:0,0:0:0:0:
280,72,35918,2,0,P|186:43|98:85,1,200,8|8,0:0|0:0,0:0:0:0:
36,164,37303,5,2,0:2:0:0:
76,256,37764,2,0,P|122:272|172:267,1,100,8|2,0:0|0:2,0:0:0:0:
260,216,38687,2,0,P|309:210|356:227,1,100,8|2,0:0|0:2,0:0:0:0:
452,260,39610,1,8,0:0:0:0:
420,164,40072,2,0,P|327:125|229:134,1,200,2|0,0:2|0:0,0:0:0:0:
148,192,41456,5,8,0:0:0:0:
256,360,42380,1,8,0:0:0:0:
364,192,43303,1,8,0:0:0:0:
256,24,44226,1,8,0:0:0:0:
164,60,44687,5,4,0:0:0:0:
68,96,45149,2,0,L|64:196,1,100,8|0,0:0|0:0,0:0:0:0:
124,276,46072,1,8,0:0:0:0:
208,332,46533,6,0,P|301:304|390:346,1,200,2|2,0:2|0:2,0:0:0:0:
480,308,47918,2,0,P|467:259|475:210,1,100,8|4,0:0|0:0,0:0:0:0:
416,128,48841,2,0,P|366:135|318:123,1,100,8|0,0:0|0:0,0:0:0:0:
248,52,49764,1,8,0:0:0:0:
180,128,50226,6,0,P|151:222|186:314,2,200,2|2|2,0:2|0:2|0:2,0:0:0:0:
232,44,52533,1,8,0:0:0:0:
324,8,52995,1,0,0:0:0:0:
364,100,53456,1,8,0:0:0:0:
272,135,53918,6,0,P|264:185|276:236,1,100,2|8,0:2|0:0,0:0:0:0:
224,320,54841,2,0,P|174:312|123:323,1,100,2|8,0:2|0:0,0:0:0:0:
28,340,55764,1,2,0:2:0:0:
0,244,56226,1,8,0:0:0:0:
36,152,56687,2,0,P|51:105|89:74,1,100,0|8,0:0|0:0,0:0:0:0:
136,164,57610,6,0,B|164:208|220:208|220:208|268:208|320:208,1,200,2|2,0:2|0:2,0:0:0:0:
408,256,58995,1,8,0:0:0:0:
404,156,59456,2,0,B|376:112|320:112|320:112|272:112|219:112,1,200,2|2,0:2|0:2,0:0:0:0:
140,52,60841,1,8,0:0:0:0:
52,104,61303,6,0,P|45:152|57:204,1,100,2|8,0:2|0:0,0:0:0:0:
108,288,62226,2,0,P|156:275|204:286,1,100,2|8,0:2|0:0,0:0:0:0:
287,343,63149,2,0,P|360:360|429:333,2,150,2|2|8,0:2|0:2|0:0,0:0:0:0:
256,248,64995,6,0,L|256:148,1,100,2|8,0:2|0:0,0:0:0:0:
208,60,65918,2,0,P|256:47|304:60,1,100,2|8,0:2|0:0,0:0:0:0:
375,127,66841,2,0,P|393:200|382:274,2,150,2|2|8,0:2|0:2|0:0,0:0:0:0:
280,96,68687,6,0,L|180:99,1,100,2|8,0:2|0:0,0:0:0:0:
140,192,69610,2,0,L|40:195,1,100,2|8,0:2|0:0,0:0:0:0:
24,292,70533,2,0,L|173:284,1,150,2|2,0:2|0:2,0:0:0:0:
260,335,71687,2,0,P|284:331|309:335,1,50,2|8,0:2|0:0,0:0:0:0:
408,336,72380,6,0,P|376:242|393:144,1,200,2|2,0:2|0:2,0:0:0:0:
444,56,73764,1,8,0:0:0:0:
348,24,74226,1,2,0:2:0:0:
71,275,88995,5,2,0:2:0:0:
160,328,89456,2,0,P|256:347|345:306,1,200,8|8,0:0|0:0,0:0:0:0:
396,220,90841,2,0,P|400:170|388:121,1,100,2|8,0:2|0:0,0:0:0:0:
348,32,91764,2,0,B|308:4|256:40|256:40|208:72|162:41,1,200,2|0,0:2|0:0,0:0:0:0:
68,76,93149,6,0,L|60:176,1,100,8|2,0:0|0:2,0:0:0:0:
24,268,94072,1,8,0:0:0:0:
108,320,94533,2,0,P|155:335|204:332,1,100,2|8,0:2|0:0,0:0:0:0:
307,332,95456,2,0,P|356:335|404:320,1,100,2|8,0:2|0:0,0:0:0:0:
488,268,96380,1,2,0:2:0:0:
392,228,96841,6,0,P|342:225|294:240,2,100,8|2|8,0:0|0:2|0:0,0:0:0:0:
476,172,98226,2,0,P|478:122|463:74,1,100,2|8,0:2|0:0,0:0:0:0:
372,32,99149,2,0,B|314:63|319:110|319:110|265:105|238:155,1,200,2|2,0:2|0:2,0:0:0:0:
192,244,100533,6,0,P|204:292|193:340,2,100,8|2|8,0:0|0:2|0:0,0:0:0:0:
132,164,101918,2,0,P|119:115|130:67,1,100,2|8,0:2|0:0,0:0:0:0:
224,32,102841,1,2,0:2:0:0:
324,12,103303,1,8,0:0:0:0:
396,84,103764,6,0,P|406:132|393:180,1,100,4|8,0:0|0:0,0:0:0:0:
316,244,104687,2,0,L|216:240,1,100,2|8,0:2|0:0,0:0:0:0:
120,268,105610,1,2,0:2:0:0:
40,208,106072,1,8,0:0:0:0:
52,111,106533,2,0,P|121:43|218:46,1,200,2|0,0:2|0:2,0:0:0:0:
276,127,107918,6,0,P|321:107|370:109,1,100,8|2,0:0|0:2,0:0:0:0:
340,204,108841,1,8,0:0:0:0:
404,280,109303,2,0,P|358:300|309:298,1,100,2|8,0:2|0:0,0:0:0:0:
208,288,110226,2,0,P|158:286|113:306,1,100,2|8,0:2|0:0,0:0:0:0:
20,344,111149,1,0,0:0:0:0:
20,244,111610,6,0,P|-11:151|23:60,1,200,8|8,0:0|0:0,0:0:0:0:
120,28,112995,2,0,L|219:21,1,100,2|8,0:2|0:0,0:0:0:0:
296,88,113918,2,0,B|348:100|348:100|392:84|436:64|436:64|486:71,1,200,2|0,0:2|0:0,0:0:0:0:
495,172,115303,6,0,P|487:221|495:270,1,100,8|2,0:0|0:2,0:0:0:0:
512,368,116226,1,8,0:0:0:0:
419,332,116687,2,0,P|370:323|321:331,1,100,2|8,0:2|0:0,0:0:0:0:
219,328,117610,2,0,P|126:359|30:337,1,200,2|4,0:2|0:0,0:0:0:0:
8,240,118995,2,0,L|0:140,2,100,8|0|8,0:0|0:0|0:0,0:0:0:0:
30,337,120380,6,0,P|126:359|219:328,1,200,2|2,0:2|0:2,0:0:0:0:
280,248,121764,1,8,0:0:0:0:
375,215,122226,2,0,P|367:166|375:117,1,100,0|8,0:0|0:0,0:0:0:0:
348,20,123149,2,0,L|248:16,1,100,0|8,0:0|0:0,0:0:0:0:
151,40,124072,6,0,P|132:137|156:233,1,200,2|2,0:2|0:2,0:0:0:0:
220,311,125456,2,8,P|263:288|312:286,1,100,8|0,0:0|0:0,0:0:0:0:
384,356,126380,2,0,P|340:379|291:381,2,100,8|0|8,0:0|0:0|0:0,0:0:0:0:
452,279,127764,6,0,P|472:182|448:84,1,200,2|2,0:2|0:2,0:0:0:0:
376,16,129149,1,8,0:0:0:0:
276,20,129610,2,0,L|126:27,1,150,2|2,0:2|0:2,0:0:0:0:
64,104,130764,2,0,P|60:128|66:152,1,50,2|8,0:2|0:0,0:0:0:0:
168,148,131456,6,0,B|224:156|256:192|256:192|288:156|344:148,2,200,2|2|2,0:2|0:2|0:2,0:0:0:0:
116,236,133764,2,0,P|164:246|195:283,1,100,8|0,0:0|0:0,0:0:0:0:
256,364,134687,1,8,0:0:0:0:
316,283,135149,6,0,P|347:246|396:236,2,100,2|8|2,0:2|0:0|0:2,0:0:0:0:
256,364,136533,1,8,0:0:0:0:
159,343,136995,2,0,P|107:292|33:283,2,150,2|2|8,0:2|0:2|0:0,0:0:0:0:
256,364,138841,6,0,L|355:356,1,100,2|8,0:2|0:0,0:0:0:0:
372,256,139764,2,0,L|471:248,1,100,2|8,0:2|0:0,0:0:0:0:
484,148,140687,2,0,L|334:159,2,150,2|2|8,0:2|0:2|0:0,0:0:0:0:
512,48,142533,5,2,0:2:0:0:
416,20,142995,1,8,0:0:0:0:
328,68,143456,2,0,L|228:76,1,100,2|8,0:2|0:0,0:0:0:0:
128,96,144380,2,0,B|100:168|160:168|135:241,2,150,2|2|8,0:2|0:2|0:0,0:0:0:0:
207,36,146226,6,0,P|256:23|306:26,1,100,2|8,0:2|0:0,0:0:0:0:
316,128,147149,2,0,P|267:140|217:137,2,100,2|8|0,0:2|0:0|0:0,0:0:0:0:
68,296,162841,6,0,P|140:308|207:276,1,150,2|2,0:2|0:2,0:0:0:0:
220,175,163995,2,0,P|243:167|268:165,1,50,2|8,0:2|0:0,0:0:0:0:
356,212,164687,2,0,L|370:310,2,100,2|8|0,0:2|0:0|0:0,0:0:0:0:
364,112,166072,1,8,0:0:0:0:
280,60,166533,6,0,P|207:44|137:67,2,150,2|2|8,0:2|0:2|0:0,0:0:0:0:
336,144,168380,2,0,P|348:192|340:241,2,100,2|8|0,0:2|0:0|0:0,0:0:0:0:
256,192,169764,1,8,0:0:0:0:
180,128,170226,6,0,P|160:198|189:266,2,150,2|2|8,0:2|0:2|0:0,0:0:0:0:
264,72,172072,2,0,L|363:60,1,100,2|8,0:2|0:0,0:0:0:0:
452,104,172995,1,0,0:0:0:0:
504,188,173456,1,8,0:0:0:0:
452,271,173918,6,0,P|389:310|316:302,1,150,2|2,0:2|0:2,0:0:0:0:
231,247,175072,2,0,P|207:244|183:250,1,50,2|8,0:2|0:0,0:0:0:0:
84,256,175764,2,0,P|96:208|82:160,1,100,0|8,0:0|0:0,0:0:0:0:
144,80,176687,2,0,P|191:92|239:78,1,100,0|8,0:0|0:0,0:0:0:0:
332,36,177610,5,4,0:0:0:0:
404,108,178072,1,8,0:0:0:0:
480,172,178533,2,0,P|488:221|482:270,1,100,0|8,0:0|0:0,0:0:0:0:
427,355,179456,6,0,P|337:318|242:344,1,200,2|2,0:2|0:2,0:0:0:0:
144,368,180841,2,0,P|156:319|146:271,1,100,8|2,0:0|0:2,0:0:0:0:
72,208,181764,2,0,P|62:159|74:111,2,100,8|0|8,0:0|0:0|0:0,0:0:0:0:
160,160,183149,6,0,B|200:132|252:168|252:168|300:200|346:169,1,200,2|2,0:2|0:2,0:0:0:0:
436,124,184533,1,8,0:0:0:0:
416,223,184995,2,0,P|391:294|405:367,2,150,2|2|8,0:2|0:2|0:0,0:0:0:0:
380,132,186841,6,0,B|360:96|360:96|328:92|305:76,1,100,2|8,0:2|0:0,0:0:0:0:
206,76,187764,2,0,B|184:92|152:96|152:96|132:132,1,100,2|8,0:2|0:0,0:0:0:0:
160,228,188687,2,0,P|196:260|206:309,1,100,2|8,0:2|0:0,0:0:0:0:
305,309,189610,2,0,P|315:260|352:227,1,100,0|8,0:0|0:0,0:0:0:0:
452,216,190533,6,0,P|399:136|296:140,2,200,2|2|2,0:2|0:2|0:2,0:0:0:0:
476,312,192841,1,8,0:0:0:0:
384,356,193303,2,0,P|336:364|286:348,1,100,2|8,0:2|0:0,0:0:0:0:
248,256,194226,6,0,P|157:291|65:257,1,200,2|2,0:2|0:2,0:0:0:0:
0,184,195610,1,8,0:0:0:0:
88,140,196072,2,0,P|159:120|228:145,1,150,2|2,0:2|0:2,0:0:0:0:
316,192,197226,2,0,L|372:184,1,50,2|8,0:2|0:0,0:0:0:0:
463,192,197918,6,0,P|455:241|466:289,2,100,2|8|2,0:2|0:0|0:2,0:0:0:0:
380,136,199303,2,0,P|388:86|377:38,2,100,8|2|8,0:0|0:2|0:0,0:0:0:0:
300,196,200687,2,0,P|251:206|202:198,1,100,2|8,0:2|0:0,0:0:0:0:
112,152,201610,6,0,B|80:248|160:248|133:344,2,200,2|2|2,0:2|0:2|0:2,0:0:0:0:
168,68,203918,1,8,0:0:0:0:
264,44,204380,2,0,P|308:28|359:34,1,100,2|8,0:2|0:0,0:0:0:0:
444,92,205303,5,0,0:0:0:0:
492,180,205764,1,0,0:0:0:0:
256,192,206226,12,0,208072,0:0:0:0:
