osu file format v8

[General]
AudioFilename: akon feat david guetta - sexy bitch(2).mp3
AudioLeadIn: 1996
PreviewTime: 63319
Countdown: 0
SampleSet: Soft
StackLeniency: 0.7
Mode: 0
LetterboxInBreaks: 0
EpilepsyWarning: 1

[Editor]
DistanceSpacing: 1
BeatDivisor: 4
GridSize: 8

[Metadata]
Title:Sexy Bitch
Artist:David Guetta ft. Akon
Creator:darck360
Version:Insane
Source:
Tags:Electro house hop dancepop

[Difficulty]
HPDrainRate:7
CircleSize:5
OverallDifficulty:8
ApproachRate:8
SliderMultiplier:2
SliderTickRate:2

[Events]
//Background and Video events
0,0,"Sexy Bitch Wallpaper.jpg"
//Break Periods
2,79455,91429
//Storyboard Layer 0 (Background)
//Storyboard Layer 1 (Fail)
//Storyboard Layer 2 (Pass)
//Storyboard Layer 3 (Foreground)
//Storyboard Sound Samples
//Background Colour Transformations
3,100,163,162,255

[TimingPoints]
1718,461.538461538462,4,2,0,60,1,0
20525,-200,4,2,0,60,0,0
22487,-100,4,2,0,60,0,0
27910,-200,4,2,0,60,0,0
29987,-100,4,2,0,60,0,0
31602,-200,4,2,0,60,0,0
33679,-100,4,1,0,60,0,0
64487,-100,4,1,0,60,0,1
79256,-100,4,1,0,60,0,0
79487,-100,4,1,0,60,0,0
93204,-100,4,2,1,60,0,0
109141,-200,4,2,0,60,0,0
111333,-100,4,2,0,60,0,0
116525,-200,4,2,0,60,0,0
118602,-100,4,2,0,60,0,0
122294,-100,4,1,0,60,0,0
153102,-100,4,1,0,60,0,1
181025,-100,4,1,0,60,0,0

[Colours]
Combo1 : 86,248,196
Combo2 : 128,0,255
Combo3 : 130,245,255
Combo4 : 148,40,255
SliderBorder : 192,192,192

[HitObjects]
64,192,4718,1,0
64,192,4948,1,8
64,88,5179,2,0,B|168:88|160:168,1,100,0|0
224,192,5641,1,0
224,296,5871,2,0,B|336:240,1,100,8|0
416,248,6333,2,0,B|416:136,1,100
328,104,6794,2,0,B|248:32|160:80|128:128,1,200,8|0
256,296,7718,6,0,B|112:344|64:256|64:240,1,200,8|0
136,184,8410,1,0
208,112,8641,1,8
136,184,8871,2,0,B|208:256,2,100
208,112,9564,2,0,B|304:64|352:136|352:208,1,200,8|0
256,288,10487,6,0,B|256:152,1,100,8|0
176,120,10948,2,0,B|240:16|368:56,2,200,0|8|0
112,192,12102,5,0
72,288,12333,1,8
168,288,12564,1,0
168,288,12794,1,0
272,288,13025,2,0,B|240:152,2,100,0|8|0
376,288,13717,2,0,B|416:168,1,100
304,192,14179,2,0,B|96:192,1,200,8|0
184,120,15102,6,0,B|80:144|96:240,2,150,8|0|0
240,208,16025,1,8
240,208,16256,1,0
168,280,16487,2,0,B|184:344|304:344|328:280,3,200,0|8|0|8
256,104,18333,6,4,B|256:256,2,150
432,192,19487,1,0
432,192,19718,1,0
376,272,19948,2,0,B|240:272,2,100
320,192,20641,2,0,B|312:96|232:72|136:80,2,200,8|8|8
168,328,22948,6,0,B|72:320|48:216|72:160,1,200,0|8
256,120,23871,2,0,B|256:240,2,100,0|0|8
328,48,24564,2,0,B|376:168,2,100
256,120,25256,2,0,B|168:232|304:272,1,200,8|0
352,184,25948,1,0
352,184,26179,1,8
360,280,26410,6,0,B|360:360|272:360,1,100
224,304,26871,2,0,B|224:208|296:200,2,100,0|8|0
128,280,27564,2,0,B|168:240|152:176,1,100
184,96,28025,2,0,B|312:96|336:256,2,200,8|8|8
232,184,30102,5,0
232,184,30333,1,0
232,288,30564,2,0,B|104:288,1,100,0|8
136,184,31025,2,0,B|24:184,1,100
96,104,31487,1,0
192,48,31718,2,0,B|280:48|320:128|312:200,2,200,8|8|8
224,144,33794,5,0
160,224,34025,1,0
224,296,34256,1,0
224,296,34487,1,0
288,224,34718,1,0
360,296,34948,6,0,B|416:240|408:128|344:88,1,200,4|0
320,200,35641,1,0
320,200,35871,1,0
320,200,36102,2,0,B|104:200,1,200
176,120,36794,2,0,B|400:120,2,200,4|0|0
128,208,37948,5,0
184,296,38179,1,0
280,304,38410,1,0
384,304,38641,2,0,B|464:224,1,100,4|0
392,152,39102,2,0,B|312:64,1,100
272,160,39564,2,0,B|160:160,1,100
224,240,40025,2,0,B|128:256|56:192|96:112,2,200,0|4|0
256,336,41179,6,0,B|368:280,1,100
360,192,41641,1,0
360,192,41871,1,0
360,88,42102,1,0
272,144,42333,2,0,B|216:264|80:232,1,200
176,312,43025,1,0
280,312,43256,2,0,B|296:184|120:168,1,200
64,184,43948,2,0,B|48:312|192:312,1,200
296,320,44641,5,0
360,248,44871,1,0
384,152,45102,1,0
328,64,45333,1,0
280,152,45564,2,0,B|144:152,1,100
360,248,46256,2,0,B|256:320|168:232,3,200,4|4|4|4
184,144,47871,2,0,B|280:72|384:160,1,200
272,176,48564,5,0
272,272,48794,1,0
376,272,49025,2,0,B|448:184,1,100
336,176,49487,1,0
336,176,49718,5,0
240,176,49948,1,0
136,176,50179,1,0
136,176,50294,1,0
136,176,50410,2,0,B|136:280|192:320|272:312,2,200
232,168,51564,2,0,B|232:72|312:56|384:72,1,200,4|0
304,144,52256,5,0
368,216,52487,1,0
432,296,52718,1,0
432,296,52948,1,0
368,216,53179,2,0,B|368:88,1,100
280,160,53641,5,0
240,192,53756,1,0
200,224,53871,1,0
136,296,54102,2,0,B|24:296,1,100
88,208,54564,2,0,B|96:64|160:48|224:48,1,200
288,56,55256,2,0,B|360:48|368:240,1,200,4|0
280,264,55948,5,0
280,264,56179,1,0
280,264,56410,1,0
176,264,56641,1,0
80,264,56871,1,0
80,160,57102,5,0
256,64,57564,1,0
432,160,58025,1,0
256,256,58487,2,0,B|256:136,1,100
256,64,58948,6,0,B|144:56|152:224,1,200
72,264,59641,1,0
144,336,59871,1,0
216,264,60102,1,0
320,264,60333,1,0
336,168,60564,2,0,B|248:88|128:192,1,200
256,192,61256,12,0,63102
256,40,63333,6,0,B|256:352,1,300
152,336,64256,2,0,B|152:216,1,100,0|12
56,336,64948,6,0,B|56:208,1,100,0|0
136,192,65410,1,8
216,128,65641,1,0
296,64,65871,2,0,B|392:160,2,100,0|0|8
136,192,66794,6,0,B|224:280,1,100
288,208,67256,1,0
360,144,67487,1,0
424,216,67718,1,8
352,280,67948,1,0
248,280,68179,2,0,B|40:280,1,200,4|8
104,200,68871,5,0
104,200,69102,1,0
104,200,69333,1,0
200,200,69564,2,0,B|200:64,1,100,8|0
304,104,70025,2,0,B|368:152|344:272|296:312,1,200,0|8
216,288,70718,5,0
304,104,71179,2,0,B|200:80|96:192|120:328,1,300,0|4
216,288,72102,2,0,B|272:200,1,100,0|8
368,208,72564,1,0
368,112,72794,1,0
264,112,73025,1,0
264,208,73256,1,8
320,296,73487,2,0,B|448:296,3,100,0|0|0|8
368,208,74410,5,0
368,112,74641,1,0
280,72,74871,1,0
184,112,75102,1,8
184,208,75333,1,0
96,264,75564,2,0,B|48:224|48:96|136:48,1,200,4|12
184,160,76256,6,0,B|312:160,1,100,0|0
384,160,76718,1,0
384,160,76948,1,8
384,160,77179,1,0
384,160,77410,2,0,B|408:288|264:312,1,200,0|8
288,208,78102,2,0,B|224:128|336:40|392:72,1,200,0|0
384,160,78794,2,0,B|464:248|344:344,1,200,8|4
64,192,92179,5,4
256,136,92641,1,4
448,192,93102,1,4
448,304,93333,6,0,B|320:304,1,100
248,304,93794,1,0
248,304,94025,2,0,B|240:176|120:168,2,200,0|0|0
352,304,95179,1,0
352,304,95410,1,0
352,208,95641,2,0,B|248:208,1,100,0|0
256,56,96217,5,0
208,56,96333,2,0,B|112:64|80:152|88:208,1,200,0|0
176,144,97025,2,0,B|264:224,1,100,0|0
152,240,97487,1,0
152,240,97717,2,0,B|152:336|272:336|312:320,3,200,0|0|0|0
400,152,99564,2,0,B|408:80|344:24|256:72,2,200
400,256,100717,5,0
312,304,100948,1,0
208,304,101179,1,0
120,256,101410,2,0,B|64:208|80:88|152:72,3,200
312,168,103256,6,0,B|96:168,1,200,0|0
112,72,103948,2,0,B|216:72,1,100,0|0
312,80,104410,1,0
384,152,104641,1,0
368,248,104871,1,0
264,248,105102,2,0,B|264:136,2,100,0|0|0
168,216,105794,2,0,B|168:344,2,100,0|0|0
256,168,106487,2,0,B|256:64|160:56|104:64,3,200,0|0|0|0
176,144,108102,5,0
104,216,108333,1,0
176,288,108564,1,0
280,288,108794,1,0
280,288,109025,1,0
384,288,109256,2,0,B|472:192|368:88,2,200,8|8|8
352,192,111564,6,0,B|240:192,1,100
304,104,112025,1,8
400,128,112256,1,0
432,224,112487,1,0
432,328,112717,2,0,B|320:328,1,100,0|8
328,224,113179,2,0,B|208:224,1,100
128,224,113641,1,0
128,120,113871,2,0,B|168:16|248:32|312:48,2,200,8|0|8
224,128,115025,5,0
304,200,115256,1,0
352,288,115487,1,0
248,288,115717,1,8
304,200,115948,1,0
304,96,116179,1,0
208,96,116410,1,0
104,96,116641,2,0,B|40:144|48:232|104:280,2,200,8|8|8
136,192,118717,5,0
136,192,118948,1,0
216,248,119179,1,0
312,248,119410,2,0,B|312:112,1,100,8|0
408,160,119871,1,0
216,160,120333,1,8
304,344,120794,2,0,B|304:136,3,200,0|8|0|8
392,192,122410,5,0
368,96,122641,1,0
272,56,122871,1,0
176,96,123102,1,0
144,192,123333,1,0
48,200,123564,6,0,B|56:328|160:320|224:304,1,200,4|0
280,312,124256,1,0
384,312,124487,2,0,B|440:232|416:144|344:120,1,200
368,32,125179,1,0
264,32,125410,2,0,B|160:72|144:152|160:216,1,200,4|0
264,144,126102,5,0
344,208,126333,1,0
264,272,126564,1,0
160,272,126794,1,0
160,272,127025,1,0
56,272,127256,6,0,B|32:136|168:96,1,200
160,208,127948,1,0
264,208,128179,1,0
360,208,128410,1,0
464,208,128641,2,0,B|464:80|352:72|328:72,2,200,0|4|0
376,168,129794,6,0,B|304:224,2,50
456,112,130256,1,0
384,48,130487,1,0
384,48,130717,1,0
384,48,130948,2,0,B|208:184,2,200
448,128,132102,2,0,B|360:200,1,100
368,296,132564,2,0,B|280:352|176:312|144:288,1,200
264,256,133256,5,0
264,160,133487,1,0
264,56,133717,2,0,B|136:56,2,100
368,56,134410,2,0,B|464:96|424:224|360:248,4,200,0|4|4|4|0
336,152,136487,2,0,B|120:152,1,200
192,72,137179,6,0,B|312:72,1,100
392,72,137641,1,0
392,72,137871,1,0
392,176,138102,1,0
392,176,138333,1,0
312,240,138564,5,0
208,240,138794,2,0,B|216:128|160:72|112:56,2,200
128,176,139948,1,0
64,248,140179,2,0,B|64:352|184:344|248:336,1,200,4|0
312,344,140871,5,0
416,344,141102,1,0
416,344,141333,1,0
368,256,141564,2,0,B|368:128,1,100
280,208,142025,1,0
208,272,142256,1,0
168,240,142371,1,0
136,208,142487,1,0
136,112,142717,2,0,B|136:-16,1,100
216,56,143179,2,0,B|304:144|200:248,1,200
112,232,143871,2,0,B|112:320|224:352|280:304,1,200,4|0
208,232,144564,5,0
208,232,144794,1,0
232,136,145025,1,0
304,208,145256,1,0
336,112,145487,1,0
408,40,145717,2,0,B|456:96|456:208|376:256,1,200
368,136,146410,1,0
264,136,146641,2,0,B|208:168|216:264|280:320,1,200
368,312,147333,2,0,B|368:88,1,200
264,112,148025,6,0,B|264:240,2,100
176,160,148717,1,0
176,264,148948,2,0,B|280:296,1,100
368,312,149410,2,0,B|424:224|360:104,1,200
256,192,149987,12,4,151948
392,192,152410,6,0,B|56:192,1,300,0|4
160,272,153333,1,0
256,304,153564,1,8
352,264,153794,1,0
256,224,154025,2,0,B|256:104,1,100
256,24,154487,1,8
256,24,154717,1,0
256,24,154948,2,0,B|256:256,1,200,0|8
256,328,155641,5,0
256,328,155871,1,0
256,224,156102,1,0
256,120,156333,2,0,B|136:136|136:272,1,200,8|4
40,256,157025,2,4,B|32:136|144:72,1,200,0|0
120,184,157717,1,0
208,232,157948,2,0,B|280:136,2,100,0|8|0
288,296,158641,2,0,B|424:272|384:128,1,200,0|8
392,56,159333,5,0
192,56,159794,2,0,B|112:128|112:256|288:288,1,300,0|4
360,288,160717,1,0
360,192,160948,1,8
360,88,161179,2,0,B|360:24|288:16,2,100
264,96,161871,2,0,B|176:160,2,100,8|0|0
360,88,162564,2,0,B|360:176|272:248|216:256,1,200
152,248,163256,5,0
80,184,163487,1,0
152,112,163718,1,8
256,112,163948,2,0,B|384:112,1,100,0|4
456,120,164410,2,0,B|472:248|320:288,1,200,0|0
256,280,165102,2,0,B|256:360,2,50
256,176,165564,2,0,B|256:104,2,50,8|0|0
344,224,166025,2,0,B|368:80|248:48,1,200,0|8
272,160,166718,6,0,B|200:256|96:224|72:152,1,200
176,128,167410,2,0,B|184:64|320:40|368:88,1,200,8|0
272,144,168102,1,0
272,144,168333,1,8
328,224,168564,1,0
328,224,168794,1,0
384,312,169025,2,0,B|248:312,2,100,0|8|0
424,224,169718,2,0,B|440:104|320:64,2,200,0|8|0
344,168,170871,6,0,B|256:232,1,100,0|8
360,264,171333,2,0,B|440:344,1,100,0|4
456,240,171794,2,0,B|456:112|352:72,1,200
368,176,172487,1,0
264,176,172718,1,0
216,176,172833,1,0
168,176,172948,1,12
48,336,173410,2,0,B|120:232|224:312,1,200,0|8
320,304,174102,6,0,B|472:288|408:136,1,200
376,192,174679,1,0
328,216,174794,2,0,B|272:88|432:64,1,200,8|4
424,168,175487,1,0
424,264,175718,1,8
344,328,175948,2,0,B|112:328,1,200
64,272,176641,1,8
64,176,176871,1,0
136,104,177102,2,0,B|352:104,1,200,0|8
264,32,177794,6,0,B|400:32,1,100
312,120,178256,1,0
312,216,178487,1,8
312,320,178718,2,0,B|208:320,2,100,0|4|0
400,264,179410,2,0,B|472:176|400:64,2,200,8|0|8
336,184,180564,1,0
216,184,180794,2,0,B|176:104|56:136|56:208,1,200
256,192,181371,12,4,182641
