osu file format v8

[General]
AudioFilename: akon feat david guetta - sexy bitch(2).mp3
AudioLeadIn: 1996
PreviewTime: 62973
Countdown: 0
SampleSet: Soft
StackLeniency: 0.7
Mode: 0
LetterboxInBreaks: 0
EpilepsyWarning: 1

[Editor]
DistanceSpacing: 1
BeatDivisor: 4
GridSize: 8

[Metadata]
Title:Sexy Bitch
Artist:David Guetta ft. Akon
Creator:darck360
Version:Easy
Source:
Tags:Electro house hop dancepop

[Difficulty]
HPDrainRate:2
CircleSize:3
OverallDifficulty:2
ApproachRate:2
SliderMultiplier:1.3
SliderTickRate:2

[Events]
//Background and Video events
0,0,"Sexy Bitch Wallpaper.jpg"
//Break Periods
2,18071,18619
2,31918,33388
2,79456,92004
2,150071,151542
//Storyboard Layer 0 (Background)
//Storyboard Layer 1 (Fail)
//Storyboard Layer 2 (Pass)
//Storyboard Layer 3 (Foreground)
//Storyboard Sound Samples
//Background Colour Transformations
3,100,163,162,255

[TimingPoints]
1718,461.538461538462,4,2,0,60,1,0
34833,-100,4,1,0,60,0,0
64487,-100,4,1,0,60,0,1
79256,-100,4,1,0,60,0,0
93333,-100,4,2,0,60,0,0
122410,-100,4,1,0,60,0,0
153102,-100,4,1,0,60,0,1
181025,-100,4,1,0,60,0,0

[Colours]
Combo1 : 86,248,196
Combo2 : 128,0,255
Combo3 : 130,245,255
Combo4 : 148,40,255
SliderBorder : 192,192,192

[HitObjects]
256,48,4718,2,0,B|256:264,1,195
128,200,5871,1,8
128,328,6333,1,0
256,328,6794,2,0,B|368:352|432:256|432:160,1,260,8|8
424,56,8179,6,0,B|272:56,1,130,0|8
168,64,9102,1,0
168,192,9564,2,0,B|312:192,2,130,8|0|8
40,192,10948,2,0,B|128:72,1,130,0|8
248,88,11871,1,0
376,88,12333,5,8
376,216,12794,1,0
256,272,13256,1,8
136,216,13718,1,0
256,176,14179,2,0,B|256:16,1,130,8|0
136,104,15102,6,0,B|136:264,1,130,8|0
256,176,16025,2,0,B|320:224|288:312,1,130,8|0
168,296,16948,1,8
168,296,17410,1,0
168,296,17871,1,8
248,192,20179,5,0
248,320,20641,2,8,B|80:320|56:240|64:160,2,260,8|12|8
256,192,22948,5,0
256,64,23410,1,8
384,64,23871,2,0,B|384:216,1,130,0|8
376,320,24794,2,0,B|216:320,2,130,0|8|0
376,192,26179,2,0,B|376:56,1,130,8|0
256,120,27102,5,8
128,120,27564,1,0
120,248,28025,2,0,B|176:312|296:312|360:240,2,260,8|4|8
240,200,30333,5,0
240,72,30794,1,8
240,200,31256,1,0
128,128,31718,1,8
248,56,34948,5,4
376,56,35410,2,0,B|440:128|424:248|368:328,2,260,0|0|0
312,168,37718,5,0
192,168,38179,1,0
120,56,38641,2,0,B|48:112|24:224|128:312,2,260,4|0|4
312,168,41410,5,0
440,168,41871,2,0,B|440:320,1,130
312,296,42794,2,0,B|312:144,3,130
184,200,44641,6,0,B|184:96|288:64|392:64,2,260,0|0|4
312,184,46948,2,0,B|312:320|96:320,2,260,0|0|0
184,184,49256,5,0
56,184,49718,1,0
120,72,50179,2,0,B|384:72,1,260,8|8
376,200,51564,2,0,B|224:200,1,130,0|8
112,200,52487,6,0,B|128:304|280:344|336:320,1,260
320,192,53871,2,0,B|320:40,2,130,8|0|8
192,184,55256,1,0
192,312,55718,2,0,B|352:312,1,130,8|0
320,184,56641,5,8
192,184,57102,2,4,B|192:72|336:48|400:56,3,260
336,176,60333,5,8
336,304,60794,1,0
208,304,61256,2,0,B|96:232,1,130,8|0
104,104,62179,2,0,B|256:104,1,130,8|0
432,120,63333,2,0,B|432:240|368:304|256:304|208:304,1,325,0|4
88,304,64948,6,0,B|88:24,1,260,8|8
216,40,66333,2,0,B|368:40,1,130,0|8
288,160,67256,1,0
288,288,67718,1,8
288,160,68179,6,0,B|192:184|88:136|56:32,2,260,4|0|0
248,352,70718,2,0,B|336:360|464:248|432:112,1,325,0|4
304,160,72333,5,8
200,80,72794,1,0
96,160,73256,1,8
64,32,73718,2,0,B|352:32,1,260
456,48,75102,6,0,B|456:208,1,130,8|0
328,192,76025,2,0,B|72:328,1,260,8|8
72,184,77410,2,4,B|200:120,4,130,4|12|4|12|4
256,192,93564,5,0
128,192,94025,2,0,B|208:328,1,130
320,304,94948,2,0,B|448:248|432:120|384:64,1,260,0|0
272,88,96333,5,0
272,216,96794,1,0
144,216,97256,1,0
144,344,97718,2,0,B|416:344,3,260,0|0|0|0
400,216,100948,5,0
304,128,101410,1,0
208,224,101871,2,0,B|168:112|80:112|24:232,2,260
336,224,104179,5,0
424,128,104641,1,0
336,32,105102,1,0
248,128,105564,2,0,B|96:128,1,130
112,256,106487,2,0,B|264:256,1,130
352,192,107410,1,0
352,192,107871,1,0
224,192,108333,5,0
96,192,108794,1,0
96,320,109256,2,8,B|368:320,2,260
152,200,111564,5,0
152,72,112025,1,8
272,120,112487,2,0,B|424:120,1,130,0|8
368,248,113410,2,0,B|216:248,1,130,0|8
128,312,114333,2,0,B|128:152,1,130,0|8
240,248,115256,5,0
368,248,115718,1,8
368,120,116179,1,0
240,120,116641,2,0,B|168:32|72:32|8:144,2,260,8|8|8
120,192,118948,5,0
120,192,119410,1,8
120,192,119871,1,0
120,320,120333,2,8,B|272:352|368:208,2,260
112,192,122641,6,0,B|264:192,2,130,0|0|4
112,64,124025,1,0
240,64,124487,1,0
368,64,124948,1,0
368,192,125410,2,0,B|304:288|216:288|136:160,2,260,4|0|4
256,128,127718,5,0
256,256,128179,1,0
384,256,128641,1,0
384,128,129102,2,0,B|304:32|176:24|136:48,1,260,4|0
240,136,130487,6,0,B|128:232,1,130
264,256,131410,1,0
392,256,131871,1,0
384,128,132333,2,0,B|304:72|184:88|128:136,1,260
256,176,133718,5,0
256,304,134179,1,0
128,304,134641,1,0
128,176,135102,2,0,B|128:32,3,130
256,80,136948,6,0,B|392:72|464:184|464:224,2,260,0|0|8
312,192,139256,1,0
312,192,139718,1,8
184,192,140179,2,0,B|192:288|272:320|384:296,1,260,4|0
392,168,141564,5,8
264,168,142025,1,0
136,168,142487,1,8
264,168,142948,2,0,B|264:320,1,130,0|8
392,296,143871,2,0,B|392:16,1,260,4|0
288,112,145256,5,8
288,240,145718,1,0
168,184,146179,2,0,B|24:184,2,130,8|0|8
296,184,147564,2,0,B|440:184,1,130,0|8
296,184,148487,5,0
168,184,148948,1,4
168,184,149410,1,4
168,184,149871,1,4
240,48,153102,5,0
368,48,153564,2,8,B|440:104|424:272|360:312,1,260
296,192,154948,2,0,B|152:192,1,130,0|8
32,192,155871,1,0
120,288,156333,1,8
248,296,156794,6,0,B|392:296|464:184|456:136,1,260,4|0
328,184,158179,1,8
256,80,158641,1,0
128,80,159102,2,8,B|128:352,1,260
256,336,160487,6,0,B|400:288|416:136,1,260,4|0
296,200,161871,2,0,B|184:96,2,130,8|0|8
400,280,163256,1,0
408,152,163717,6,8,B|392:48|280:32|168:56,1,260
264,160,165102,1,0
160,240,165564,1,8
264,312,166025,2,0,B|416:312,1,130,0|8
344,192,166948,6,0,B|344:48|248:32|160:32,1,260,0|4
216,160,168333,1,8
120,240,168794,1,0
216,328,169256,1,8
312,248,169717,2,0,B|312:88,2,130,0|8|0
192,208,171102,1,8
64,208,171564,5,4
64,208,172025,2,0,B|64:96|208:64|272:56,1,260,8|8
208,184,173410,1,0
208,184,173871,1,8
336,192,174333,2,0,B|240:320,1,130,0|8
128,288,175256,6,0,B|128:112|248:56,1,260,4|0
264,192,176641,2,8,B|400:192,2,130,8|0|8
112,192,178025,2,0,B|112:344,2,130,0|8|4
240,192,179410,2,0,B|280:80|400:64|448:64,1,260,8|8
256,192,180794,12,4,182641
