osu file format v9

[General]
AudioFilename: I Can Only Imagine.mp3
AudioLeadIn: 0
PreviewTime: 74681
Countdown: 1
SampleSet: Soft
StackLeniency: 0.5
Mode: 0
LetterboxInBreaks: 1
StoryFireInFront: 0
EpilepsyWarning: 1
CountdownOffset: 1

[Editor]
DistanceSpacing: 1
BeatDivisor: 4
GridSize: 4

[Metadata]
Title:I Can Only Imagine
Artist:David Guetta feat. Lil Wayne & Chris Brown
Creator:alissya
Version:Hard
Source:
Tags:Antu_Villegas vivere kurisuchianu Roddie

[Difficulty]
HPDrainRate:6
CircleSize:3
OverallDifficulty:9
ApproachRate:7
SliderMultiplier:2.4
SliderTickRate:2

[Events]
//Background and Video events
0,0,"Background.jpg"
//Break Periods
2,192208,198960
//Storyboard Layer 0 (Background)
Sprite,Background,Centre,"SB\Colors of lights.png",320,240 L,10,2 F,0,75618,,1 M,0,75618,76556,-307,347,959,347 F,0,75618,78431,1 M,0,76556,77493,959,347,960,347 M,0,77493,78431,960,347,-307,347 F,0,78431,79368,1,0 F,0,79368,83118,0
Sprite,Background,Centre,"SB\Colors of lights.png",320,240 L,10,2 M,0,77493,78431,-307,-70,960,-70 F,0,77493,78431,1 F,0,78431,81243,1,0 F,0,81243,84993,0
Sprite,Background,Centre,"SB\Colors of lights.png",320,240 L,10,2 M,0,79368,80306,960,389,-306,389 F,0,79368,82181,1 M,0,80306,81243,-306,389,-306,390 M,0,81243,82181,-306,390,960,390 F,0,82181,86868,1,0
Sprite,Background,Centre,"SB\Colors of lights.png",320,240 L,10,2 M,0,81243,82181,960,-79,-307,-79 F,0,81243,82181,1 F,0,82181,88743,1,0
Sprite,Background,Centre,"SB\Colors of lights.png",320,240 L,10,3 M,0,180149,180618,320,720,320,-232 M,0,180618,181087,320,-232,320,720 M,0,181087,183899,320,720 S,0,180159,,1.13312
Sprite,Background,Centre,"SB\Colors of lights.png",320,240 F,0,193753,,1 M,0,193753,194690,-308,381,961,381 M,0,194690,195159,961,381,960,381 M,0,195159,196097,960,381,-307,381
Sprite,Background,Centre,"SB\Colors of lights.png",320,240 M,0,195159,196097,-307,-62,960,-62
Sprite,Background,Centre,"SB\Colors of lights.png",320,240 M,0,201253,202190,961,382,-307,382 M,0,202190,202659,-307,382,-306,382 M,0,202659,203597,-306,382,959,382
Sprite,Background,Centre,"SB\Colors of lights.png",320,240 M,0,202659,203597,960,-63,-307,-63
//Storyboard Layer 1 (Fail)
//Storyboard Layer 2 (Pass)
//Storyboard Layer 3 (Foreground)
Sprite,Foreground,Centre,"SB\Strobes.png",320,240 L,10,7 M,0,93431,,320,240 F,0,93431,93900,1,0 F,0,93900,97181,0
Sprite,Foreground,Centre,"SB\Black.jpg",320,240 S,0,67660,,1 F,0,67660,74691,0,1
Sprite,Foreground,Centre,"SB\Strobes.png",320,240 M,0,14691,,320,240 F,0,14691,15160,1,0
Sprite,Foreground,Centre,"SB\Strobes.png",320,240 L,10,3 F,0,16556,17025,1,0 P,0,16556,17025,H F,0,17025,24056,0
Sprite,Foreground,Centre,"SB\Strobes.png",320,240 L,10,3 F,0,20306,20775,1,0 F,0,20775,27806,0
Sprite,Foreground,Centre,"SB\Black.jpg",320,240 F,0,35785,37660,0,0.5990401
Sprite,Foreground,Centre,"SB\Black.jpg",320,240 L,10,8 M,0,37650,,320,240 F,0,37650,41400,0.02048004,0.80032
Sprite,Foreground,Centre,"SB\White.jpg",320,240 F,0,7660,8128,0.62624,0
Sprite,Foreground,Centre,"SB\White.jpg",320,240 L,10,12 F,0,15150,15618,0.3958398,0 F,0,15618,17025,0
Sprite,Foreground,Centre,"SB\White.jpg",320,240 M,0,74691,,320,240 F,0,74691,75160,1,0
Sprite,Foreground,Centre,"SB\Light.png",320,240 M,0,6253,,320,240 F,0,6253,7660,0,0.62976 S,0,6253,7660,0.1,1.00112
Sprite,Foreground,Centre,"SB\Black.jpg",320,240 M,0,118285,,320,240 F,0,118285,120160,0,0.7731201
Sprite,Foreground,Centre,"SB\Black.jpg",320,240 L,10,8 F,0,120150,123900,0.02048004,0.80032
Sprite,Foreground,Centre,"SB\Lights.png",320,240 L,10,8 F,0,75150,75618,0,1 F,0,75618,76556,1 F,0,76556,77025,1,0
Sprite,Foreground,Centre,"SB\Background.jpg",320,240 L,10,7 F,0,75150,75618,1,0 S,0,75150,75618,1,1.1024 F,0,75618,77025,0
Sprite,Foreground,Centre,"SB\Background.jpg",320,240 M,0,90160,,320,240 F,0,90160,91097,1,0 S,0,90160,91097,0.9999998,1.23552
Sprite,Foreground,Centre,"SB\Strobes.png",320,240 L,10,4 M,0,75618,,320,240 F,0,75618,76087,1,0 F,0,76087,79368,0
Sprite,Foreground,Centre,"SB\Strobes.png",320,240 L,10,4 F,0,77493,77962,1,0 P,0,77493,77962,H F,0,77962,81243,0
Sprite,Foreground,Centre,"SB\White.jpg",320,240 M,0,90160,,320,240 F,0,90160,90628,1,0
Sprite,Foreground,Centre,"SB\Light.png",320,240 F,0,88285,90160,0,1 S,0,88285,90160,0.47776,1
Sprite,Foreground,Centre,"SB\Background.jpg",320,240 F,0,120160,122035,1,0 S,0,120160,122035,1,1.24576
Sprite,Foreground,Centre,"SB\Background.jpg",320,240 F,0,37660,39535,1,0 S,0,37660,39535,1,1.24576
Sprite,Foreground,Centre,"SB\Background.jpg",320,240 S,0,157191,,1 F,0,157191,172660,0,1
Sprite,Foreground,Centre,"SB\Background.jpg",320,240 F,0,176878,177347,1,0 S,0,176878,177347,1,1.1024
Sprite,Foreground,Centre,"SB\White.jpg",320,240 S,0,172660,,1 F,0,172660,176878,0,1 F,0,176878,177347,1,0
Sprite,Foreground,Centre,"SB\Lights 2.png",320,240 M,0,177347,,320,240 F,0,177347,190940,1
Sprite,Foreground,Centre,"SB\Lights.png",320,240 F,0,191878,192815,1 M,0,192815,,320,240 F,0,192815,206409,1
Sprite,Foreground,Centre,"SB\Background.jpg",320,240 F,0,191057,191409,0,0.4572801 F,0,191409,191878,0.4572801,1
Sprite,Foreground,Centre,"SB\Background.jpg",320,240 L,10,9 M,0,177337,,320,240 F,0,177337,177805,1,0 S,0,177337,177805,1,1.1024 F,0,177805,179212,0
Sprite,Foreground,Centre,"SB\Strobes.png",320,240 L,10,16 M,0,177805,,320,240 F,0,177805,178274,0.5,0 F,0,178274,178743,0
Sprite,Foreground,Centre,"SB\White.jpg",320,240 F,0,191878,192347,1,0
Sprite,Foreground,Centre,"SB\Background.jpg",320,240 F,0,199378,199847,1,0 S,0,199378,199847,1,1.1024
Sprite,Foreground,Centre,"SB\Strobes.png",320,240 L,10,7 M,0,193743,,320,240 F,0,193743,194212,1,0 F,0,194212,195618,0
Sprite,Foreground,Centre,"SB\Background.jpg",320,240 M,0,198440,,320,240 F,0,198440,198909,0,1 F,0,198909,199378,1
Sprite,Foreground,Centre,"SB\Black.jpg",320,240 S,0,205940,,1 F,0,205940,206175,0,1 F,0,206175,213901,1
Sprite,Foreground,Centre,"SB\White.jpg",320,240 S,0,205940,,1 F,0,205940,206409,1,0
Sprite,Foreground,Centre,"SB\Black.jpg",320,240 F,0,150160,153910,0,1 F,0,153910,157660,1
Sprite,Foreground,Centre,"SB\Light.png",320,240 F,0,153910,157660,0,1 S,0,153910,157660,0.1,1.00112
Sprite,Foreground,Centre,"SB\White.jpg",320,240 F,0,157660,158128,1,0
Sprite,Foreground,Centre,"SB\Light.png",320,240 F,0,176878,177347,1,0 S,0,176878,177347,1.00112,0.1
Sprite,Foreground,Centre,"SB\Light.png",320,240 M,0,71410,,320,240 F,0,71410,74691,0,1 S,0,71410,74691,0.1,1.00112
Sprite,Foreground,Centre,"SB\Light.png",320,240 M,0,170785,,320,240 F,0,170785,170902,1,0 S,0,170785,172660,0.1,1.00112 F,0,170902,171019,0,1 F,0,171019,171136,1,0 F,0,171136,171253,0,1 F,0,171253,171370,1,0 F,0,171370,171488,0,1 F,0,171488,171605,1,0 F,0,171605,171722,0,1 F,0,171722,171781,1,0 F,0,171781,171839,0,1 F,0,171839,171898,1,0 F,0,171898,171956,0,1 F,0,171956,172015,1,0 F,0,172015,172074,0,1 F,0,172074,172132,1,0 F,0,172132,172191,0,1 F,0,172191,172249,1,0 F,0,172249,172308,0,1 F,0,172308,172367,1,0 F,0,172367,172425,0,1 F,0,172425,172484,1,0 F,0,172484,172542,0,1 F,0,172542,172601,1,0 F,0,172601,172660,0,1
Sprite,Foreground,Centre,"SB\Light.png",320,240 F,0,204534,205940,0,1 S,0,204534,205940,0.1,1.00112
//Storyboard Sound Samples
//Background Colour Transformations
3,100,0,0,0

[TimingPoints]
7660,468.75,4,2,0,70,1,0
14574,-100,4,2,1,90,0,0
52542,-100,4,2,0,50,0,0
71410,-100,4,2,1,70,0,0
75042,-100,4,2,1,100,0,0
75160,-100,4,2,1,100,0,1
90042,-100,4,2,1,80,0,1
90160,-100,4,2,1,80,0,0
133285,-100,4,2,0,50,0,0
150404,-100,4,2,0,30,0,0
157542,-100,4,2,1,80,0,0
177360,468.75,4,2,1,100,1,0
205953,-100,4,2,1,50,0,0

[Colours]
Combo1 : 0,145,232
Combo2 : 0,255,255
Combo3 : 196,0,244
Combo4 : 90,0,164
SliderBorder : 128,128,128

[HitObjects]
260,288,7660,1,10
92,316,8128,6,0,B|36:276|24:208|76:92|136:68,1,240
76,100,9066,5,0
52,220,9417,6,0,B|96:260|192:292|304:160|292:72,1,300
284,64,10355,6,0,B|408:96,1,120
404,160,10824,2,0,B|356:296,1,120
300,256,11292,2,0,B|168:236,1,120
288,152,11995,5,0
176,272,12816,5,0
288,316,13285,1,0
244,252,13988,1,0
244,252,14105,1,0
260,148,14456,1,0
200,136,14691,1,0
100,272,15042,6,0,B|36:220|28:128|48:104,2,180
416,320,17503,6,0,B|464:276|440:244|408:248|368:272|352:308,2,120
52,128,18910,2,0,B|216:168,4,120
88,136,21253,1,0
176,88,21722,1,0
220,236,22191,1,0
256,296,22660,5,0
144,208,23128,1,0
356,208,23597,1,0
244,72,24066,1,0
28,168,24535,6,0,B|28:96|28:96|56:28|56:28|128:4|128:4|196:8|192:8|192:8|224:64|224:64|228:124|228:124|212:164|212:164|184:204|184:204|136:224|136:224|68:232|68:232|20:208|20:208|32:160|32:160,1,720
120,120,26410,5,0
260,184,26878,1,0
216,296,27347,1,0
100,296,27816,1,0
328,336,28285,1,0
404,192,28753,1,0
8,28,29574,6,0,B|96:32|96:32|8:104|8:104|108:112|108:112,1,300
492,352,30511,6,0,B|376:352|376:352|496:300|496:300|360:292|360:292,1,360
484,20,31566,2,0,B|404:36|404:36|504:68|504:68|384:96|384:96,1,300
16,356,32503,6,0,B|112:340|112:340|24:308|20:308|104:288|104:288|36:272,1,300
264,24,33441,6,0,B|220:40|188:52|172:104|228:132|260:100|276:92|284:92|308:92|320:96|344:112|348:120|344:132|320:144|300:148|276:156|260:152|232:152|196:136|184:136|164:136|160:140|152:152|160:168|168:184|184:184|216:188|228:188|252:188|280:184|300:180|320:176|344:172|360:184|368:204|368:224|360:240|332:248|328:248|308:248|280:240|252:228|228:224|216:220|172:216|152:220|148:224|148:240|156:256|180:272|208:272|220:272|248:272|288:272|324:268|356:272|368:288|344:312|288:328|216:312|156:308|148:332|232:372|292:372|300:320|288:316|240:272|256:244|292:164|236:124|236:76|224:76,1,960
256,116,35667,5,0
408,268,36253,1,0
84,256,36956,5,0
84,256,37191,1,0
124,192,37425,6,0,B|128:108|128:108|208:104|208:104,1,120
16,24,40003,6,0,B|96:40,1,60
74,35,40472,2,0,B|60:144,1,60
66,95,40824,2,0,B|176:104|176:104|84:152|56:176|52:208|80:268|152:284|244:292|372:252|380:108|380:104,1,600
52,344,43753,6,0,B|96:328|96:328|40:296|40:296|32:288,1,120
488,352,44339,6,0,B|416:332|416:332|476:288|476:288|496:280,1,120
224,20,44808,6,0,B|288:48|288:48|216:80|216:80|292:104|292:104|228:128|228:128|296:148|296:148|224:176|224:176|288:180|288:180|228:220|228:220|288:240|288:240|232:252|228:252|296:264|296:264|224:296|224:296|304:312|304:312|252:328|244:332|292:340|292:340|232:348|232:348|312:360|312:360|240:372|240:372,1,1140
280,368,47738,5,0
104,304,48206,1,0
192,200,48441,1,0
312,128,48675,1,0
32,240,49613,6,0,B|28:176|28:176|104:176|104:176|112:132|136:100|176:56|224:20|264:0|308:4|348:12|384:44|400:120|408:172|412:184|412:184|496:184|496:184|496:264|496:264,1,780
24,232,51839,6,0,B|24:296|24:296|124:288|120:288|96:248|96:248|180:264|180:264|128:236|80:208|48:116|100:60|196:24|292:8|368:20|404:24|464:36|492:56|508:88|512:120|512:140|512:160|508:196|504:216|508:260|504:280|500:324|476:332|440:336|400:340|340:344|288:336|268:328|248:292|264:280|292:272|320:272|336:272|368:240|356:208|332:208|300:204|288:208,1,1320
328,232,55003,5,0
144,296,55472,1,0
80,192,55941,1,0
176,224,56175,6,0,B|72:244|36:152|96:68|236:36|364:68|448:108|480:284|464:324|468:368|468:376,1,660
32,352,58870,6,0,B|100:308,1,60
82,319,59222,2,0,B|16:248,1,60
41,275,59574,2,0,B|92:224,1,60
83,232,59925,6,0,B|32:192|64:152|116:168|136:228|160:232|172:200|164:164|128:136|124:136|100:132,1,180
144,152,60745,6,0,B|212:140|212:140|224:216|224:216|296:204|296:204|348:204|368:176|328:128|248:124|240:56|304:48|352:52|428:136|424:256|392:288|364:304|340:316,1,660
339,316,62386,5,0
232,308,62620,1,0
72,304,63206,1,0
72,304,63441,1,0
72,304,63675,1,0
48,124,64613,6,0,B|200:148,1,120
76,160,65550,1,0
84,304,66488,5,0
84,304,66956,1,0
84,304,67191,1,0
84,304,67425,1,0
88,112,68363,5,0
124,212,69183,1,0
96,64,70120,6,0,B|236:64|236:64,3,120
68,248,71761,6,0,B|56:116|56:116|152:104|152:104,1,180
188,244,72581,6,0,B|180:96|180:96|112:104|112:104,1,180
72,44,73285,6,0,B|76:184|76:184|132:168|132:168,1,180
188,40,73988,6,0,B|192:176|192:176|136:184|136:184,1,180
56,204,74574,6,0,B|64:124|64:124|136:116|136:116|100:40|100:40|136:88,1,240
188,248,75160,5,0
108,140,75628,1,0
288,112,76097,1,0
288,256,76566,1,0
200,132,77035,1,0
80,120,77386,1,0
176,160,77620,1,0
352,280,77855,1,0
276,284,77972,1,0
196,260,78206,1,0
244,208,78441,1,0
248,172,78675,1,0
28,140,79144,6,0,B|80:84,2,60
84,188,79613,6,0,B|140:120,2,60
152,232,80081,6,0,B|196:160,2,60
212,260,80667,2,0,B|248:192,2,60
472,64,81605,1,0
480,136,81722,1,0
420,336,81956,1,0
256,340,82191,1,0
140,324,82425,1,0
32,32,83011,6,0,B|128:80|128:80|184:16|184:16|224:104|224:104|248:28|248:28|308:80|308:80,1,420
56,112,84183,6,0,B|68:232|68:232|112:204|112:204|120:136|120:136|168:144|168:144,1,240
36,336,85120,5,0
76,48,85355,1,0
136,112,85472,1,0
392,296,85706,1,0
400,156,85941,1,0
356,112,86175,1,0
36,336,86527,6,0,B|56:272|56:272|120:256|120:256|120:168|120:168|208:176|204:132|196:116,2,300
76,88,88402,5,0
196,80,88519,1,0
76,188,88753,1,0
176,176,88988,1,0
336,208,89222,1,0
356,284,89339,1,0
428,300,89456,1,0
448,232,89574,1,0
464,160,89691,1,0
412,104,89808,1,0
340,92,89925,1,0
272,96,90042,1,0
228,152,90160,1,0
284,8,90628,1,0
200,80,90863,1,0
92,84,91097,1,0
100,184,91214,1,0
200,212,91449,1,0
148,280,91566,1,0
148,280,91683,1,0
148,280,91917,1,0
148,280,92035,1,0
208,324,92152,1,0
64,324,92503,5,0
152,184,92855,1,0
244,96,93089,1,0
312,48,93206,1,0
384,88,93324,1,0
248,168,93558,1,0
320,208,93675,1,0
384,160,93792,1,0
316,132,94027,1,0
316,132,94144,1,0
328,264,94261,1,0
96,68,94730,1,0
160,64,94964,1,0
96,140,95081,1,0
168,136,95199,1,0
320,56,95433,1,0
328,124,95550,1,0
20,360,95667,1,0
84,352,95785,1,0
252,244,96019,1,0
80,224,96136,1,0
80,224,96253,1,0
108,112,97074,5,0
232,160,97191,1,0
52,132,97660,2,0,B|300:128,1,240
68,244,99066,2,0,B|344:252,1,240
112,116,100472,1,0
92,216,101410,5,0
112,116,101878,1,0
160,252,102816,1,0
192,140,103167,1,0
248,284,103753,1,0
80,204,104222,1,0
236,216,104691,1,0
156,272,105160,1,0
56,112,106097,2,0,B|296:120,1,240
52,312,107503,5,0
168,304,107972,1,0
192,220,108441,1,0
88,260,108910,6,0,B|44:224|44:224|104:184|104:184|24:156|24:156|152:0|168:0|224:8|284:20|324:40|388:88|376:148|372:168|372:168|468:184|468:184|364:224|364:224|456:244|456:244|480:252|480:252|424:248,1,1080
436,248,111605,5,0
88,248,112074,1,0
324,312,112542,1,0
8,20,112894,6,0,B|72:88|72:88|16:152|16:156|16:156|72:264|56:224|56:224|-4:340|-4:340|100:368|100:368|156:304|156:304|260:360|260:360|352:276|352:276|448:364|448:364|512:292|512:292|436:260|436:260|500:220|500:220|432:176|432:176|520:148|520:148|448:84|448:84|500:64|500:64|428:36|428:36|368:32|368:32|368:144|368:144|408:176|408:176|408:248|336:240|336:240|288:260|268:284|252:300|248:308|248:308|148:248|144:248|64:316|64:316|120:192|48:168|64:168|64:168|144:88|144:88|88:32|88:32|248:72|252:68|248:32|280:60|252:108|264:132|200:164|208:192|136:180|164:184|328:200|328:200|308:144|304:144|184:136|184:136|132:184|132:184,1,3300
156,168,120160,5,0
84,296,122503,5,0
84,296,122738,1,0
76,216,122972,1,0
76,216,123206,1,0
56,116,123441,6,0,B|128:108,1,60
112,32,123792,6,0,B|40:32|32:60|16:104|8:144|8:208|8:340|40:360|80:356|136:364|200:360|280:368|320:372|392:368|448:352|480:312|504:260|476:144|492:60|456:44|428:44|432:32|400:36|392:48|384:52,1,1020
280,216,126253,5,0
56,244,126722,1,0
56,244,126956,1,0
156,148,127191,1,0
24,116,127425,6,0,B|52:40|52:40|80:128|80:128|104:56|104:56,1,240
180,64,128363,5,0
252,68,128831,1,0
252,68,128949,1,0
312,68,129300,6,0,B|444:88|440:92|248:160|248:160|252:160,1,240
252,192,130238,5,0
156,268,130706,1,0
156,268,130941,1,0
80,296,131175,6,0,B|28:268|16:216|64:164|96:160|84:160,1,120
120,176,132113,5,0
188,176,132581,1,0
188,176,132699,1,0
64,296,133753,5,0
52,224,134222,1,0
48,168,135160,6,0,B|72:80|100:48|108:40|184:40|220:52|192:116|188:116|144:160|136:164|228:168|228:168|240:76|240:76|132:112|132:112,1,540
40,348,137503,5,0
72,208,137972,1,0
72,208,138206,1,0
124,308,138792,6,0,B|12:272|12:132|140:40|328:68|408:80|424:84,1,540
168,304,141253,5,0
72,160,141722,1,0
72,160,141956,1,0
92,268,142425,6,0,B|168:104|168:104|200:228|200:228|200:244|200:240,1,300
197,219,143363,5,0
292,300,143714,1,0
292,300,143949,1,0
380,312,144300,6,0,B|288:56|288:56|268:216|268:216,1,420
228,220,145355,5,0
112,236,145706,1,0
112,236,145941,1,0
112,236,146175,1,0
252,336,146995,5,0
340,208,147581,1,0
340,208,147699,1,0
340,208,148050,1,0
72,276,148988,5,0
188,200,149456,1,0
188,200,149691,1,0
188,200,149925,1,0
64,80,150863,5,0
56,236,151683,1,0
168,276,152738,6,0,B|68:160|68:160|160:252|160:252|128:124|128:124|172:244|172:244|216:112|216:112|204:232|204:232|292:192|292:192|224:232|224:232|304:272|312:276|208:252|208:252|252:312|256:320|188:248|192:248|196:340|196:340|168:248|168:248|88:332|88:332|176:272|176:272,1,1560
172,272,156722,5,0
264,276,157191,1,0
116,152,157660,5,0
64,108,158128,1,0
224,156,158597,1,0
280,64,159066,1,0
136,204,159535,1,0
64,296,159886,1,0
188,220,160472,1,0
260,280,160941,1,0
24,28,161410,6,0,B|132:24|132:24|132:136|132:136,1,180
132,95,161878,2,0,B|136:220|132:220|136:212|136:212|216:208|216:208,1,180
193,209,162464,2,0,B|196:76|196:76|276:72|276:72,1,180
242,73,163050,2,0,B|356:184|356:184|308:252,1,240
308,250,163636,2,0,B|184:216|184:216|104:300|104:300,1,240
36,36,164691,6,0,B|96:32|96:32|132:32|152:32|192:32|236:28|280:32|304:32|328:28|364:36|420:36|452:36|476:32|508:40|508:88|508:88|508:176|508:208|504:232|492:284|496:328|464:376|504:340|504:352|492:368|480:372|468:372|448:368|448:368|376:360|292:364|240:364|152:352|88:360|24:352|16:352|12:352|-8:280|-4:232|0:160|20:108|24:56,1,1500
192,176,167855,5,0
344,176,168441,1,0
20,336,168910,6,0,B|36:188|36:188|144:292|144:292,1,300
480,24,169847,6,0,B|448:156|448:156|328:28|328:28,1,300
252,344,170785,6,0,B|132:192|132:192|264:28|264:28|376:188|376:188|240:364|240:364|216:372,1,840
112,180,172660,5,0
252,184,173597,1,0
376,232,174535,5,0
392,164,175003,1,0
272,96,175472,1,0
208,108,175706,1,0
128,132,175941,1,0
116,172,176058,1,0
140,256,176410,1,0
280,260,176878,5,0
292,200,177360,1,0
152,176,177828,1,0
152,176,178180,1,0
420,292,179117,5,0
416,140,179703,1,0
416,140,180172,1,0
296,140,180641,1,0
132,292,181110,5,0
132,292,181578,1,0
132,292,182047,1,0
152,236,182516,1,0
88,88,182985,5,0
88,88,183453,1,0
32,328,183688,6,0,B|32:68,1,240
488,344,184391,6,0,B|488:124,1,180
124,204,185211,5,0
216,64,186266,1,0
252,288,186735,1,0
436,292,187203,1,0
108,192,187672,1,0
340,160,188141,1,0
12,72,188610,5,0
12,72,188727,1,0
152,68,189078,1,0
152,68,189313,1,0
48,208,189547,1,0
48,208,189664,1,0
228,224,190016,1,0
228,224,190133,1,0
88,312,190485,1,0
88,312,190719,1,0
240,312,190953,1,0
240,312,191070,1,0
304,280,191422,1,0
292,172,191539,1,0
304,280,191774,1,0
416,228,192008,1,0
12,16,199860,6,0,B|108:28|108:28|36:124|36:124,1,180
58,94,200328,6,0,B|-8:224|-8:224|56:272|56:272|96:288|96:288|104:176|104:176,1,360
256,192,201500,12,0,205485
88,100,206422,5,0
212,48,206656,1,0
316,184,206891,1,0
132,248,207125,1,0
