osu file format v9

[General]
AudioFilename: I Can Only Imagine.mp3
AudioLeadIn: 0
PreviewTime: 74681
Countdown: 1
SampleSet: Soft
StackLeniency: 0.5
Mode: 0
LetterboxInBreaks: 1
StoryFireInFront: 0
EpilepsyWarning: 1
CountdownOffset: 1

[Editor]
DistanceSpacing: 1
BeatDivisor: 4
GridSize: 4

[Metadata]
Title:I Can Only Imagine
Artist:David Guetta feat. Lil Wayne & Chris Brown
Creator:alissya
Version:Easy
Source:
Tags:Antu_Villegas vivere kurisuchianu Roddie

[Difficulty]
HPDrainRate:1
CircleSize:3
OverallDifficulty:1
ApproachRate:2
SliderMultiplier:0.9
SliderTickRate:1

[Events]
//Background and Video events
0,0,"Background.jpg"
//Break Periods
//Storyboard Layer 0 (Background)
Sprite,Background,Centre,"SB\Colors of lights.png",320,240 L,10,2 F,0,75618,,1 M,0,75618,76556,-307,347,959,347 F,0,75618,78431,1 M,0,76556,77493,959,347,960,347 M,0,77493,78431,960,347,-307,347 F,0,78431,79368,1,0 F,0,79368,83118,0
Sprite,Background,Centre,"SB\Colors of lights.png",320,240 L,10,2 M,0,77493,78431,-307,-70,960,-70 F,0,77493,78431,1 F,0,78431,81243,1,0 F,0,81243,84993,0
Sprite,Background,Centre,"SB\Colors of lights.png",320,240 L,10,2 M,0,79368,80306,960,389,-306,389 F,0,79368,82181,1 M,0,80306,81243,-306,389,-306,390 M,0,81243,82181,-306,390,960,390 F,0,82181,86868,1,0
Sprite,Background,Centre,"SB\Colors of lights.png",320,240 L,10,2 M,0,81243,82181,960,-79,-307,-79 F,0,81243,82181,1 F,0,82181,88743,1,0
Sprite,Background,Centre,"SB\Colors of lights.png",320,240 L,10,3 M,0,180149,180618,320,720,320,-232 M,0,180618,181087,320,-232,320,720 M,0,181087,183899,320,720 S,0,180159,,1.13312
Sprite,Background,Centre,"SB\Colors of lights.png",320,240 F,0,193753,,1 M,0,193753,194690,-308,381,961,381 M,0,194690,195159,961,381,960,381 M,0,195159,196097,960,381,-307,381
Sprite,Background,Centre,"SB\Colors of lights.png",320,240 M,0,195159,196097,-307,-62,960,-62
Sprite,Background,Centre,"SB\Colors of lights.png",320,240 M,0,201253,202190,961,382,-307,382 M,0,202190,202659,-307,382,-306,382 M,0,202659,203597,-306,382,959,382
Sprite,Background,Centre,"SB\Colors of lights.png",320,240 M,0,202659,203597,960,-63,-307,-63
//Storyboard Layer 1 (Fail)
//Storyboard Layer 2 (Pass)
//Storyboard Layer 3 (Foreground)
Sprite,Foreground,Centre,"SB\Strobes.png",320,240 L,10,7 M,0,93431,,320,240 F,0,93431,93900,1,0 F,0,93900,97181,0
Sprite,Foreground,Centre,"SB\Black.jpg",320,240 S,0,67660,,1 F,0,67660,74691,0,1
Sprite,Foreground,Centre,"SB\Strobes.png",320,240 M,0,14691,,320,240 F,0,14691,15160,1,0
Sprite,Foreground,Centre,"SB\Strobes.png",320,240 L,10,3 F,0,16556,17025,1,0 P,0,16556,17025,H F,0,17025,24056,0
Sprite,Foreground,Centre,"SB\Strobes.png",320,240 L,10,3 F,0,20306,20775,1,0 F,0,20775,27806,0
Sprite,Foreground,Centre,"SB\Black.jpg",320,240 F,0,35785,37660,0,0.5990401
Sprite,Foreground,Centre,"SB\Black.jpg",320,240 L,10,8 M,0,37650,,320,240 F,0,37650,41400,0.02048004,0.80032
Sprite,Foreground,Centre,"SB\White.jpg",320,240 F,0,7660,8128,0.62624,0
Sprite,Foreground,Centre,"SB\White.jpg",320,240 L,10,12 F,0,15150,15618,0.3958398,0 F,0,15618,17025,0
Sprite,Foreground,Centre,"SB\White.jpg",320,240 M,0,74691,,320,240 F,0,74691,75160,1,0
Sprite,Foreground,Centre,"SB\Light.png",320,240 M,0,6253,,320,240 F,0,6253,7660,0,0.62976 S,0,6253,7660,0.1,1.00112
Sprite,Foreground,Centre,"SB\Black.jpg",320,240 M,0,118285,,320,240 F,0,118285,120160,0,0.7731201
Sprite,Foreground,Centre,"SB\Black.jpg",320,240 L,10,8 F,0,120150,123900,0.02048004,0.80032
Sprite,Foreground,Centre,"SB\Lights.png",320,240 L,10,8 F,0,75150,75618,0,1 F,0,75618,76556,1 F,0,76556,77025,1,0
Sprite,Foreground,Centre,"SB\Background.jpg",320,240 L,10,7 F,0,75150,75618,1,0 S,0,75150,75618,1,1.1024 F,0,75618,77025,0
Sprite,Foreground,Centre,"SB\Background.jpg",320,240 M,0,90160,,320,240 F,0,90160,91097,1,0 S,0,90160,91097,0.9999998,1.23552
Sprite,Foreground,Centre,"SB\Strobes.png",320,240 L,10,4 M,0,75618,,320,240 F,0,75618,76087,1,0 F,0,76087,79368,0
Sprite,Foreground,Centre,"SB\Strobes.png",320,240 L,10,4 F,0,77493,77962,1,0 P,0,77493,77962,H F,0,77962,81243,0
Sprite,Foreground,Centre,"SB\White.jpg",320,240 M,0,90160,,320,240 F,0,90160,90628,1,0
Sprite,Foreground,Centre,"SB\Light.png",320,240 F,0,88285,90160,0,1 S,0,88285,90160,0.47776,1
Sprite,Foreground,Centre,"SB\Background.jpg",320,240 F,0,120160,122035,1,0 S,0,120160,122035,1,1.24576
Sprite,Foreground,Centre,"SB\Background.jpg",320,240 F,0,37660,39535,1,0 S,0,37660,39535,1,1.24576
Sprite,Foreground,Centre,"SB\Background.jpg",320,240 S,0,157191,,1 F,0,157191,172660,0,1
Sprite,Foreground,Centre,"SB\Background.jpg",320,240 F,0,176878,177347,1,0 S,0,176878,177347,1,1.1024
Sprite,Foreground,Centre,"SB\White.jpg",320,240 S,0,172660,,1 F,0,172660,176878,0,1 F,0,176878,177347,1,0
Sprite,Foreground,Centre,"SB\Lights 2.png",320,240 M,0,177347,,320,240 F,0,177347,190940,1
Sprite,Foreground,Centre,"SB\Lights.png",320,240 F,0,191878,192815,1 M,0,192815,,320,240 F,0,192815,206409,1
Sprite,Foreground,Centre,"SB\Background.jpg",320,240 F,0,191057,191409,0,0.4572801 F,0,191409,191878,0.4572801,1
Sprite,Foreground,Centre,"SB\Background.jpg",320,240 L,10,9 M,0,177337,,320,240 F,0,177337,177805,1,0 S,0,177337,177805,1,1.1024 F,0,177805,179212,0
Sprite,Foreground,Centre,"SB\Strobes.png",320,240 L,10,16 M,0,177805,,320,240 F,0,177805,178274,0.5,0 F,0,178274,178743,0
Sprite,Foreground,Centre,"SB\White.jpg",320,240 F,0,191878,192347,1,0
Sprite,Foreground,Centre,"SB\Background.jpg",320,240 F,0,199378,199847,1,0 S,0,199378,199847,1,1.1024
Sprite,Foreground,Centre,"SB\Strobes.png",320,240 L,10,7 M,0,193743,,320,240 F,0,193743,194212,1,0 F,0,194212,195618,0
Sprite,Foreground,Centre,"SB\Background.jpg",320,240 M,0,198440,,320,240 F,0,198440,198909,0,1 F,0,198909,199378,1
Sprite,Foreground,Centre,"SB\Black.jpg",320,240 S,0,205940,,1 F,0,205940,206175,0,1 F,0,206175,213901,1
Sprite,Foreground,Centre,"SB\White.jpg",320,240 S,0,205940,,1 F,0,205940,206409,1,0
Sprite,Foreground,Centre,"SB\Black.jpg",320,240 F,0,150160,153910,0,1 F,0,153910,157660,1
Sprite,Foreground,Centre,"SB\Light.png",320,240 F,0,153910,157660,0,1 S,0,153910,157660,0.1,1.00112
Sprite,Foreground,Centre,"SB\White.jpg",320,240 F,0,157660,158128,1,0
Sprite,Foreground,Centre,"SB\Light.png",320,240 F,0,176878,177347,1,0 S,0,176878,177347,1.00112,0.1
Sprite,Foreground,Centre,"SB\Light.png",320,240 M,0,71410,,320,240 F,0,71410,74691,0,1 S,0,71410,74691,0.1,1.00112
Sprite,Foreground,Centre,"SB\Light.png",320,240 M,0,170785,,320,240 F,0,170785,170902,1,0 S,0,170785,172660,0.1,1.00112 F,0,170902,171019,0,1 F,0,171019,171136,1,0 F,0,171136,171253,0,1 F,0,171253,171370,1,0 F,0,171370,171488,0,1 F,0,171488,171605,1,0 F,0,171605,171722,0,1 F,0,171722,171781,1,0 F,0,171781,171839,0,1 F,0,171839,171898,1,0 F,0,171898,171956,0,1 F,0,171956,172015,1,0 F,0,172015,172074,0,1 F,0,172074,172132,1,0 F,0,172132,172191,0,1 F,0,172191,172249,1,0 F,0,172249,172308,0,1 F,0,172308,172367,1,0 F,0,172367,172425,0,1 F,0,172425,172484,1,0 F,0,172484,172542,0,1 F,0,172542,172601,1,0 F,0,172601,172660,0,1
Sprite,Foreground,Centre,"SB\Light.png",320,240 F,0,204534,205940,0,1 S,0,204534,205940,0.1,1.00112
//Storyboard Sound Samples
//Background Colour Transformations
3,100,0,0,0

[TimingPoints]
7660,468.75,4,2,0,70,1,0
14574,-100,4,2,1,90,0,0
52542,-100,4,2,0,50,0,0
71410,-100,4,2,1,70,0,0
75042,-100,4,2,1,100,0,0
75160,-100,4,2,1,100,0,1
90042,-100,4,2,1,80,0,1
90160,-100,4,2,1,80,0,0
133285,-100,4,2,0,50,0,0
150404,-100,4,2,0,30,0,0
157542,-100,4,2,1,80,0,0
177360,468.75,4,2,1,100,1,0
205953,-100,4,2,1,50,0,0

[Colours]
Combo1 : 0,145,232
Combo2 : 0,255,255
Combo3 : 196,0,244
Combo4 : 90,0,164
SliderBorder : 128,128,128

[HitObjects]
104,300,7660,5,0
152,268,8128,1,0
104,268,10003,6,0,B|72:252|64:216|80:184|136:188|156:232|156:256|172:260|208:260|216:252|224:220|224:208|228:184,1,247.5
216,336,15160,5,0
212,256,15628,1,0
280,32,17503,6,0,B|348:32|352:36|348:60|332:88|272:88|248:92|244:120|272:128|312:144|344:148|376:156,1,270
256,192,22660,12,0,26410
456,48,30160,5,0
452,100,30628,1,0
56,336,32386,6,0,B|156:328|124:288|76:300|32:304|56:288|80:268|132:276|156:280|156:248|88:236|52:244|28:228|104:192|132:208|152:200|140:176|92:180|48:180|28:168|40:144|80:120|128:144|152:144|156:120|140:92|100:96|72:104|40:100|32:64|64:44|124:48|136:52,1,427.5
123,50,34847,5,0
100,328,36839,6,0,B|152:328|160:320|160:288|116:280|88:288|64:292|44:272|28:232|32:200,1,225
224,196,40003,6,0,B|184:176|184:176|224:156|224:156|200:148|200:148|224:128|224:128|184:120|184:120|220:112|220:112|192:96|192:96|224:88|224:88|216:64|200:32|160:24|128:24|112:24|92:44|80:56|68:68|56:104|56:116|56:136|56:156|64:180|80:208|100:220|132:232|144:240|164:244|184:252|204:268|232:292|240:300|252:324|252:344|256:364|256:368|256:368|260:352|268:328|288:320|336:304|348:304|376:288|400:256|408:224|416:168|424:128|420:112|476:96|448:28|432:16|388:8|368:8|340:12|316:32|304:48|304:88|304:96|304:96|284:104|284:104|316:112|316:112|296:120|296:120|320:128|320:128|304:136|304:136|332:144|332:144|312:148|312:148|332:156|332:156|300:176|300:176|328:184|328:184|296:200|296:200|324:204|324:204,1,1710
80,312,51370,5,0
88,248,51956,1,0
96,168,52425,6,0,B|76:152|56:152|40:128|48:104|76:88|96:80|128:104|136:124|144:188|144:212|120:232|48:208|28:172|68:164|88:144|140:136|188:116|212:96,1,382.5
200,80,55238,6,0,B|212:44|248:40|260:56|280:96|252:104|216:116|200:140|184:168|172:200|184:212|212:224|240:232|280:224|292:212|288:184|284:172|248:160|208:152|164:168|148:176|120:176|104:160|104:112,1,450
268,96,58753,6,0,B|312:72|344:88|308:132|248:136|220:152|284:176|340:160|396:180|320:216|264:204|204:212|204:292|260:288|272:96,1,382.5
60,356,61449,6,0,B|80:324|128:332|156:324|152:280|76:280|24:292|56:228|116:240|144:248|180:200|112:200|56:204|80:124|156:148|168:204|160:264|152:308|152:340,1,382.5
52,96,63910,1,0
168,328,64847,5,0
340,340,65785,1,0
332,24,66605,5,0
216,28,67660,1,0
260,200,68597,5,0
204,328,69535,1,0
328,332,70472,5,0
252,280,71410,5,0
256,228,72347,1,0
260,188,73167,1,0
44,152,73988,2,0,B|76:152,10,22.5
40,116,76097,1,0
88,300,77035,5,0
232,308,77972,5,0
200,272,78441,1,0
168,232,78910,1,0
244,116,79847,5,0
392,100,80785,1,0
360,288,81722,5,0
324,280,82191,1,0
288,272,82660,1,0
156,192,83597,5,0
56,224,84535,5,0
32,84,85355,6,0,B|108:96,2,67.5
72,152,86878,1,0
72,292,87816,5,0
44,88,90160,6,0,B|124:108,1,67.5
24,168,91097,2,0,B|112:196,1,90
24,236,92035,2,0,B|112:248,1,90
36,292,92972,2,0,B|104:256,1,67.5
136,336,93910,2,0,B|120:244,1,90
200,324,94847,2,0,B|144:240,1,90
236,312,95785,2,0,B|180:216,1,112.5
272,304,96956,2,0,B|228:192,1,112.5
184,304,98128,2,0,B|208:236,1,67.5
128,288,99066,2,0,B|164:204,1,90
84,272,100003,2,0,B|120:208,1,67.5
36,260,100941,2,0,B|80:156,1,112.5
96,288,101878,2,0,B|124:200,1,90
144,316,102816,2,0,B|160:232,1,67.5
48,240,103753,2,0,B|100:236,6,45
132,320,105628,2,0,B|148:304,60,22.5
52,96,113597,1,0
64,208,114535,5,0
116,280,115472,1,0
144,204,116410,5,0
68,124,117347,1,0
56,280,118285,5,0
112,304,119222,1,0
64,256,120160,2,0,B|20:196|36:104|136:76|200:108|184:188|152:240|192:292|236:296,1,382.5
48,128,122972,1,0
88,312,123792,2,0,B|40:232|80:176|152:228|168:296|220:312|256:268|224:136|200:100,1,382.5
84,136,126722,1,0
52,300,127660,5,0
152,284,128363,2,0,B|36:220|72:136|192:160|232:248|232:308|260:312|348:304|400:236|364:144|228:96|224:96|184:120,1,562.5
360,300,135042,1,10
148,288,136097,5,10
72,160,137035,1,10
184,56,137972,5,10
320,16,138792,5,10
276,128,139847,5,10
144,156,140785,5,10
132,240,141722,1,10
196,300,142660,1,10
284,296,143597,5,10
364,256,144535,5,10
308,168,145472,5,10
140,212,146410,5,10
140,212,146878,1,10
128,104,147347,1,10
128,104,147816,1,10
212,96,148285,1,10
212,96,148753,1,10
220,164,149222,1,10
220,164,149691,1,10
152,152,150160,1,10
152,152,150628,1,10
112,152,151097,1,10
112,152,151566,1,10
68,156,151917,1,10
68,156,152386,1,10
68,104,152972,1,10
68,104,153441,1,10
100,64,153910,1,10
100,64,154378,1,10
152,80,154847,1,10
152,80,155199,1,10
84,216,155785,5,10
84,216,156253,1,10
144,216,156722,1,10
144,216,157191,1,10
8,216,157660,1,10
8,216,158128,1,10
