osu file format v9

[General]
AudioFilename: David Guetta Titanium ft Sia.mp3
AudioLeadIn: 0
PreviewTime: 69691
Countdown: 0
SampleSet: Normal
StackLeniency: 0.7
Mode: 0
LetterboxInBreaks: 1

[Editor]
DistanceSpacing: 1
BeatDivisor: 4
GridSize: 4

[Metadata]
Title:Titanium
Artist:David Guetta Ft Sia
Creator:kratozjc
Version:Titanium
Source:
Tags:

[Difficulty]
HPDrainRate:7
CircleSize:5
OverallDifficulty:6
ApproachRate:8
SliderMultiplier:1.8
SliderTickRate:2

[Events]
//Background and Video events
Video,0,"Titanium.avi"
0,0,"bg.jpg"
//Break Periods
2,46066,60354
2,91780,98449
2,167970,182259
2,190828,197497
//Storyboard Layer 0 (Background)
//Storyboard Layer 1 (Fail)
//Storyboard Layer 2 (Pass)
//Storyboard Layer 3 (Foreground)
//Storyboard Sound Samples
//Background Colour Transformations
3,100,163,162,255

[TimingPoints]
15390,476.190476190476,4,1,1,50,1,0
76357,-100,4,1,1,70,0,1
91595,-100,4,1,0,50,0,0
124453,-200,4,1,0,50,0,0
138262,-100,4,1,0,50,0,0
152548,-100,4,1,0,70,0,1
167786,-100,4,1,0,50,0,0
211153,-100,4,1,0,50,0,0
212794,-100,4,1,0,50,0,0
213976,-100,4,1,0,70,0,1
221119,-100,4,1,0,50,0,0

[Colours]
Combo1 : 255,255,0
Combo2 : 0,255,0
Combo3 : 0,0,255
Combo4 : 255,0,0

[HitObjects]
448,88,15389,1,0
328,48,15628,1,0
352,168,15866,1,8
160,268,16342,1,0
120,148,16581,1,0
240,172,16819,1,8
312,320,17294,6,0,B|368:328|400:272,1,90
400,200,17770,1,8
392,112,18009,1,0
312,72,18247,2,8,B|268:36|216:72,2,90,0|0|8
216,224,19199,5,0
280,160,19437,1,0
192,136,19675,1,8
104,144,19913,2,0,B|72:40|72:40|72:40|72:40,1,90
168,48,20389,1,0
256,40,20628,2,0,B|368:40|400:176,1,180,8|0
304,304,21580,5,8
224,344,21818,1,0
192,264,22056,1,0
272,224,22294,2,0,B|360:160,1,90,0|8
456,56,23009,5,0
456,56,23247,1,0
456,56,23485,2,0,B|456:136|376:136,1,90,8|0
296,88,23961,1,0
88,288,24437,1,8
80,72,24913,5,0
168,96,25151,1,0
120,176,25389,1,8
208,184,25628,1,0
168,264,25866,1,0
256,280,26104,2,8,B|264:344|336:336,1,90,0|8
432,208,26818,6,0,B|480:120,1,90
408,80,27294,2,0,B|352:176,1,90
280,128,27770,2,0,B|328:32,1,90
232,40,28247,2,0,B|184:120,1,90
68,72,28723,5,0
68,72,28961,1,0
48,176,29199,1,8
48,176,29318,1,0
48,176,29437,1,0
112,280,29675,1,0
112,280,29913,1,0
232,320,30151,1,8
232,320,30270,1,0
232,320,30389,1,0
352,280,30628,5,4
416,72,31104,2,0,B|304:72,1,90,8|0
416,72,31580,2,0,B|416:184,1,90
416,72,32056,1,8
248,176,32532,5,0
88,88,33009,2,0,B|88:208,1,90,8|0
168,296,33485,2,0,B|124:328|80:288,2,90,0|0|8
248,344,34199,1,0
336,344,34437,1,0
424,296,34675,1,0
464,208,34913,1,8
392,144,35151,1,0
392,144,35628,5,0
336,56,35866,1,8
232,56,36104,1,0
232,160,36342,2,0,B|232:272,3,90,0|0|8|0
232,250,37294,1,0
160,336,37532,1,0
88,256,37770,2,0,B|88:152,1,90,8|0
88,166,38247,5,0
212,36,38723,1,8
300,60,38961,1,0
324,84,39080,1,0
352,108,39199,1,0
408,156,39437,2,0,B|408:220|408:284,1,90,0|8
304,224,40151,5,0
304,224,40389,2,0,B|240:144,1,90,0|8
184,88,40866,1,0
156,68,40985,1,0
132,44,41104,1,0
68,76,41342,1,0
68,76,41580,2,0,B|108:164|28:212|84:284,1,180,8|0
136,308,42294,2,0,B|176:332|232:308,1,90,0|8
312,312,42770,2,0,B|360:336|408:312,2,90
312,312,43485,1,8
312,312,43723,1,0
252,248,43961,6,0,B|164:192|180:80,1,180,0|8
240,28,44675,1,0
328,36,44913,2,0,B|408:84|432:204,1,180,0|8
428,272,45628,1,0
428,272,45866,1,4
112,80,61104,6,0,B|304:80,1,180,0|10
376,104,61818,1,0
440,184,62056,2,0,B|232:184,1,180,0|10
168,184,62770,1,0
80,184,63009,1,0
120,104,63247,1,0
168,184,63485,1,8
176,272,63723,6,0,B|288:272,1,90
352,272,64199,1,0
432,240,64437,1,8
424,152,64675,1,0
392,72,64913,6,0,B|192:72,1,180,0|8
120,80,65628,1,0
48,136,65866,2,0,B|-16:224|40:312,1,180,0|8
128,288,66580,1,0
200,232,66818,1,0
264,296,67056,5,0
264,296,67175,1,0
264,296,67294,2,0,B|376:312|432:224,1,180
416,136,68009,1,0
416,136,68128,1,0
416,136,68247,2,0,B|368:48|256:56,1,180
104,128,69199,6,0,B|104:32,2,90
56,200,69913,1,0
104,280,70151,2,0,B|168:352|280:360|280:360|280:360|280:360,1,180
336,304,70866,1,0
416,256,71104,1,0
424,168,71342,1,0
392,80,71580,6,0,B|320:24|216:32,1,180
144,80,72294,1,0
64,152,72532,1,0
72,256,72770,1,0
160,320,73009,1,0
264,312,73247,2,0,B|360:256,1,90
416,192,73723,2,0,B|416:96,1,90
416,102,74199,5,0
328,96,74437,5,0
280,96,74556,1,0
232,96,74675,1,0
184,96,74794,1,0
136,96,74913,1,0
40,176,75151,1,0
72,280,75389,5,0
112,296,75509,1,0
160,296,75628,1,0
208,288,75747,1,0
256,296,75866,1,0
296,312,75985,1,0
336,328,76104,2,0,B|392:352|448:280,1,90
432,128,76818,5,8
360,80,77056,1,0
360,80,77175,1,0
360,80,77294,2,0,B|176:80|176:80,1,180,0|8
112,128,78009,1,0
80,208,78247,2,0,B|24:208,2,45
112,288,78723,5,8
192,320,78961,1,0
280,344,79199,1,0
280,344,79318,1,0
280,344,79437,2,0,B|360:288,1,90,0|8
353,292,79913,1,0
408,176,80151,5,0
328,56,80389,1,0
248,176,80628,1,8
168,56,80866,1,0
48,112,81104,2,0,B|-8:200|48:304,1,180,0|8
160,344,81818,1,0
280,280,82056,2,0,B|232:208|328:168|264:80,1,180,0|8
360,40,82770,5,0
448,96,83009,1,0
480,200,83247,2,0,B|480:264|416:280,1,90,0|8
344,320,83723,1,0
240,320,83961,2,2,B|144:240|144:240|144:176|144:176,1,180,0|0
272,64,84913,2,2,B|368:144|368:144|368:208|368:208,1,180,0|8
144,192,85866,5,2
360,200,86342,1,8
264,48,86818,1,2
264,48,87056,1,0
264,48,87294,1,10
176,48,87532,2,0,B|48:48,1,90
104,136,88009,6,0,B|24:224,2,90
184,184,88723,2,0,B|224:184|264:224|264:224|304:184|352:184,1,180
304,104,89437,1,0
368,40,89675,2,0,B|456:80|472:184,1,180
424,256,90389,1,0
368,328,90628,1,0
316,256,90866,1,0
228,236,91104,2,0,B|196:148|116:188|124:60,1,180
72,80,99199,5,0
72,80,99437,1,0
72,80,99675,2,0,B|80:176|160:200|160:200|160:256,1,180,8|0
216,288,100389,1,0
144,336,100628,1,8
80,272,100866,1,0
160,224,101104,5,0
248,200,101342,2,0,B|336:200,1,90,0|8
432,200,101818,1,0
432,112,102056,2,0,B|352:32|256:48,1,180,0|8
184,64,102770,6,0,B|72:120|80:112,1,90
24,144,103247,1,0
112,168,103485,1,8
120,256,103723,1,0
120,256,104199,1,0
192,312,104437,1,8
280,312,104675,1,0
280,312,105151,5,0
360,272,105389,1,8
368,184,105628,2,0,B|464:128,1,90
368,184,106104,2,0,B|368:88,1,90,0|8
368,184,106580,2,0,B|280:136,1,90,0|0
108,100,107294,6,0,B|64:76|60:24,2,90,8|0|0
48,168,108009,1,0
64,256,108247,2,0,B|112:344|244:332,1,180,8|0
304,320,108961,1,0
392,312,109199,1,8
436,232,109437,2,0,B|472:200|472:148,1,90,0|0
400,72,109913,1,0
312,40,110151,1,8
224,32,110389,6,0,B|112:96,1,90
224,120,110866,2,0,B|120:184,1,90,0|8
56,152,111342,1,0
56,152,111580,1,0
40,240,111818,1,0
48,272,111937,1,0
56,304,112056,1,8
152,328,112294,1,0
152,328,112532,2,0,B|240:272|344:344,2,180,0|8|0
152,236,113723,5,0
152,200,113842,1,0
152,164,113961,1,0
224,176,114199,1,0
224,140,114318,1,0
224,104,114437,1,0
272,48,114675,2,0,B|224:28|176:52,2,90
376,56,115389,5,0
376,56,115628,1,0
376,56,115866,1,8
200,48,116342,2,0,B|256:128|200:224,1,180,0|8
220,308,117056,1,0
308,328,117294,2,0,B|252:248|308:152,1,180,0|8
252,84,118009,1,0
152,72,118247,5,0
96,144,118485,1,0
120,232,118723,2,0,B|192:184,2,45,8|0|0
192,288,119199,1,0
280,288,119437,1,0
360,248,119675,2,0,B|328:216,2,45,8|0|0
416,176,120151,5,0
416,88,120389,1,0
352,32,120628,2,0,B|248:32|248:200,1,180,8|0
249,156,121342,1,0
148,282,121580,2,0,B|252:282|252:114,1,180,8|0
256,192,122532,12,0,123961
456,280,124913,6,0,B|456:168|368:128,1,180
296,80,126342,1,0
208,72,126818,2,0,B|112:48|32:96,1,180
40,184,128247,5,0
56,224,128485,1,0
72,264,128723,1,0
148,312,129199,1,0
192,324,129437,1,0
236,316,129675,2,0,B|332:296,1,90
392,200,130628,5,0
392,200,130866,1,0
392,200,131104,2,0,B|344:112,1,90
280,64,132056,1,0
192,64,132532,1,0
156,92,132770,1,0
136,136,133009,2,0,B|80:224|144:304,1,180
232,320,134437,6,0,B|272:352|324:320,1,90
392,272,135389,2,0,B|448:208|328:184|400:96,1,180
328,72,136818,1,0
264,96,137294,2,0,B|208:160|328:184|256:272,1,180
80,256,138723,5,0
96,176,138961,1,0
152,104,139199,2,0,B|240:64|336:104,1,180
360,200,139913,1,0
360,200,140151,1,0
320,288,140390,1,0
320,288,140628,1,0
232,312,140866,6,0,B|144:344,1,90
72,296,141342,2,0,B|48:256|76:200,1,90
80,120,141818,2,0,B|72:64|116:28,1,90
192,88,142294,2,0,B|192:176,2,90
280,48,143009,6,0,B|392:32|456:152,1,180
384,192,143723,1,0
440,288,143961,2,0,B|256:288,1,180
192,208,144675,1,0
104,272,144913,2,0,B|56:176|120:88,2,180
256,192,146342,12,0,148247
256,192,148723,12,0,150151
392,144,150628,6,0,B|440:120,12,45
392,232,152532,6,0,B|360:320|256:336,1,180,0|8
184,280,153247,1,0
184,280,153366,1,0
184,280,153485,2,0,B|184:80,1,180,0|8
272,72,154199,1,0
368,72,154437,6,0,B|464:72,1,90
360,152,154913,2,0,B|256:152,1,90,8|0
368,232,155390,2,0,B|464:232,1,90
360,312,155866,2,0,B|240:312,1,90,8|0
208,240,156342,2,2,B|120:224|120:128,2,135
304,240,157294,2,2,B|392:224|392:128,2,135
256,168,158247,5,0
256,80,158485,1,0
344,80,158723,1,8
256,168,159199,1,0
256,80,159437,1,0
168,80,159675,1,8
256,192,160151,12,0,161580
112,280,162056,6,0,B|256:168,1,180
396,280,163009,2,0,B|252:168,1,180
384,72,163961,2,0,B|464:160,2,90
276,76,164675,1,0
168,72,164913,2,0,B|88:160,2,90
256,52,165628,1,0
324,112,165866,2,0,B|376:192,1,90
412,268,166342,6,0,B|228:268,1,180
144,268,167056,1,0
108,184,167294,1,0
84,160,167413,1,0
64,128,167532,1,0
56,92,167651,1,0
56,56,167770,1,0
384,88,183009,5,0
384,176,183247,1,0
320,240,183485,1,0
128,88,183961,1,0
128,176,184199,1,0
192,240,184437,1,0
360,312,184913,6,0,B|464:256|416:208|416:208|464:152,1,180
408,96,185628,2,0,B|336:32|288:72|288:72|232:32|136:120,1,270
56,256,186818,2,0,B|112:176|160:288|224:192,1,180
264,280,187532,2,0,B|376:288|360:224|360:224|432:224|408:120,1,270
240,64,188723,6,0,B|84:172,1,180
116,252,189437,1,0
192,296,189675,2,0,B|288:296,1,90
372,292,190151,1,0
412,276,190270,1,0
444,244,190390,1,0
460,204,190509,1,0
468,156,190628,1,0
408,280,198247,6,0,B|408:88,1,180
320,64,198961,1,0
264,136,199199,1,0
208,64,199437,1,0
264,136,199675,1,0
336,184,199913,1,0
376,264,200151,6,0,B|288:336|280:224|176:296,1,180
120,296,200866,1,0
184,360,201104,1,0
208,280,201342,1,0
152,200,201580,2,0,B|64:120|160:32,1,180
224,120,202294,1,0
296,200,202532,2,0,B|384:120|288:32,2,180
456,288,203961,5,0
504,208,204199,1,0
464,128,204437,1,0
392,76,204675,2,0,B|276:40,1,90
220,72,205151,1,0
220,72,205270,1,0
220,72,205389,1,0
164,144,205628,2,0,B|164:240,1,90
368,264,206342,5,0
368,264,206580,1,0
368,264,206818,2,0,B|440:200|432:96,1,180
268,32,207770,2,0,B|156:72,1,90
228,140,208247,2,0,B|180:168|132:140,2,90
284,208,208961,1,0
232,280,209199,2,0,B|116:280,1,90
40,248,209675,6,0,B|40:152,3,90
112,104,210628,2,0,B|112:16,3,90
200,104,211580,1,0
248,104,211699,1,0
296,104,211818,1,0
344,104,211937,1,0
392,104,212056,1,0
480,192,212294,1,0
416,272,212532,5,0
376,288,212651,1,0
328,288,212770,1,0
280,280,212890,1,0
232,288,213009,1,0
192,304,213128,1,0
152,320,213247,2,0,B|96:344|40:272,1,90,0|4
56,144,213961,5,8
132,96,214199,1,0
132,96,214318,1,0
132,96,214437,2,0,B|316:96|316:96,1,180,0|8
400,128,215151,1,0
432,208,215390,2,0,B|488:208,2,45
400,288,215866,5,8
320,320,216104,1,0
232,344,216342,1,0
232,344,216461,1,0
232,344,216580,2,0,B|152:288,1,90,0|8
159,292,217056,1,0
104,176,217294,5,0
184,56,217532,1,0
264,176,217770,1,8
344,56,218009,1,0
464,112,218247,2,0,B|520:200|464:304,1,180,0|8
352,336,218961,1,0
232,280,219199,2,0,B|280:208|184:168|248:80,1,180,0|8
152,48,219913,1,0
72,104,220151,1,0
56,192,220390,2,0,B|52:252|108:276,1,90,0|8
176,312,220866,5,0
264,320,221104,2,0,B|360:240|360:240|360:176|360:176,1,180,0|8
232,56,222056,2,0,B|136:136|136:136|136:200|136:200,1,180,0|8
312,192,223009,5,0
136,192,223485,1,8
248,48,223961,1,0
248,48,224199,1,0
248,48,224437,1,8
160,80,224675,2,0,B|104:184,1,90
200,192,225151,2,0,B|144:296,1,90
248,256,225628,6,0,B|304:152,1,90
376,208,226104,2,0,B|424:120,1,90
360,64,226580,1,0
272,48,226818,6,0,B|152:48,2,90
224,124,227532,1,0
180,200,227770,1,0
220,280,228009,1,0
248,280,228128,1,0
276,280,228247,1,0
304,280,228366,1,0
332,280,228485,1,0
360,280,228604,1,0
388,280,228723,1,0
