osu file format v9

[General]
AudioFilename: David Guetta Titanium ft Sia.mp3
AudioLeadIn: 0
PreviewTime: 69691
Countdown: 0
SampleSet: Soft
StackLeniency: 0.7
Mode: 0
LetterboxInBreaks: 1

[Editor]
DistanceSpacing: 0.8
BeatDivisor: 4
GridSize: 4

[Metadata]
Title:Titanium
Artist:David Guetta Ft Sia
Creator:kratozjc
Version:Steel
Source:
Tags:nothing but the beat i am bike guy

[Difficulty]
HPDrainRate:2
CircleSize:3
OverallDifficulty:2
ApproachRate:3
SliderMultiplier:1
SliderTickRate:1

[Events]
//Background and Video events
0,0,"bg.jpg"
//Break Periods
2,46066,59664
2,122256,129188
2,167971,177759
//Storyboard Layer 0 (Background)
//Storyboard Layer 1 (Fail)
//Storyboard Layer 2 (Pass)
//Storyboard Layer 3 (Foreground)
//Storyboard Sound Samples
//Background Colour Transformations
3,100,163,162,255

[TimingPoints]
15390.4304572199,476.190476190476,4,2,0,50,1,0
61119,-100,4,1,0,50,0,0
76357,-100,4,2,0,50,0,1
85881,-100,4,2,0,50,0,0
91595,-100,4,2,0,50,0,0
152548,-100,4,2,0,50,0,1
167786,-100,4,2,0,50,0,0
213500,-100,4,2,0,50,0,1
228500,-100,4,2,0,50,0,0

[Colours]
Combo1 : 255,255,0
Combo2 : 0,255,0
Combo3 : 0,0,255
Combo4 : 255,0,0

[HitObjects]
160,80,15390,1,2
80,88,15866,1,0
120,160,16342,2,0,B|144:200|200:224|248:200|296:160,1,200,0|2
344,96,17771,1,0
424,112,18247,2,0,B|520:192|432:296,1,200,0|2
360,304,19676,5,0
296,352,20152,1,0
232,304,20628,1,0
168,256,21104,2,0,B|56:256,2,100,2|0|0
272,136,23009,1,2
408,56,23961,6,0,B|512:56,2,100,0|0|2
360,120,25390,1,0
408,184,25866,1,0
360,248,26342,1,0
288,280,26819,6,2,B|248:336|201:349|161:327|124:277,1,200,2|0
80,208,28247,1,0
120,136,28723,2,2,B|160:80|207:67|247:89|284:139,1,200,2|0
408,40,30628,5,4
472,88,31104,2,0,B|472:208,1,100
472,272,32057,1,0
408,328,32533,2,0,B|360:360|312:328,1,100
248,280,33485,1,0
176,248,33961,1,0
96,256,34438,6,0,B|96:360,2,100
152,192,35866,1,0
216,136,36342,2,0,B|216:24,2,100
360,72,38247,6,0,B|408:96|416:152,1,100
408,232,39199,2,0,B|296:232,1,100
224,232,40152,2,0,B|104:192|128:72,2,200
288,280,42533,1,0
368,296,43009,2,0,B|368:256|368:192,1,100
360,120,43961,6,0,B|272:40|256:160|168:96|168:96,1,200,0|0
104,144,45390,1,0
64,216,45866,1,4
256,64,61104,5,0
104,120,62057,1,0
144,272,63009,1,0
304,280,63961,1,0
432,184,64914,1,0
328,64,65866,5,0
248,64,66342,1,0
168,64,66819,2,0,B|72:128|72:128|64:216|64:216,1,200,0|0
112,280,68247,2,0,B|200:224,1,100
280,232,69199,6,0,B|384:288|384:288,1,100,0|0
432,232,70152,2,0,B|432:112|432:112|352:80|352:80,1,200
280,80,71580,2,0,B|176:80,1,100
256,192,72533,12,0,74914
104,96,76342,6,0,B|104:208,1,100,0|8
160,256,77295,2,0,B|280:256,1,100,0|8
336,256,78247,2,2,B|424:168|328:80,1,200,0|0
256,112,79676,1,8
192,64,80152,5,0
128,112,80628,1,8
96,184,81104,2,0,B|40:184,2,50,0|0|8
128,256,82057,2,0,B|216:368|272:152|392:288,1,300
256,192,83961,12,0,85866
400,40,86819,6,0,B|456:40,2,50
336,88,87771,1,0
256,80,88247,2,0,B|224:32|160:48,1,100
120,108,89199,5,0
120,188,89676,2,0,B|120:308|120:308|208:308|208:308,1,200
280,308,91104,2,0,B|352:308,2,50
436,284,92533,6,0,B|496:184|428:80,1,200
356,92,93961,1,0
276,76,94438,2,0,B|228:36|172:80,1,100
88,120,95390,5,0
80,200,95866,2,0,B|68:272|104:300|164:296|164:296|188:348,1,200
264,328,97295,2,0,B|384:348|456:264,1,200
468,116,99199,6,0,B|376:40|280:116,1,200,2|0
284,192,100628,1,0
240,260,101104,2,0,B|148:336|52:260,1,200,2|0
52,184,102533,1,0
100,120,103009,2,0,B|188:52,1,100
260,64,103961,6,0,B|348:136,1,100,0|0
416,152,104914,1,0
472,208,105390,1,0
468,288,105866,2,0,B|376:332|264:300,1,200
120,344,107771,5,0
60,292,108247,2,0,B|60:188,1,100
64,112,109199,2,0,B|8:112|0:44,2,100
144,128,110628,5,0
224,136,111104,2,0,B|224:336,1,200,0|0
304,336,112533,2,0,B|304:131,1,200
432,40,114438,5,0
464,112,114914,1,0
424,184,115390,2,0,B|392:296|256:296,1,200
200,312,116819,5,0
136,264,117295,2,0,B|208:200|80:160|160:72,1,200
232,80,118723,1,0
304,112,119199,6,0,B|408:192|312:280,1,200
232,264,120628,1,0
168,216,121104,2,0,B|56:184|64:64,1,200,0|4
288,192,130628,5,0
272,268,131104,2,0,B|72:268,1,200
52,192,132533,1,0
64,112,133009,2,0,B|264:112,1,200
344,124,134438,2,0,B|400:132|408:196,1,100
356,252,135390,6,0,B|300:356|180:316,2,200
396,184,137771,1,8
392,104,138247,1,0
316,84,138723,1,8
236,80,139199,2,0,B|116:80|116:80|76:104|76:152,2,200
244,160,141580,1,8
244,240,142057,2,0,B|244:352,2,100
112,148,143961,6,0,B|104:76|160:60,1,100
228,60,144914,1,0
308,64,145390,1,0
324,144,145866,1,0
308,304,146819,5,0
252,248,147295,1,0
196,304,147771,1,0
128,160,148723,5,0
256,64,149676,1,0
256,192,150628,12,4,152533
344,80,153485,6,0,B|224:80,1,100,0|8
168,112,154438,2,2,B|80:200|176:288,1,200
248,312,155866,1,8
328,312,156342,5,0
384,256,156819,1,8
432,192,157295,2,0,B|488:192,2,50,0|0|8
400,120,158247,6,0,B|344:88|256:88|256:176|176:176|112:152,1,300,0|8
48,104,160152,2,0,B|-48:184|48:288,1,200
104,328,161580,1,8
256,192,162057,12,0,163961
176,256,164914,6,0,B|280:296|280:296|336:280|360:240,1,200
352,88,166819,2,0,B|248:48|248:48|192:64|168:104,1,200
256,192,179199,12,0,181104
432,256,183009,5,4
416,96,183961,2,0,B|320:32|208:96,1,200
144,96,185390,1,0
72,136,185866,1,0
56,296,186819,2,0,B|112:336|160:256|208:336|264:296,1,200
400,248,188723,6,0,B|472:152,1,100
416,96,189676,1,0
352,48,190152,1,0
272,48,190628,1,0
176,176,191580,5,0
96,112,192533,2,0,B|32:104|32:32,2,100
120,188,193961,1,0
116,268,194438,2,0,B|28:324,2,100
256,344,196342,6,0,B|376:352|424:248,1,200
416,176,197771,1,0
368,112,198247,2,0,B|304:24|184:56,1,200
120,88,199676,1,0
64,144,200152,1,0
208,192,201104,6,0,B|208:296|96:344,2,200
264,136,203485,1,0
320,192,203961,2,0,B|320:296|432:344,2,200
424,64,206819,5,0
344,64,207295,2,0,B|240:64,1,100
88,64,208723,1,0
88,144,209199,2,0,B|88:264,1,100
240,296,210628,5,0
320,288,211104,1,0
376,232,211580,1,0
360,152,212057,2,0,B|312:48|312:48|216:48,1,200
152,72,213485,6,0,B|152:176,1,100,4|8
152,256,214438,1,0
184,328,214914,1,8
256,288,215390,1,0
328,248,215866,2,0,B|400:176,1,100,8|0
368,104,216819,2,0,B|288:40,1,100,8|0
208,48,217771,5,8
128,40,218247,1,0
88,112,218723,1,8
56,184,219199,2,0,B|-32:304|88:360,1,200,0|0
152,344,220628,1,8
232,336,221104,6,0,B|360:320|344:176,1,200,4|0
304,128,222533,1,8
232,96,223009,2,0,B|128:96,1,100,0|8
56,104,223961,2,0,B|56:224,1,100,0|8
64,280,224914,5,0
136,320,225390,1,8
216,296,225866,2,0,B|288:424|368:280,2,200
256,192,228723,12,0,230628
