osu file format v9

[General]
AudioFilename: David Guetta Titanium ft Sia.mp3
AudioLeadIn: 0
PreviewTime: 69691
Countdown: 0
SampleSet: Soft
StackLeniency: 0.7
Mode: 0
LetterboxInBreaks: 1

[Editor]
DistanceSpacing: 0.8
BeatDivisor: 4
GridSize: 4

[Metadata]
Title:Titanium
Artist:David Guetta Ft Sia
Creator:kratozjc
Version:Iron
Source:
Tags:

[Difficulty]
HPDrainRate:4
CircleSize:3
OverallDifficulty:4
ApproachRate:4
SliderMultiplier:1.5
SliderTickRate:2

[Events]
//Background and Video events
0,0,"bg.jpg"
//Break Periods
2,46065,59784
2,91780,97879
2,167970,181689
//Storyboard Layer 0 (Background)
//Storyboard Layer 1 (Fail)
//Storyboard Layer 2 (Pass)
//Storyboard Layer 3 (Foreground)
//Storyboard Sound Samples
//Background Colour Transformations
3,100,163,162,255

[TimingPoints]
15390,476.190476190476,4,2,0,100,1,0
76357,-100,4,2,0,100,0,1
87770,-100,4,2,0,50,0,1
91595,-100,4,2,0,100,0,0
133024,-100,4,2,0,100,0,0
152548,-100,4,2,0,100,0,1
167786,-100,4,2,0,100,0,0
211153,-100,4,1,0,100,0,0
212794,-100,4,2,0,100,0,0
213500,-100,4,2,0,100,0,1
221119,-100,4,2,0,100,0,0

[Colours]
Combo1 : 255,255,0
Combo2 : 0,255,0
Combo3 : 0,0,255
Combo4 : 255,0,0

[HitObjects]
96,72,15389,2,0,B|248:72,1,150,0|0
368,72,16342,1,0
456,160,16818,2,0,B|456:256,1,75
456,296,17294,1,0
344,336,17770,1,0
232,296,18247,1,0
112,288,18723,5,0
112,288,19199,2,0,B|56:216|120:128,1,150,0|0
192,64,20151,2,0,B|264:16|352:72,1,150,0|0
424,144,21104,2,0,B|472:56,2,75
360,240,22056,2,0,B|328:320|240:304,1,150,0|0
120,296,23009,6,0,B|40:296,2,75
176,280,23723,1,0
232,256,23961,2,0,B|312:224,1,75
360,200,24437,1,0
456,128,24913,6,0,B|456:40|456:40|384:40,1,150,0|0
272,48,25866,1,0
160,88,26342,1,0
104,96,26580,1,0
72,144,26818,1,0
40,240,27294,6,0,B|40:336|128:336,1,150,0|0
248,312,28247,2,0,B|328:256,1,75
360,232,28723,1,0
456,160,29199,5,0
408,48,29675,1,0
408,48,29913,1,0
408,48,30151,2,0,B|248:48,1,150
136,56,31104,5,0
136,56,31342,1,0
136,56,31580,1,0
72,152,32056,2,0,B|8:224|72:296,1,150
160,328,33009,5,0
160,328,33247,1,0
160,328,33485,2,0,B|216:256|280:400|304:280,1,150,0|0
408,280,34437,1,0
464,176,34913,1,0
416,64,35389,2,0,B|512:16,2,75,0|0|0
296,64,36342,5,0
176,64,36818,2,0,B|80:48|40:140,1,150
64,240,37770,1,0
92,292,38009,1,0
140,328,38247,2,0,B|292:328,1,150,0|0
408,312,39199,5,0
412,192,39675,2,0,B|452:128|380:104|412:40,1,150
288,48,40628,1,0
288,168,41104,2,0,B|280:256|200:280,1,150
88,244,42056,6,0,B|88:156,2,75
188,312,43009,1,0
292,252,43485,1,0
292,252,43723,1,0
292,252,43961,1,0
348,144,44437,6,0,B|308:104|268:152,1,75,0|0
220,136,44913,2,0,B|180:176|140:136,1,75
92,156,45389,2,0,B|36:236|92:300,1,150,0|4
120,56,61104,6,2,B|48:120|48:120|48:208|48:208,1,150,0|0
128,264,62056,2,0,B|256:376|408:264,1,300
472,176,63485,2,0,B|520:120|520:120|520:120|520:120|472:40|472:40,1,150,0|0
376,112,64437,1,0
256,112,64913,1,0
56,240,65866,6,0,B|56:344|56:344,2,75
176,240,66818,2,0,B|208:320|296:320,1,150
344,208,67770,1,0
360,152,68009,1,0
376,96,68247,2,0,B|448:48|520:104,2,150
264,48,69675,6,0,B|168:40|144:128,1,150
72,216,70628,1,0
152,304,71104,1,0
272,320,71580,2,0,B|336:336|344:256|440:296,1,150
456,176,72532,5,0
400,72,73009,1,0
280,48,73485,1,0
200,144,73961,1,0
88,192,74437,2,0,B|88:56|88:40,2,150,0|0|0
168,280,75866,1,0
248,368,76342,5,4
328,280,76818,1,8
408,192,77294,2,0,B|440:152|440:152|440:96|440:96|400:56,1,150,0|8
288,64,78247,2,0,B|256:104|256:104|256:160|256:160|296:200,1,150,0|8
304,312,79199,5,0
184,296,79675,2,0,B|128:336|128:336|112:336|112:336|56:296,1,150,8|0
32,248,80389,1,0
24,192,80628,2,0,B|32:96|32:96|80:72|80:72,1,150,8|0
200,56,81580,5,8
256,160,82056,1,0
320,56,82532,1,8
400,144,83009,2,0,B|400:80|472:80,2,75,0|0|8
400,264,83961,1,4
256,192,84437,12,0,85866
156,104,86818,6,0,B|260:104,1,75
292,100,87294,1,0
344,68,87532,1,0
400,88,87770,2,2,B|464:264|464:264|328:312|328:312,1,300,0|0
240,304,89199,5,0
120,288,89675,2,2,B|56:112|56:112|192:64|192:64,1,300
280,88,91104,1,8
368,168,91580,1,4
88,96,99199,5,0
88,96,99437,1,0
88,96,99675,2,0,B|88:176|88:176,1,75
88,232,100151,1,0
200,272,100628,1,0
200,152,101104,6,0,B|200:112|200:112|200:40,2,112.5
200,152,102056,1,0
320,152,102532,1,0
392,248,103009,2,0,B|352:320|288:320|256:248|184:248|120:304,1,300
16,248,104437,1,0
32,128,104913,5,0
128,56,105389,1,0
224,128,105866,2,8,B|224:232,2,75,0|0|0
312,48,106818,1,4
112,176,107770,5,0
160,288,108247,1,0
272,336,108723,2,0,B|344:336|344:336|376:312|376:312|432:272|432:272,1,150,0|0
432,176,109675,1,0
384,64,110151,6,2,B|312:112|240:64,1,150,0|0
144,128,111104,2,0,B|64:96|0:144,1,150,0|0
32,272,112056,1,0
32,272,112294,1,0
32,272,112532,1,0
144,312,113009,5,0
144,312,113247,1,0
144,312,113485,1,0
264,296,113961,2,0,B|264:248|264:248|328:216|328:216|360:200|360:200,1,150,0|0
432,88,115389,6,0,B|512:32,2,75
312,88,116342,2,0,B|240:40|144:96,2,150
240,184,117770,1,0
128,232,118247,1,0
160,344,118723,1,0
280,320,119199,6,0,B|368:328|424:256,2,150
272,200,120628,1,0
280,80,121104,2,0,B|184:80,2,75
400,80,122056,1,4
256,192,123009,12,0,124913
256,64,125866,6,0,B|128:64|72:176,2,225
256,184,127770,2,0,B|384:184|440:72,2,225
256,184,129437,1,0
256,184,129675,1,4
496,160,130628,5,0
496,160,130866,1,0
496,160,131104,2,0,B|392:40,1,150
280,64,132056,2,0,B|216:56|240:144|136:144,2,150
256,192,133485,12,0,136342
264,72,137294,5,0
144,80,137770,1,0
72,176,138247,1,0
144,272,138723,1,0
192,312,138961,1,0
240,272,139199,1,0
352,240,139675,5,0
440,152,140151,1,0
360,64,140628,1,0
312,24,140866,1,0
264,64,141104,1,0
40,144,142056,6,0,B|40:40,2,75
72,256,143009,1,0
168,328,143485,1,0
280,296,143961,1,0
280,296,144199,1,0
280,296,144437,2,0,B|376:304|400:208,1,150
168,144,145866,6,0,B|88:136|88:32,2,150
256,224,147294,2,0,B|208:272|296:304|232:360,2,150
328,144,148723,2,0,B|408:144|408:32,2,150
352,264,150151,1,0
472,296,150628,6,0,B|472:144,2,150
376,264,152056,1,0
264,312,152532,5,4
160,256,153009,1,8
112,144,153485,2,0,B|-8:144,2,112.5,0|8|0
168,144,154437,2,0,B|168:8,2,112.5,0|8|0
224,144,155390,2,0,B|368:144,2,112.5,0|8|0
160,144,156342,1,0
88,240,156818,5,8
176,320,157294,2,8,B|328:320,1,150,0|8
328,200,158247,2,0,B|144:200,1,150,0|8
56,184,159199,5,0
88,136,159437,1,0
136,96,159675,2,0,B|192:40|192:40|192:40|192:40|264:40,1,150,8|4
360,112,160628,1,8
456,184,161104,5,0
424,232,161342,1,0
384,272,161580,2,0,B|328:328|328:328|328:328|328:328|256:328,1,150,8|0
152,272,162532,5,8
48,272,163009,2,0,B|40:328|-16:328,2,75,0|0|8
136,192,163961,1,0
256,192,164437,1,8
360,256,164913,2,0,B|368:312|416:312,2,75,0|0|8
392,144,165866,5,0
320,48,166342,1,8
232,136,166818,1,0
144,216,167294,2,0,B|0:280,1,150,8|4
440,192,183009,5,0
392,304,183485,1,0
272,304,183961,2,0,B|184:344|128:272,1,150,0|0
72,184,184913,5,0
112,72,185390,1,0
232,88,185866,2,0,B|296:160|232:224,1,150,0|0
144,304,186818,5,0
256,344,187294,1,0
360,288,187770,2,0,B|520:168|352:16,1,300
256,56,189199,1,0
136,88,189675,2,0,B|240:224,1,150
296,304,190628,1,4
56,272,191580,6,0,B|8:360,2,75,0|0|0
80,152,192532,2,0,B|-16:152,2,75
176,80,193485,2,0,B|104:24,2,75
232,112,194199,1,0
288,88,194437,2,0,B|376:24,2,75
304,208,195390,6,0,B|408:208,2,75
208,144,196342,1,0
112,224,196818,1,0
112,224,197056,1,0
112,224,197294,2,0,B|144:304|224:320,1,150
336,312,198247,5,0
440,256,198723,1,0
480,144,199199,1,0
392,64,199675,1,0
272,88,200151,2,0,B|192:32|192:32|112:32,1,150,0|0
80,136,201104,5,0
48,248,201580,1,0
152,304,202056,2,0,B|224:352|224:352|296:352,1,150,0|0
256,192,203009,12,0,205866
336,240,206818,6,0,B|416:248|416:352,2,150
248,160,208247,2,0,B|296:112|208:80|272:24,2,150
160,240,209675,2,0,B|80:240|80:352,2,150
272,208,211104,1,0
392,200,211580,2,0,B|392:336|392:352,2,150,0|0|0
320,104,213009,1,0
224,32,213485,5,4
128,104,213961,1,8
96,216,214437,2,0,B|64:256|64:256|64:312|64:312|104:352,1,150,0|8
216,344,215390,2,0,B|248:304|248:304|248:248|248:248|208:208,1,150,0|8
200,96,216342,5,0
248,128,216580,1,0
304,104,216818,2,0,B|360:64|360:64|376:64|376:64|432:104,1,150,8|0
464,152,217532,1,2
464,208,217770,2,0,B|456:304|456:304|408:328|408:328,1,150,8|0
288,328,218723,5,8
224,224,219199,1,0
160,328,219675,1,8
88,232,220151,2,0,B|88:296|24:296,2,75,0|0|8
96,112,221104,1,4
256,192,221580,12,0,223009
272,304,223961,2,0,B|360:304|424:240,1,150
384,136,224913,1,0
304,48,225390,1,0
184,56,225866,1,0
96,136,226342,1,0
208,176,226818,6,0,B|208:328,1,150,0|0
328,328,227770,2,0,B|328:176,1,150
288,64,228723,1,4
