osu file format v14

[General]
AudioFilename: Gurlzat.mp3
AudioLeadIn: 0
PreviewTime: 75151
Countdown: 0
SampleSet: Soft
StackLeniency: 0.3
Mode: 0
LetterboxInBreaks: 0
WidescreenStoryboard: 0

[Editor]
Bookmarks: 31305,46074,60844,75613,92228,119920,134690,149459,164228,178997,193767
DistanceSpacing: 1
BeatDivisor: 8
GridSize: 4
TimelineZoom: 1.8

[Metadata]
Title:Where Them Girls At feat. Flo Rida & Nicki Minaj
TitleUnicode:Where Them Girls At feat. Flo Rida & Nicki Minaj
Artist:David Guetta
ArtistUnicode:David Guetta
Creator:Priti
Version:Extreme
Source:
Tags:
BeatmapID:768255
BeatmapSetID:348217

[Difficulty]
HPDrainRate:5
CircleSize:4
OverallDifficulty:9
ApproachRate:8.4
SliderMultiplier:1.8
SliderTickRate:1

[Events]
//Background and Video events
0,0,"bubblez.jpg",0,0
//Break Periods
2,61043,74461
2,120004,133538
//Storyboard Layer 0 (Background)
//Storyboard Layer 1 (Fail)
//Storyboard Layer 2 (Pass)
//Storyboard Layer 3 (Foreground)
//Storyboard Sound Samples

[TimingPoints]
1767.1080515562,461.538461538462,4,2,0,50,1,0
51151,-76.9230769230769,4,2,0,50,0,0
51613,-100,4,2,0,50,0,0
60844,-100,4,2,0,50,0,0
90382,-100,4,2,0,50,0,0
91767,-100,4,2,0,5,0,0
92228,-83.3333333333333,4,2,0,70,0,0
93613,-66.6666666666667,4,2,0,70,0,0
93767,-66.6666666666667,4,2,0,30,0,0
93844,-66.6666666666667,4,2,0,70,0,0
93997,-66.6666666666667,4,2,0,30,0,0
94074,-83.3333333333333,4,2,0,70,0,0
95459,-66.6666666666667,4,2,0,70,0,0
95613,-66.6666666666667,4,2,0,30,0,0
95690,-66.6666666666667,4,2,0,70,0,0
95844,-66.6666666666667,4,2,0,30,0,0
95920,-83.3333333333333,4,2,0,70,0,0
96382,-58.8235294117647,4,2,0,70,0,0
96844,-83.3333333333333,4,2,0,70,0,0
97305,-58.8235294117647,4,2,0,70,0,0
97459,-58.8235294117647,4,2,0,30,0,0
97536,-58.8235294117647,4,2,0,70,0,0
97690,-58.8235294117647,4,2,0,30,0,0
97767,-83.3333333333333,4,2,0,70,0,0
98228,-66.6666666666667,4,2,0,70,0,0
98690,-83.3333333333333,4,2,0,70,0,0
99613,-66.6666666666667,4,2,0,70,0,0
99670,-66.6666666666667,4,2,0,30,0,0
99728,-66.6666666666667,4,2,0,70,0,0
99786,-66.6666666666667,4,2,0,30,0,0
99844,-66.6666666666667,4,2,0,70,0,0
99901,-66.6666666666667,4,2,0,30,0,0
99959,-66.6666666666667,4,2,0,70,0,0
100017,-66.6666666666667,4,2,0,30,0,0
100074,-66.6666666666667,4,2,0,70,0,0
100594,-66.6666666666667,4,2,0,30,0,0
100651,-66.6666666666667,4,2,0,70,0,0
100709,-66.6666666666667,4,2,0,30,0,0
100767,-66.6666666666667,4,2,0,70,0,0
100824,-66.6666666666667,4,2,0,30,0,0
100882,-66.6666666666667,4,2,0,70,0,0
100940,-66.6666666666667,4,2,0,30,0,0
100997,-66.6666666666667,4,2,0,70,0,0
101459,-83.3333333333333,4,2,0,70,0,0
105151,-111.111111111111,4,2,0,70,0,0
106997,-83.3333333333333,4,2,0,70,0,0
107805,-66.6666666666667,4,2,0,70,0,0
108440,-66.6666666666667,4,2,0,30,0,0
108497,-66.6666666666667,4,2,0,70,0,0
108555,-66.6666666666667,4,2,0,30,0,0
108613,-66.6666666666667,4,2,0,70,0,0
108670,-66.6666666666667,4,2,0,30,0,0
108728,-66.6666666666667,4,2,0,70,0,0
108786,-66.6666666666667,4,2,0,30,0,0
108844,-66.6666666666667,4,2,0,70,0,0
109997,-62.5,4,2,0,70,0,0
110228,-58.8235294117647,4,2,0,70,0,0
110690,-83.3333333333333,4,2,0,50,0,0
111613,-71.4285714285714,4,2,0,50,0,0
111844,-62.5,4,2,0,50,0,0
112074,-55.5555555555556,4,2,0,50,0,0
112132,-55.5555555555556,4,2,0,20,0,0
112190,-55.5555555555556,4,2,0,50,0,0
112247,-55.5555555555556,4,2,0,20,0,0
112305,-55.5555555555556,4,2,0,50,0,0
112363,-55.5555555555556,4,2,0,20,0,0
112420,-55.5555555555556,4,2,0,50,0,0
112478,-55.5555555555556,4,2,0,20,0,0
112536,-62.5,4,2,0,70,0,0
112709,-83.3333333333333,4,2,0,70,0,0
114382,-62.5,4,2,0,70,0,0
114613,-83.3333333333333,4,2,0,70,0,0
116228,-62.5,4,2,0,70,0,0
116459,-83.3333333333333,4,2,0,70,0,0
118074,-100,4,2,0,70,0,0
118420,-100,4,2,0,30,0,0
118536,-80,4,2,0,70,0,0
118882,-80,4,2,0,30,0,0
118997,-66.6666666666667,4,2,0,70,0,0
119344,-66.6666666666667,4,2,0,30,0,0
119459,-57.1428571428571,4,2,0,70,0,0
119805,-57.1428571428571,4,2,0,30,0,0
134228,-100,4,2,0,50,0,0
149459,-57.1428571428571,4,2,1,60,0,1
152863,-57.1428571428571,4,2,1,20,0,1
152920,-57.1428571428571,4,2,1,60,0,1
153094,-57.1428571428571,4,2,1,20,0,1
153151,-57.1428571428571,4,2,1,60,0,1
156151,-57.1428571428571,4,1,1,60,0,1
156267,-57.1428571428571,4,2,1,100,0,1
156382,-57.1428571428571,4,2,1,20,0,1
156844,-57.1428571428571,4,2,1,60,0,1
160247,-57.1428571428571,4,2,1,20,0,1
160305,-57.1428571428571,4,2,1,60,0,1
160478,-57.1428571428571,4,2,1,20,0,1
160536,-57.1428571428571,4,2,1,60,0,1
163709,-57.1428571428571,4,2,1,20,0,1
163767,-57.1428571428571,4,2,1,60,0,1
164228,-66.6666666666667,4,2,1,60,0,0

[Colours]
Combo1 : 244,210,159
Combo2 : 152,188,241
Combo3 : 248,158,185
Combo4 : 182,140,232

[HitObjects]
28,56,31074,5,2,0:0:0:0:
104,104,31305,2,0,P|157:86|224:96,1,90,0|2,1:0|0:0,0:0:0:0:
224,98,31651,1,0,0:0:0:0:
252,120,31767,1,8,1:2:0:0:
176,242,31997,2,0,L|170:198,1,45,0|2,0:0|0:0,0:0:0:0:
208,315,32228,2,0,B|162:323|162:323|106:293,1,90,0|2,1:0|0:0,0:0:0:0:
40,212,32574,1,0,0:0:0:0:
14,237,32689,2,0,L|22:338,1,90,8|0,1:2|0:0,0:0:0:0:
134,143,33151,6,0,L|143:97,1,45,0|2,1:0|0:0,0:0:0:0:
19,33,33382,2,0,L|30:86,1,45,2|0,0:0|0:0,0:0:0:0:
115,236,33613,2,0,P|163:228|213:227,1,90,8|2,1:2|0:0,0:0:0:0:
445,54,34074,2,0,B|400:43|400:43|360:70,1,90,0|0,1:0|0:0,0:0:0:0:
212,218,34536,2,0,B|257:229|257:229|297:202,1,90,10|2,1:2|0:1,0:0:0:0:
47,155,34997,5,0,1:0:0:0:
34,188,35113,2,0,L|39:243,2,45,2|0|2,0:0|0:0|0:0,0:0:0:0:
142,113,35459,2,0,L|131:210,1,90,10|2,1:2|0:0,0:0:0:0:
171,308,35805,1,2,0:0:0:0:
192,336,35920,2,0,B|236:346|236:346|273:321,1,90,0|2,1:0|0:0,0:0:0:0:
392,148,36382,2,0,L|288:136,1,90,8|0,1:2|0:0,0:0:0:0:
176,176,36728,1,2,0:0:0:0:
148,100,36844,5,0,1:0:0:0:
192,32,36959,2,0,L|248:28,1,45,2|2,0:0|0:0,0:0:0:0:
498,138,37305,2,0,P|494:192|465:227,1,90,8|2,1:2|0:0,0:0:0:0:
254,130,37767,2,0,B|291:106|291:106|336:117,1,90,0|0,1:0|0:0,0:0:0:0:
429,301,38229,2,0,B|393:326|393:326|348:315,1,90,10|2,1:2|0:1,0:0:0:0:
187,196,38690,5,0,1:0:0:0:
173,229,38805,2,0,L|175:279,2,45,2|2|0,0:0|0:0|0:0,0:0:0:0:
286,126,39151,1,8,1:2:0:0:
298,160,39267,2,0,P|299:213|288:261,1,90,0|2,0:0|0:0,0:0:0:0:
239,348,39613,1,0,1:0:0:0:
272,360,39728,2,0,L|331:357,1,45,0|2,0:0|0:0,0:0:0:0:
488,316,39959,1,2,0:0:0:0:
441,261,40074,2,0,P|416:257|392:270,1,45,8|2,1:2|0:0,0:0:0:0:
160,318,40420,1,0,0:0:0:0:
136,290,40536,6,0,L|151:178,1,90,0|2,1:0|0:0,0:0:0:0:
6,270,40997,1,8,1:2:0:0:
11,305,41112,1,2,0:0:0:0:
16,341,41227,1,2,0:0:0:0:
125,100,41459,2,0,B|170:89|170:89|210:116,1,90,0|0,1:0|0:0,0:0:0:0:
334,273,41921,2,0,B|289:284|289:284|249:257,1,90,8|2,1:2|0:1,0:0:0:0:
435,49,42382,6,0,L|442:138,1,90,0|2,1:0|0:0,0:0:0:0:
328,317,42844,2,0,L|334:273,1,45,8|2,1:2|0:0,0:0:0:0:
485,219,43075,2,0,P|493:242|491:278,1,45,0|2,0:0|0:0,0:0:0:0:
410,330,43305,2,0,L|285:324,1,90,0|2,1:0|0:0,0:0:0:0:
109,336,43767,1,8,1:2:0:0:
121,293,43882,1,0,0:0:0:0:
114,249,43997,1,2,0:0:0:0:
86,214,44113,1,2,0:0:0:0:
43,227,44228,6,0,L|53:125,1,90,0|0,1:0|0:0,0:0:0:0:
146,62,44574,1,0,0:0:0:0:
178,78,44690,2,0,L|192:175,1,90,8|2,1:2|0:0,0:0:0:0:
191,353,45151,2,0,B|148:360|148:360|108:336,1,90,0|0,1:0|0:0,0:0:0:0:
263,185,45613,2,2,L|420:195,1,135,8|0,1:2|0:0,0:1:0:0:
413,177,46074,5,0,1:0:0:0:
297,62,46305,1,2,0:0:0:0:
269,84,46420,1,2,0:0:0:0:
253,116,46535,1,8,1:2:0:0:
250,152,46651,1,0,0:0:0:0:
263,185,46766,1,2,0:0:0:0:
399,87,46997,2,0,B|410:42|410:42|383:2,1,90,0|2,1:0|0:0,0:0:0:0:
163,108,47459,2,0,L|253:116,1,90,8|2,1:2|0:0,0:0:0:0:
262,136,47805,1,2,0:0:0:0:
271,156,47920,5,0,1:0:0:0:
81,223,48151,1,2,0:0:0:0:
235,355,48382,2,0,P|228:288|197:243,1,90,8|2,1:2|0:0,0:0:0:0:
18,166,48844,2,0,P|1:207|1:252,1,90,0|2,1:0|0:0,0:0:0:0:
225,86,49305,2,0,L|138:75,1,45,8|0,1:2|0:0,0:0:0:0:
50,17,49536,1,2,0:1:0:0:
54,38,49651,1,2,0:0:0:0:
59,60,49767,6,0,L|47:168,1,90,0|2,1:0|0:0,0:0:0:0:
140,225,50113,1,0,0:0:0:0:
152,206,50228,2,0,P|148:175|142:161,1,45,8|0,1:2|0:0,0:0:0:0:
51,272,50459,2,0,P|43:293|41:315,1,45,0|2,0:0|0:0,0:0:0:0:
155,367,50690,2,0,P|214:363|271:353,1,90,0|2,1:0|0:0,0:0:0:0:
353,239,51151,6,2,L|331:235,9,19.4999991073609,8|0|0|0|0|0|0|0|0|0,1:2|0:0|0:0|0:0|0:0|0:0|0:0|0:0|0:0|0:0,0:1:0:0:
326,226,51613,6,0,P|370:223|422:246,1,90,2|2,0:0|0:1,0:0:0:0:
226,271,52074,2,0,B|219:250|213:226|211:203|222:168|229:199|240:165|238:141|232:117|226:96,1,180,2|2,0:3|0:0,0:0:0:0:
225,95,53459,6,0,L|285:90,1,45,0|2,1:0|0:0,0:0:0:0:
398,144,53690,1,2,0:0:0:0:
392,179,53805,1,0,0:0:0:0:
386,214,53920,2,0,P|332:209|294:194,1,90,8|2,1:2|0:0,0:0:0:0:
194,307,54267,1,2,0:0:0:0:
214,314,54382,2,0,P|247:309|262:300,1,45,0|2,1:0|0:0,0:0:0:0:
159,207,54613,2,0,P|138:198|116:196,1,45,2|0,0:0|0:0,0:0:0:0:
20,262,54844,2,0,L|5:130,1,90,8|0,1:2|0:0,0:0:0:0:
166,13,55305,6,0,L|156:115,1,90,0|2,1:0|0:0,0:0:0:0:
142,119,55651,1,0,0:0:0:0:
127,136,55767,1,8,1:2:0:0:
333,282,55997,1,0,0:0:0:0:
340,246,56113,1,2,0:0:0:0:
347,210,56228,2,0,P|341:170|335:159,1,45,0|2,1:0|0:0,0:0:0:0:
230,127,56459,2,0,P|222:148|222:170,1,45,2|0,0:0|0:0,0:0:0:0:
243,286,56690,2,0,L|365:280,1,90,8|2,1:2|0:1,0:0:0:0:
348,297,57036,1,2,0:0:0:0:
363,312,57151,6,0,L|411:318,2,45,0|2|2,1:0|0:0|0:0,0:0:0:0:
467,119,57613,2,0,P|479:178|479:216,1,90,8|2,1:2|0:0,0:0:0:0:
356,138,57959,1,2,0:0:0:0:
352,116,58074,2,0,P|357:84|373:56,1,45,0|0,1:0|0:0,0:0:0:0:
451,20,58305,1,0,0:0:0:0:
392,225,58536,2,0,L|264:215,1,90,8|0,1:2|0:0,0:0:0:0:
223,160,58882,1,0,0:0:0:0:
207,176,58997,6,0,L|196:236,1,45,2|0,0:0|0:0,0:0:0:0:
276,347,59228,2,0,L|267:303,1,45
95,324,59459,2,0,B|129:352|129:352|173:343,1,90,8|2,0:0|0:0,0:0:0:0:
266,302,59805,1,0,0:0:0:0:
285,290,59920,2,0,P|320:294|339:303,2,45,2|0|0,0:0|0:0|0:0,0:0:0:0:
166,214,60382,2,2,B|145:106|145:106|219:68,1,180,8|0,0:0|0:0,0:1:0:0:
131,114,75151,6,0,L|140:216,1,90,2|2,0:0|0:0,0:0:0:0:
273,305,75613,6,0,P|286:254|287:215,1,90,0|0,1:0|0:0,0:0:0:0:
276,182,75959,1,0,0:0:0:0:
256,152,76074,1,8,1:2:0:0:
88,293,76305,2,0,L|80:356,1,45
199,365,76536,2,0,L|186:237,1,90,0|0,1:0|0:0,0:0:0:0:
36,95,76997,2,0,B|21:138|21:138|42:181,1,90,8|0,1:2|0:0,0:0:0:0:
231,122,77459,6,0,L|141:112,1,90
122,124,77805,1,0,0:0:0:0:
103,136,77920,1,8,1:2:0:0:
192,237,78151,1,0,0:0:0:0:
0,304,78382,2,0,P|54:301|89:318,1,90,0|0,1:0|0:0,0:0:0:0:
162,363,78728,1,0,0:0:0:0:
181,374,78844,2,0,P|235:377|270:360,1,90,8|2,1:2|0:1,0:0:0:0:
218,203,79305,6,0,L|213:293,1,90,0|0,1:0|0:0,0:0:0:0:
58,259,79767,2,0,L|46:156,1,90,8|0,1:2|0:0,0:0:0:0:
154,37,80228,2,0,P|151:60|136:91,1,45,0|0,1:0|0:0,0:0:0:0:
79,42,80459,1,0,0:0:0:0:
271,14,80690,2,0,P|279:75|281:140,1,90,8|0,1:2|0:0,0:0:0:0:
278,139,81036,1,0,0:0:0:0:
263,171,81151,6,0,L|372:178,1,90,0|0,1:0|0:0,0:0:0:0:
454,71,81497,1,0,0:0:0:0:
438,86,81613,2,0,L|335:92,1,90,8|0,1:2|0:0,0:0:0:0:
409,252,82074,2,0,B|453:261|453:261|500:237,1,90,0|0,1:0|0:0,0:0:0:0:
250,182,82536,2,0,P|241:208|238:238,1,45,8|0,1:2|0:0,0:0:0:0:
319,350,82767,2,0,P|315:327|307:306,1,45,2|0,0:1|0:0,0:0:0:0:
110,333,82997,6,0,L|223:341,1,90,4|0,1:2|0:0,0:0:0:0:
402,238,83459,2,0,L|289:246,1,90,12|0,1:2|0:0,0:0:0:0:
110,143,83921,2,0,L|223:151,1,90,4|0,1:2|0:0,0:0:0:0:
402,48,84382,2,0,L|289:56,1,90,12|0,1:2|0:0,0:0:0:0:
109,142,84844,6,0,P|97:99|95:55,1,90,4|0,1:2|0:0,0:0:0:0:
168,250,85305,2,0,L|52:258,1,90,12|0,1:2|0:0,0:0:0:0:
344,250,85767,2,0,L|460:258,1,90,4|0,1:2|0:0,0:0:0:0:
417,55,86228,2,0,P|414:99|402:142,1,90,12|2,1:2|0:1,0:0:0:0:
256,220,86690,5,4,1:2:0:0:
227,202,86805,1,0,0:0:0:0:
208,174,86920,1,0,0:0:0:0:
202,141,87036,1,0,0:0:0:0:
211,109,87151,1,12,1:2:0:0:
232,83,87266,1,0,0:0:0:0:
262,69,87382,1,0,0:0:0:0:
296,68,87497,1,0,0:0:0:0:
327,81,87613,5,4,1:2:0:0:
323,115,87728,1,0,0:0:0:0:
319,148,87843,1,0,0:0:0:0:
316,182,87959,1,0,0:0:0:0:
312,215,88074,2,0,L|321:276,1,45,12|0,1:2|0:0,0:0:0:0:
444,334,88305,2,0,L|461:281,1,45
410,59,88536,6,0,L|415:111,1,45,4|0,1:2|0:0,0:0:0:0:
395,70,88767,2,0,L|400:122,1,45
211,152,88997,6,0,L|206:204,1,45,12|0,1:2|0:0,0:0:0:0:
226,163,89228,2,0,L|221:215,1,45
376,222,89459,6,0,L|381:274,1,45,4|0,1:2|0:0,0:0:0:0:
361,233,89690,2,0,L|366:285,1,45
177,315,89920,6,0,L|172:367,1,45,12|0,1:2|0:0,0:0:0:0:
192,326,90151,2,0,L|187:378,1,45,2|0,0:1|0:0,0:0:0:0:
146,195,90382,6,0,L|133:132,1,60,4|2,1:3|0:0,0:0:0:0:
378,136,90844,2,0,L|366:195,1,60,0|2,0:0|0:0,0:0:0:0:
255,278,91305,2,2,B|248:257|242:233|240:210|251:175|258:206|269:172|267:148|261:124|255:103,1,180,6|0,1:3|0:0,0:0:0:0:
255,103,92228,6,0,P|248:68|251:28,2,71.9999978027345,0|2|2,1:0|0:0|0:0,0:0:0:0:
304,200,92690,2,0,L|184:192,1,107.999996704102,8|2,1:2|0:0,0:0:0:0:
123,157,93036,1,0,0:0:0:0:
71,219,93151,6,0,L|79:276,1,53.9999983520508,0|0,1:0|0:0,0:0:0:0:
235,351,93382,2,0,L|250:284,1,53.9999983520508,2|0,0:0|0:0,0:0:0:0:
111,68,93613,6,0,L|123:157,1,90.0000034332277,8|0,1:2|0:0,0:0:0:0:
169,244,93844,2,0,L|150:332,1,90.0000034332277,2|0,0:1|0:0,0:0:0:0:
71,219,94074,6,0,L|79:276,1,53.9999983520508,0|2,1:0|0:0,0:0:0:0:
26,335,94305,1,0,0:0:0:0:
170,48,94536,6,0,P|130:20|64:39,1,107.999996704102,8|2,1:2|0:0,0:0:0:0:
41,194,94882,1,2,0:0:0:0:
107,143,94997,2,0,L|114:90,1,53.9999983520508,0|2,1:0|0:0,0:0:0:0:
275,41,95228,2,0,L|288:106,1,53.9999983520508,2|0,0:0|0:0,0:0:0:0:
354,265,95459,6,0,P|359:221|344:180,1,90.0000034332277,8|0,1:2|0:0,0:0:0:0:
266,191,95690,2,0,P|261:235|277:277,1,90.0000034332277,2|0,0:0|0:0,0:0:0:0:
326,339,95920,6,0,L|267:351,1,53.9999983520508,0|2,1:0|0:0,0:0:0:0:
41,194,96151,1,0,0:0:0:0:
119,217,96267,1,0,0:0:0:0:
154,20,96382,6,2,P|95:63|99:137,1,153.000002918243,10|0,1:2|0:0,0:1:0:0:
259,221,96728,5,2,0:0:0:0:
294,146,96844,2,0,L|285:93,1,53.9999983520508,0|2,1:0|0:0,0:0:0:0:
495,33,97074,2,0,L|485:98,1,53.9999983520508,2|0,0:0|0:0,0:0:0:0:
382,336,97305,6,0,P|361:293|364:240,1,102.000001945496,8|0,1:2|0:0,0:0:0:0:
467,178,97536,2,0,P|470:228|448:274,1,102.000001945496,2|0,0:1|0:0,0:0:0:0:
253,114,97767,6,0,L|361:120,1,107.999996704102,2|0,1:2|0:0,0:0:0:0:
59,191,98228,2,2,B|23:132|23:132|38:68,1,135.000005149842,10|0,1:2|0:0,0:1:0:0:
235,251,98690,6,0,P|185:266|155:258,2,71.9999978027344,2|0|2,1:2|0:0|0:0,0:0:0:0:
332,187,99151,2,0,L|394:193,1,53.9999983520508,8|0,1:2|0:0,0:0:0:0:
512,276,99382,2,0,L|451:285,1,53.9999983520508,2|0,0:0|0:0,0:0:0:0:
382,30,99613,6,0,L|376:67,1,33.7500012874604,6|0,3:0|0:0,0:0:0:0:
404,43,99728,2,0,L|391:78,1,33.7500012874604,0|0,3:0|0:0,0:0:0:0:
425,61,99844,2,0,L|406:93,1,33.7500012874604,0|0,3:0|0:0,0:0:0:0:
442,81,99959,2,0,L|418:110,1,33.7500012874604,0|0,3:0|0:0,0:0:0:0:
455,105,100074,5,0,3:0:0:0:
164,155,100305,1,2,0:0:0:0:
130,30,100536,6,0,L|136:67,1,33.7500012874604,6|0,3:0|0:0,0:0:0:0:
108,43,100651,2,0,L|120:78,1,33.7500012874604,0|0,3:0|0:0,0:0:0:0:
87,61,100767,2,0,L|105:93,1,33.7500012874604,0|0,3:0|0:0,0:0:0:0:
70,81,100882,2,0,L|93:110,1,33.7500012874604
57,105,100997,5,0,3:0:0:0:
348,155,101228,1,2,0:0:0:0:
256,48,101459,6,0,L|256:108,1,53.9999983520508,0|2,1:0|0:0,0:0:0:0:
179,206,101690,2,0,L|164:155,1,53.9999983520508,2|0,0:0|0:0,0:0:0:0:
252,292,101920,1,8,1:2:0:0:
166,318,102035,1,2,0:0:0:0:
88,275,102152,2,0,P|48:278|26:288,1,53.9999983520508,2|0,0:0|0:0,0:0:0:0:
256,346,102382,6,0,L|252:292,1,53.9999983520508,0|0,1:0|0:0,0:0:0:0:
405,235,102613,2,0,L|392:301,1,53.9999983520508,2|0,0:0|0:0,0:0:0:0:
278,145,102844,2,0,L|336:135,1,53.9999983520508,8|0,1:2|0:0,0:0:0:0:
490,193,103074,1,2,0:0:0:0:
266,93,103305,6,0,P|268:119|278:145,1,53.9999983520508,0|2,1:0|0:0,0:0:0:0:
319,215,103536,1,2,0:0:0:0:
166,248,103651,1,0,0:0:0:0:
256,346,103767,2,0,L|138:353,1,107.999996704102,8|2,1:2|0:0,0:0:0:0:
43,256,104113,1,2,0:0:0:0:
64,239,104228,6,0,B|116:226|116:226|166:248,1,107.999996704102,0|2,1:0|0:0,0:0:0:0:
336,116,104690,2,0,B|284:129|284:129|234:107,1,107.999996704102,8|2,1:2|0:1,0:0:0:0:
478,34,105152,6,0,B|473:77|473:77|504:108|486:149,1,121.499996292114,2|0,1:2|0:0,0:0:0:0:
447,273,105613,2,0,P|428:238|433:199,1,80.9999975280763,10|0,1:2|0:0,0:0:0:0:
501,224,105958,1,2,0:0:0:0:
325,266,106074,2,0,P|284:264|244:258,1,80.9999975280763,0|2,1:0|0:0,0:0:0:0:
164,174,106420,1,0,0:0:0:0:
171,169,106536,2,0,L|214:163,1,40.4999987640381,10|0,1:2|0:0,0:0:0:0:
290,183,106767,1,0,0:0:0:0:
47,248,106997,6,0,L|31:134,1,107.999996704102,0|2,1:0|0:0,0:0:0:0:
175,54,107344,1,2,0:0:0:0:
184,61,107459,2,0,L|171:169,1,107.999996704102,8|2,1:2|0:0,0:0:0:0:
301,220,107805,1,2,0:0:0:0:
308,208,107920,6,0,L|298:140,1,67.5000025749208,0|2,1:0|0:0,0:0:0:0:
444,49,108151,2,0,L|436:121,1,67.5000025749208,2|0,0:0|0:0,0:0:0:0:
411,311,108382,6,0,L|450:302,1,33.7500012874604,10|0,1:2|0:0,0:0:0:0:
404,294,108497,2,0,L|444:291,1,33.7500012874604,0|0,3:0|0:0,0:0:0:0:
402,273,108613,2,0,L|442:276,1,33.7500012874604,2|0,3:1|0:0,0:0:0:0:
402,255,108728,2,0,L|441:265,1,33.7500012874604,0|0,3:0|0:0,0:0:0:0:
406,235,108844,6,0,L|468:262,1,67.5000025749208,0|2,1:0|0:0,0:0:0:0:
414,137,109074,2,0,L|336:145,1,67.5000025749208,2|0,0:0|0:0,0:0:0:0:
169,220,109305,2,0,B|184:214|202:210|219:208|245:217|222:222|248:230|266:228|284:224|299:220,1,135.000005149842,10|2,1:2|0:0,0:0:0:0:
231,125,109651,1,2,0:0:0:0:
206,292,109766,6,0,P|206:328|224:365,1,67.5000025749208,0|0,1:0|0:0,0:0:0:0:
364,269,109997,2,0,P|376:237|376:195,1,72,2|0,0:0|0:0,0:0:0:0:
224,48,110228,2,0,L|231:125,1,76.5000014591217,8|0,1:2|0:0,0:0:0:0:
169,220,110459,1,2,0:0:0:0:
169,220,110690,6,0,L|97:214,2,71.9999978027344
30,271,111151,2,0,P|8:222|19:171,1,107.999996704102
67,104,111497,1,0,0:0:0:0:
152,185,111613,6,0,P|126:203|97:214,1,62.9999980773926
166,64,111844,2,0,P|203:68|234:84,1,72
355,215,112074,6,0,L|311:218,1,40.4999987640381,0|0,3:0|0:0,0:0:0:0:
366,193,112190,2,0,L|324:207,1,40.4999987640381,0|0,3:0|0:0,0:0:0:0:
372,169,112305,2,0,L|334:192,1,40.4999987640381,0|0,3:0|0:0,0:0:0:0:
372,144,112421,2,0,L|341:176,1,40.4999987640381,0|0,3:0|0:0,0:0:0:0:
365,121,112536,6,0,P|364:77|380:48,1,72,0|2,1:0|0:0,0:0:0:0:
447,12,112767,1,0,0:0:0:0:
251,37,112997,2,0,L|135:28,1,107.999996704102,8|2,1:2|0:0,0:0:0:0:
12,154,113459,6,0,P|43:157|71:142,1,53.9999983520508,0|2,1:0|0:0,0:0:0:0:
270,241,113689,1,2,0:0:0:0:
200,199,113804,1,2,0:0:0:0:
124,228,113920,2,0,P|128:289|142:342,1,107.999996704102,8|2,1:2|0:0,0:0:0:0:
341,247,114382,6,0,L|270:241,1,72,0|2,1:0|0:0,0:0:0:0:
270,159,114613,1,0,0:0:0:0:
443,193,114844,2,0,L|449:246,1,53.9999983520508,8|2,1:2|0:0,0:0:0:0:
265,294,115074,2,0,L|271:222,1,53.9999983520508,2|2,0:0|0:0,0:0:0:0:
332,54,115305,5,0,1:0:0:0:
252,66,115420,1,2,0:0:0:0:
172,78,115537,2,0,P|139:77|117:66,1,53.9999983520508
18,197,115767,2,0,P|42:186|69:187,1,53.9999983520508,8|0,1:2|0:0,0:0:0:0:
143,221,115997,1,2,0:1:0:0:
108,27,116228,6,0,L|37:22,1,72,0|2,1:0|0:0,0:0:0:0:
172,78,116459,1,0,0:0:0:0:
133,273,116690,2,0,P|134:246|143:220,1,53.9999983520508,8|2,1:2|0:0,1:2:0:0:
292,163,116920,2,0,P|300:188|301:215,1,53.9999983520508,2|2,0:0|0:0,1:2:0:0:
177,349,117152,6,0,P|137:362|66:328,1,107.999996704102,0|2,1:0|0:0,0:0:0:0:
21,281,117497,1,0,0:0:0:0:
143,221,117613,2,0,L|201:218,1,53.9999983520508,8|0,1:2|0:0,0:0:0:0:
458,165,117844,2,0,L|401:160,1,53.9999983520508,2|0,0:0|0:0,0:0:0:0:
208,53,118074,5,2,0:0:0:0:
227,65,118190,2,0,P|266:70|321:46,1,90,2|0,0:0|0:0,0:0:0:0:
458,165,118536,5,10,0:0:0:0:
434,180,118652,2,0,P|385:186|316:156,1,112.5,2|0,0:0|0:0,0:0:0:0:
121,239,118997,5,2,0:0:0:0:
149,257,119113,2,0,P|207:264|290:228,1,135.000005149842,2|0,0:0|0:0,0:0:0:0:
512,332,119459,5,10,0:0:0:0:
478,353,119574,2,0,P|409:361|313:319,1,157.500001502037,2|0,0:0|0:0,0:0:0:0:
381,114,134228,6,0,L|372:216,1,90,2|2,0:0|0:0,0:0:0:0:
239,305,134690,6,0,P|226:254|225:215,1,90,0|0,1:0|0:0,0:0:0:0:
236,182,135036,1,0,0:0:0:0:
256,152,135151,1,8,1:2:0:0:
424,293,135382,2,0,L|432:356,1,45
313,365,135613,2,0,L|326:237,1,90,0|0,1:0|0:0,0:0:0:0:
476,95,136074,2,0,B|491:138|491:138|470:181,1,90,8|0,1:2|0:0,0:0:0:0:
281,122,136536,6,0,L|371:112,1,90
390,124,136882,1,0,0:0:0:0:
409,136,136997,1,8,1:2:0:0:
320,237,137228,1,0,0:0:0:0:
512,304,137459,2,0,P|458:301|423:318,1,90,0|0,1:0|0:0,0:0:0:0:
350,363,137805,1,0,0:0:0:0:
331,374,137921,2,0,P|277:377|242:360,1,90,8|2,1:2|0:1,0:0:0:0:
294,203,138382,6,0,L|299:293,1,90,0|0,1:0|0:0,0:0:0:0:
454,259,138844,2,0,L|466:156,1,90,8|0,1:2|0:0,0:0:0:0:
358,37,139305,2,0,P|361:60|376:91,1,45,0|0,1:0|0:0,0:0:0:0:
433,42,139536,1,0,0:0:0:0:
241,14,139767,2,0,P|233:75|231:140,1,90,8|0,1:2|0:0,0:0:0:0:
234,139,140113,1,0,0:0:0:0:
249,171,140228,6,0,L|140:178,1,90,0|0,1:0|0:0,0:0:0:0:
58,71,140574,1,0,0:0:0:0:
74,86,140690,2,0,L|177:92,1,90,8|0,1:2|0:0,0:0:0:0:
103,252,141151,2,0,B|59:261|59:261|12:237,1,90,0|0,1:0|0:0,0:0:0:0:
262,182,141613,2,0,P|271:208|274:238,1,45,8|0,1:2|0:0,0:0:0:0:
193,350,141844,2,0,P|197:327|205:306,1,45,2|0,0:1|0:0,0:0:0:0:
402,333,142074,6,0,L|289:341,1,90,4|0,1:2|0:0,0:0:0:0:
110,238,142536,2,0,L|223:246,1,90,12|0,1:2|0:0,0:0:0:0:
402,143,142998,2,0,L|289:151,1,90,4|0,1:2|0:0,0:0:0:0:
110,48,143459,2,0,L|223:56,1,90,12|0,1:2|0:0,0:0:0:0:
403,142,143921,6,0,P|415:99|417:55,1,90,4|0,1:2|0:0,0:0:0:0:
344,250,144382,2,0,L|460:258,1,90,12|0,1:2|0:0,0:0:0:0:
168,250,144844,2,0,L|52:258,1,90,4|0,1:2|0:0,0:0:0:0:
95,55,145305,2,0,P|98:99|110:142,1,90,12|2,1:2|0:1,0:0:0:0:
256,220,145767,5,4,1:2:0:0:
285,202,145882,1,0,0:0:0:0:
304,174,145997,1,0,0:0:0:0:
310,141,146113,1,0,0:0:0:0:
301,109,146228,1,12,1:2:0:0:
280,83,146343,1,0,0:0:0:0:
250,69,146459,1,0,0:0:0:0:
216,68,146574,1,0,0:0:0:0:
185,81,146690,5,4,1:2:0:0:
189,115,146805,1,0,0:0:0:0:
193,148,146920,1,0,0:0:0:0:
196,182,147036,1,0,0:0:0:0:
200,215,147151,2,0,L|191:276,1,45,12|0,1:2|0:0,0:0:0:0:
68,334,147382,2,0,L|51:281,1,45
102,59,147613,6,0,L|97:111,1,45,4|0,1:2|0:0,0:0:0:0:
117,70,147844,2,0,L|112:122,1,45
301,152,148074,6,0,L|306:204,1,45,12|0,1:2|0:0,0:0:0:0:
286,163,148305,2,0,L|291:215,1,45
136,222,148536,6,0,L|131:274,1,45,4|0,1:2|0:0,0:0:0:0:
151,233,148767,2,0,L|146:285,1,45
335,315,148997,6,0,L|340:367,1,45,12|0,1:2|0:0,0:0:0:0:
320,326,149228,2,0,L|325:378,1,45,2|0,0:1|0:0,0:0:0:0:
366,195,149459,6,0,P|296:185|114:174,1,236.250002253056,2|0,1:0|0:0,0:0:0:0:
33,68,149920,2,0,P|105:68|189:33,1,157.500001502037,10|0,1:0|0:0,0:0:0:0:
183,36,150267,1,2,0:1:0:0:
58,198,150382,2,0,B|43:276|43:276|138:256,1,157.500001502037,0|2,1:0|0:1,0:0:0:0:
377,53,150844,2,0,L|404:229,1,157.500001502037,10|0,1:0|0:0,0:0:0:0:
217,349,151305,6,0,L|237:171,1,157.500001502037,2|2,1:0|0:0,0:0:0:0:
329,65,151651,1,2,0:0:0:0:
272,7,151767,2,0,P|253:40|252:79,1,78.7500007510185,10|0,1:0|0:0,0:0:0:0:
313,205,151997,1,2,0:0:0:0:
350,138,152113,2,0,P|349:99|329:65,1,78.7500007510185,2|0,0:1|1:0,0:0:0:0:
184,150,152344,1,2,0:0:0:0:
234,202,152459,2,0,L|312:204,1,78.7500007510185,2|0,0:0|0:0,0:0:0:0:
446,244,152690,6,0,P|448:301|408:361,1,118.125001126528,10|0,1:0|0:0,0:0:0:0:
426,360,152920,2,0,L|291:373,1,118.125001126528,2|0,0:1|0:0,0:0:0:0:
300,362,153151,6,0,L|314:192,1,157.500001502037,2|2,1:0|0:0,0:0:0:0:
77,149,153613,2,0,P|53:215|116:280,1,157.500001502037,10|0,1:0|0:0,0:0:0:0:
205,218,153960,2,0,P|168:204|128:203,1,78.7500007510185,2|0,0:1|1:0,0:0:0:0:
194,353,154190,1,2,0:0:0:0:
194,353,154304,2,0,P|233:351|270:338,1,78.7500007510185,2|0,0:1|0:0,0:0:0:0:
329,284,154536,1,10,1:0:0:0:
129,202,154767,1,2,0:0:0:0:
264,89,154997,6,0,L|278:184,1,78.7500007510185,2|0,1:0|0:0,0:0:0:0:
329,284,155228,1,2,0:0:0:0:
365,213,155344,1,2,0:0:0:0:
295,178,155459,2,0,P|375:168|466:171,1,157.500001502037,10|2,1:0|0:0,0:0:0:0:
406,301,155805,2,0,P|355:291|316:280,1,78.7500007510185,2|0,0:1|1:0,0:0:0:0:
264,89,156036,1,0,0:0:0:0:
282,21,156151,2,2,L|295:178,1,157.500001502037,2|0,2:0|0:0,0:0:0:0:
295,178,156844,6,0,L|388:184,1,78.7500007510185,2|0,1:0|0:0,0:0:0:0:
328,82,157074,2,0,L|420:87,1,78.7500007510185,2|0,0:0|0:0,0:0:0:0:
460,267,157305,2,0,P|396:268|305:297,1,157.500001502037,10|2,1:0|0:0,0:0:0:0:
307,295,157651,1,2,0:1:0:0:
224,148,157766,2,0,P|270:161|309:194,1,78.7500007510185,0|0,1:0|0:0,0:0:0:0:
399,52,157997,2,0,P|366:73|328:82,1,78.7500007510185,2|2,0:1|0:0,0:0:0:0:
146,160,158228,2,0,B|270:156|270:156|300:182,1,157.500001502037,10|0,1:0|0:0,0:0:0:0:
120,236,158690,6,0,B|42:245|42:245|72:160,1,157.500001502037,2|2,1:0|0:0,0:0:0:0:
146,160,159036,1,2,0:0:0:0:
95,326,159151,2,0,L|69:170,1,157.500001502037,10|2,1:0|0:0,0:0:0:0:
98,98,159497,1,2,0:1:0:0:
222,170,159613,2,0,P|183:171|146:160,1,78.7500007510185,0|2,1:0|0:0,0:0:0:0:
206,30,159844,2,0,P|243:18|282:19,1,78.7500007510185,2|0,0:0|0:0,0:0:0:0:
397,98,160074,6,0,L|382:243,1,118.125001126528,10|0,1:0|0:0,0:0:0:0:
399,201,160306,2,0,L|384:346,1,118.125001126528,2|0,0:1|0:0,0:0:0:0:
397,305,160536,6,0,B|369:297|337:289|305:286|261:301|301:310|255:324|225:322|193:314|165:305,1,236.250002253056,2|0,1:0|0:0,0:0:0:0:
79,206,160997,2,0,P|150:175|226:188,1,157.500001502037,10|0,1:0|0:0,0:0:0:0:
397,305,161344,2,0,L|407:226,1,78.7500007510185,2|0,0:1|1:0,0:0:0:0:
409,92,161574,1,2,0:0:0:0:
491,71,161690,2,0,L|505:163,1,78.7500007510185,2|0,0:1|0:0,0:0:0:0:
476,353,161920,2,0,L|281:340,1,157.500001502037,10|0,1:0|0:0,0:0:0:0:
136,136,162382,6,0,B|207:132|207:132|224:139|224:139|296:135,1,157.500001502037,2|2,1:0|0:0,0:0:0:0:
291,135,162728,1,2,0:0:0:0:
188,244,162844,2,0,L|96:232,1,78.7500007510185,10|0,1:0|0:0,0:0:0:0:
136,136,163074,1,2,0:0:0:0:
20,80,163190,1,2,0:1:0:0:
20,80,163305,2,0,L|40:188,1,78.7500007510185,0|0,1:0|0:0,0:0:0:0:
178,362,163536,6,0,L|190:222,1,118.125001126528,2|0,0:0|0:0,0:0:0:0:
202,230,163767,2,2,P|277:216|345:253,1,157.500001502037,10|0,1:1|0:1,0:1:0:0:
57,323,164228,6,0,B|36:242|74:264|55:190,1,135.000005149842,0|0,1:0|0:0,0:0:0:0:
28,113,164574,1,0,0:0:0:0:
84,54,164690,2,0,L|239:70,1,135.000005149842,8|0,1:2|0:0,0:0:0:0:
352,224,165151,2,0,L|187:241,1,135.000005149842,0|0,1:0|0:0,0:0:0:0:
432,178,165613,2,0,P|443:209|441:243,1,67.5000025749208,8|0,1:2|0:0,0:0:0:0:
281,339,165844,2,0,P|279:305|290:273,1,67.5000025749208
351,129,166074,6,0,P|283:125|194:109,1,135.000005149842,0|0,1:0|0:0,0:0:0:0:
