osu file format v14

[General]
AudioFilename: She Wolf.mp3
AudioLeadIn: 0
PreviewTime: 46123
Countdown: 0
SampleSet: Soft
StackLeniency: 0.7
Mode: 0
LetterboxInBreaks: 0
WidescreenStoryboard: 1

[Editor]
Bookmarks: 60892,73815,86276
DistanceSpacing: 1
BeatDivisor: 4
GridSize: 4
TimelineZoom: 1.8

[Metadata]
Title:She Wolf (Falling To Pieces) Feat. Sia
TitleUnicode:She Wolf (Falling To Pieces) Feat. Sia
Artist:David Guetta
ArtistUnicode:David Guetta
Creator:Pappy
Version:Easy
Source:
Tags:
BeatmapID:1317118
BeatmapSetID:351108

[Difficulty]
HPDrainRate:3
CircleSize:2.5
OverallDifficulty:2
ApproachRate:3
SliderMultiplier:1.4
SliderTickRate:1

[Events]
//Background and Video events
0,0,"545489.jpg",0,0
//Break Periods
2,75861,81606
//Storyboard Layer 0 (Background)
//Storyboard Layer 1 (Fail)
//Storyboard Layer 2 (Pass)
//Storyboard Layer 3 (Foreground)
//Storyboard Sound Samples

[TimingPoints]
9200,461.538461538462,4,2,1,40,1,0
9200,-117.647058823529,4,2,1,40,0,0
16584,-100,4,2,1,40,0,0
60892,-100,4,2,1,60,0,0
75661,-100,4,2,1,70,0,0
90430,-100,4,1,1,80,0,1
105200,-117.647058823529,4,2,1,80,0,0

[Colours]
Combo1 : 118,177,209
Combo2 : 120,188,142

[HitObjects]
272,296,9200,6,0,P|249:138|412:104,1,357.000006809235
346,203,11046,2,0,B|196:91|196:91|131:151|37:114,1,357.000006809235
68,228,12892,6,0,B|217:339|217:339|282:279|376:316,1,357.000006809235
482,370,14738,2,0,B|523:295|471:231|445:202|395:195|395:195|395:123|343:82,1,357.000006809235
255,191,16584,6,0,P|127:306|104:136,1,420
216,52,18430,2,0,B|360:68|360:68|419:42,2,210
101,137,20276,6,0,B|112:264|232:144|264:352|148:408|52:360|16:296|57:251,1,420
4,124,22123,5,0,0:0:0:0:
196,44,22815,2,0,B|256:130|256:130|316:44,1,210
451,70,23969,6,0,B|336:236|336:236|280:204|228:204|172:224|140:274,1,420
255,351,25815,2,0,P|355:374|440:317,2,210
141,271,27661,6,0,P|225:214|325:236,2,210
24,192,29507,2,0,B|112:82|112:82|248:49|248:49|377:103,1,420
387,245,31353,6,0,B|384:348|384:348|348:308|286:316,2,210
256,192,33200,2,0,B|259:89|259:89|295:129|357:120,2,210
136,264,35046,6,0,P|61:320|10:242,2,210
136,120,36892,2,0,P|61:63|10:141,2,210
256,192,38738,6,0,L|396:192,1,140
508,108,39661,1,0,0:0:0:0:
379,52,40123,1,0,0:0:0:0:
396,192,40584,2,0,P|356:319|226:350,1,280
104,284,41969,1,0,0:0:0:0:
0,192,42430,5,0,0:0:0:0:
256,192,42661,12,0,46123,0:0:0:0:
48,192,47046,6,0,L|186:173,1,140
199,35,47969,2,0,P|323:180|184:310,1,420
186,173,49815,2,0,B|288:176|324:88|324:88|417:136,2,280
186,173,52584,1,0,0:0:0:0:
76,260,53046,1,0,0:0:0:0:
55,121,53507,5,0,0:0:0:0:
328,64,54430,2,0,L|356:201,1,140
256,296,55353,2,0,B|132:336|132:256|4:296|4:296|-20:136,1,420
95,55,57200,6,0,P|255:170|412:51,1,420
483,172,59046,2,0,P|409:245|312:283,1,210
256,324,59969,1,0,0:0:0:0:
256,324,60892,6,0,B|152:276|64:352|64:352|38:283,1,280
144,192,62276,1,0,0:0:0:0:
38,100,62738,2,0,B|64:32|64:32|152:108|256:60,1,280
396,68,64123,6,0,L|458:36,2,70
144,192,65507,1,0,0:0:0:0:
396,316,66430,2,0,L|459:192,2,140
256,304,67815,1,0,0:0:0:0:
116,316,68276,5,0,0:0:0:0:
256,72,69200,2,0,B|336:52|400:104|400:104|442:66,2,210
184,192,71046,1,0,0:0:0:0:
100,80,71507,6,0,P|167:199|150:335,1,280
388,192,73353,1,0,0:0:0:0:
388,192,73815,2,0,B|428:32|428:32|443:74,2,210
256,240,75661,5,0,0:0:0:0:
111,135,83046,6,0,P|105:103|86:71,2,70
192,252,83969,2,0,P|224:262|260:261,2,70
51,263,84892,2,0,P|25:285|8:317,2,70
111,135,85815,2,0,L|123:43,2,70
192,252,86738,2,0,L|328:218,3,140
462,254,88584,2,0,B|404:200|327:220|327:220|352:144|299:73|228:47|163:86,1,420
72,192,90430,6,0,B|72:288|72:288|49:325,2,140
164,84,91815,1,0,0:0:0:0:
255,191,92276,2,0,P|324:204|392:191,2,140
164,84,93661,1,0,0:0:0:0:
304,60,94123,6,0,P|372:46|440:59,2,140
255,191,95507,1,0,0:0:0:0:
206,322,95969,2,0,P|137:335|69:322,2,140
256,192,97353,2,0,L|256:122,1,70
256,52,97815,6,0,B|184:72|116:52|116:52|88:108|8:132,1,280
56,264,99200,1,0,0:0:0:0:
164,356,99661,2,0,P|288:326|273:199,1,280
252,60,101046,1,0,0:0:0:0:
384,115,101507,6,0,B|424:216|424:216|464:320|368:355,1,280
256,272,102892,1,0,0:0:0:0:
143,355,103353,2,0,P|15:213|147:75,1,420
256,124,105200,5,0,0:0:0:0:
256,192,107046,12,0,108892,0:0:0:0:
256,192,110738,12,0,112584,0:0:0:0:
256,192,114430,12,0,116276,0:0:0:0:
256,192,118123,12,0,119969,0:0:0:0:
