osu file format v5

[General]
AudioFilename: davidguetta-03-everytimewetouch(withsteveangeloandsebastianingrosso).mp3
AudioLeadIn: 0
PreviewTime: -1
Countdown: 1
SampleSet: Normal
StackLeniency: 0.7
Mode: 0
LetterboxInBreaks: 1
EditorBookmarks: 60530,83570,91970,118130,121970

[Metadata]
Title:Everytime We Touch
Artist:David Guetta
Creator:m980
Version:Hard
Source:
Tags:

[Difficulty]
HPDrainRate:5
CircleSize:4
OverallDifficulty:5
SliderMultiplier:1.7
SliderTickRate:2

[Events]
//Background and Video events
//Break Periods
2,118330,120770
//Storyboard Layer 0 (Background)
//Storyboard Layer 1 (Failing)
//Storyboard Layer 2 (Passing)
//Storyboard Layer 3 (Foreground)
//Storyboard Sound Samples
//Background Colour Transformations
3,100,163,162,255

[TimingPoints]
31244,480,4,2,0,100,1
60530,480,4,1,0,100,0
121490,480,4,2,0,100,0
152690,480,4,1,0,100,0

[HitObjects]
96,136,31244,2,0,B|100:28|208:24,2,170,8|0|8
256,192,32684,1,0
320,32,33164,1,8
376,192,33644,1,0
336,264,33884,1,0
256,296,34124,2,0,B|208:328|176:288,1,85,2|0
104,248,34604,1,0
72,168,34844,1,0
118,96,35084,1,4
200,80,35324,5,0
224,160,35564,2,0,B|256:200|304:184,1,85,0|0
368,128,36044,1,2
448,136,36284,1,0
480,216,36524,1,0
480,296,36764,1,0
416,352,37004,1,4
256,344,37484,5,0
216,264,37724,1,0
296,264,37964,1,8
344,192,38204,2,0,B|144:192,1,170,0|0
128,120,38924,2,0,B|408:120,1,255,8|0
424,48,39884,2,8,B|72:48,1,340
40,120,41084,5,0
40,200,41324,1,0
112,160,41564,1,0
112,240,41804,1,2
184,200,42044,1,0
256,160,42284,2,0,B|256:64,2,85,0|0|4
256,248,43004,2,0,B|256:336,1,85
328,288,43484,1,0
328,288,43604,2,2,B|392:313|464:256,1,127.5
472,184,44204,1,0
416,120,44444,1,0
472,56,44684,1,4
360,56,45164,5,0
312,128,45404,1,0
264,56,45644,1,8
176,56,45884,2,0,B|280:216,1,170
232,272,46604,2,0,B|80:40,1,255,8|0
8,64,47564,2,8,B|200:360,1,340
280,344,48764,5,0
336,280,49004,2,0,B|360:232|432:240,1,85
408,320,49484,1,2
480,280,49724,1,0
512,200,49964,1,0
480,120,50204,1,0
408,72,50444,1,4
336,112,50684,6,0,B|312:152|256:152,1,85
264,64,51164,1,0
264,64,51284,2,2,B|191:54|152:136,1,127.5
80,160,51884,1,0
112,240,52124,1,0
176,296,52364,1,4
448,352,52844,5,0
368,312,53084,1,0
440,264,53324,1,8
432,176,53564,2,0,B|272:280,1,170
208,232,54284,2,0,B|432:88,1,255,8|0
416,8,55244,2,8,B|104:208,1,340
40,336,56684,5,0
120,336,56924,1,0
80,264,57164,1,2
40,192,57404,1,0
120,192,57644,1,0
80,72,58004,1,0
80,72,58124,2,0,B|168:72,1,85,4|0
200,144,58604,5,0
232,224,58844,1,0
288,160,59084,1,2
256,80,59324,2,0,B|288:48|344:48,1,85
416,32,59804,2,2,B|484:187|438:318|192:328,1,425
160,288,61244,6,0,B|24:160,1,170
56,88,61964,2,0,B|256:272,1,255,8|0
328,232,62924,2,8,B|72:0,1,340
240,40,64364,5,0
304,96,64604,1,0
368,40,64844,1,2
432,96,65084,2,0,B|432:272,1,170
368,320,65804,1,4
304,264,66044,1,0
240,320,66284,1,0
176,264,66524,2,2,B|176:80,1,170
32,192,67484,5,0
32,192,67724,1,4
464,48,68204,5,0
416,120,68444,1,0
368,48,68684,1,8
280,64,68924,2,0,B|392:208,1,170
344,272,69644,2,0,B|184:56,1,255,8|0
104,72,70604,2,8,B|320:360,1,340
224,368,71804,5,0
152,320,72044,1,0
96,256,72284,1,0
64,176,72524,2,0,B|24:144|40:88,1,85,2|0
200,48,73244,1,0
448,120,73964,5,0
408,192,74204,1,0
488,192,74444,1,2
448,264,74684,1,0
296,192,75164,1,0
16,120,75884,5,0
56,40,76124,1,0
136,8,76364,1,8
200,64,76604,2,0,B|168:144|64:176,1,170
104,248,77324,2,0,B|237:212|296:64,1,255,8|0
368,96,78284,2,8,B|313:286|104:328,1,340
304,328,79724,5,0
368,272,79964,1,0
408,192,80204,1,2
424,104,80444,2,0,B|414:34|320:32,2,127.5,0|0|4
336,120,81404,1,0
256,80,81644,2,0,B|248:144|200:144,1,85
168,72,82124,1,2
80,72,82364,2,0,B|56:281|304:304,1,340,0|4
352,328,83564,5,0
432,296,83804,1,0
360,240,84044,1,2
440,208,84284,2,0,B|320:80,1,170
280,160,85004,2,0,B|213:287|40:224,1,255,4|0
24,152,85964,2,0,B|85:-19|336:32,1,340,2|4
384,48,87164,5,0
456,88,87404,1,0
384,128,87644,1,0
368,208,87884,1,2
288,176,88124,2,0,B|216:168|160:216,2,127.5,0|0|4
280,256,89084,1,0
208,304,89324,1,0
120,288,89564,1,0
64,224,89804,1,2
40,144,90044,2,0,B|120:24|280:32,1,255,0|4
256,232,91244,5,0
248,144,91484,1,0
328,184,91724,1,8
408,136,91964,2,0,B|472:211|392:296,1,170
328,336,92684,2,0,B|164:392|96:224,1,255,8|0
96,176,93644,2,8,B|130:17|301:-5|368:88,1,340
256,192,95084,5,0
256,192,95564,1,8
376,312,96044,6,0,B|480:216,2,127.5
312,256,97004,2,0,B|416:160,2,127.5
248,312,97964,2,2,B|152:216,2,127.5
168,344,98924,1,0
56,288,99284,1,0
40,160,99644,1,4
256,192,99884,12,0,105164
32,112,105644,5,0
144,56,106004,1,0
256,0,106364,1,0
256,80,106604,1,0
144,136,106964,1,0
32,192,107324,1,8
32,272,107564,5,0
144,208,107924,1,0
256,144,108284,1,2
256,224,108524,1,0
144,288,108884,1,0
32,352,109244,1,4
256,192,109484,12,0,110444
480,112,111404,5,0
368,56,111764,1,0
256,0,112124,1,2
256,80,112364,1,0
368,136,112724,1,0
480,192,113084,1,4
480,272,113324,5,0
368,208,113684,1,0
256,144,114044,1,2
256,224,114284,1,0
368,288,114644,1,0
480,352,115004,1,4
256,192,115244,12,0,118124
256,104,121964,5,0
336,104,122204,1,0
416,104,122444,1,0
416,184,122684,2,0,B|240:184,1,170
208,256,123404,2,0,B|488:256,1,255,0|0
504,328,124364,2,0,B|144:328,1,340
96,272,125564,5,0
40,208,125804,1,2
40,120,126044,1,0
96,56,126284,1,2
152,120,126524,1,0
152,208,126764,1,2
208,272,127004,1,0
264,208,127244,1,2
264,120,127484,1,0
320,56,127724,1,2
376,120,127964,1,0
376,208,128204,1,2
432,272,128444,1,0
488,208,128684,1,2
488,120,128924,1,0
432,56,129164,1,2
296,160,129644,5,0
248,232,129884,1,0
304,296,130124,1,0
240,352,130364,2,0,B|152:360|72:296,1,170
152,256,131084,2,0,B|48:168|112:16,1,255
184,64,132044,2,0,B|360:40|504:184,1,340
320,192,133484,5,2
256,136,133724,1,0
192,192,133964,2,0,B|224:247|264:248,1,85,2|0
320,296,134444,1,2
384,248,134684,2,0,B|414:249|446:194,1,85,0|2
384,136,135164,1,0
320,72,135404,2,0,B|288:17|248:16,1,85,2|0
192,80,135884,1,2
120,136,136124,2,0,B|90:136|58:191,1,85,0|2
128,248,136604,1,0
192,296,136844,1,2
256,136,137324,5,0
256,224,137564,1,0
328,176,137804,1,0
336,256,138044,2,0,B|512:256,1,170
504,168,138764,2,0,B|496:24|320:32,1,255
240,32,139724,2,0,B|56:32|0:248,1,340
168,184,141164,5,0
240,144,141404,1,0
312,104,141644,2,0,B|392:56,1,85,2|0
384,152,142124,1,0
312,200,142364,1,0
240,240,142604,2,0,B|160:288,1,85,4|0
240,328,143084,1,0
312,288,143324,1,0
384,248,143564,2,0,B|472:200,1,85,2|0
464,288,144044,1,0
384,328,144284,1,0
384,328,144404,1,4
464,128,145004,5,0
464,40,145244,1,0
392,80,145484,1,8
304,80,145724,2,0,B|128:80,1,170
88,152,146444,2,0,B|368:152,1,255,8|0
384,224,147404,2,8,B|40:224,1,340
184,320,148844,5,0
256,368,149084,2,0,B|256:272,1,85,0|2
328,320,149564,1,0
400,368,149804,2,0,B|400:256,1,85
472,320,150284,1,4
472,232,150524,1,0
400,184,150764,5,0
400,96,151004,1,0
320,56,151244,1,2
232,48,151484,2,0,B|136:48,1,85
104,120,151964,2,0,B|280:120,1,170,0|4
304,200,152684,5,0
216,200,152924,1,0
128,200,153164,1,8
128,280,153404,2,0,B|320:280,1,170
344,352,154124,2,0,B|72:352,1,255,8|0
48,272,155084,6,0,B|16:224|48:184,1,85,8|0
96,128,155564,2,0,B|128:96|184:120,1,85
248,152,156044,2,0,B|293:184|344:144,1,85,8|0
400,112,156524,5,0
472,152,156764,2,0,B|392:200,1,85,0|2
472,232,157244,1,0
328,320,157724,1,0
328,232,157964,1,4
256,272,158204,2,0,B|184:216,1,85
96,216,158684,1,0
96,128,158924,1,2
96,40,159164,2,0,B|200:40,1,85
264,40,159644,1,0
264,40,159884,1,4
344,192,160364,5,0
392,256,160604,1,0
312,280,160844,1,8
264,208,161084,2,0,B|272:120|168:72,1,170
88,88,161804,2,0,B|32:208|72:352,1,255,8|0
144,296,162764,2,8,B|305:404|488:304,1,340
464,144,164204,5,0
456,56,164444,1,0
376,24,164684,1,2
392,104,164924,2,0,B|344:120|344:176,1,85
416,208,165404,2,0,B|356:291|232:272,1,170,0|4
272,192,166124,1,0
256,104,166364,1,0
184,152,166604,1,2
200,232,166844,1,0
200,232,167084,1,0
128,272,167324,1,4
368,344,168044,5,0
448,336,168284,1,0
488,264,168524,1,8
448,184,168764,2,0,B|448:8,1,170
368,48,169484,2,0,B|368:248,2,170,8|0|8
256,176,170924,1,0
256,176,171404,1,8
120,272,171884,5,0
48,216,172124,2,2,B|121:131|192:224,1,170
256,328,172964,1,0
320,224,173324,2,2,B|393:139|464:232,1,170
392,264,174044,1,0
464,312,174284,1,2
384,344,174524,1,0
256,328,174884,1,0
128,344,175244,1,4
240,216,175724,5,0
160,192,175964,1,0
192,112,176204,1,8
248,56,176444,2,0,B|320:104|328:208,1,170
400,248,177164,2,0,B|296:344|136:312,1,255,8|0
120,240,178124,2,8,B|325:276|408:104,1,340
256,32,179564,5,0
200,96,179804,2,0,B|144:24,1,85,0|2
88,96,180284,1,0
0,192,180644,1,0
128,192,181004,2,0,B|216:208,1,85,4|0
272,144,181484,1,0
336,96,181724,1,0
400,48,181964,1,2
464,96,182204,2,0,B|464:240,2,127.5,0|0|4
360,232,183404,5,0
320,304,183644,1,0
240,272,183884,2,0,B|184:272,4,42.5
72,320,184844,2,0,B|72:48,1,255,8|0
144,24,185804,2,8,B|144:368,1,340
232,216,187244,5,0
232,128,187484,1,0
304,80,187724,1,8
472,80,188204,5,0
360,144,188564,1,0
472,208,188924,1,2
472,288,189164,1,0
360,344,189524,1,0
248,288,189884,1,4
160,288,190124,6,0,B|160:144,2,127.5,0|0|2
72,288,191084,2,0,B|72:152,1,127.5
72,32,191804,1,4
152,32,192044,2,0,B|288:32,2,127.5,0|0|2
112,104,193004,1,0
240,104,193364,1,0
368,104,193724,1,4
368,184,193964,6,0,B|224:184,2,127.5,0|0|2
408,256,194924,1,0
280,256,195284,1,0
152,256,195644,1,8
256,192,195884,12,0,202604
128,32,203564,5,0
256,152,203924,1,0
384,32,204284,1,2
504,32,204524,5,0
440,192,204884,1,0
504,352,205244,1,4
384,352,205484,5,0
256,232,205844,1,0
128,352,206204,1,2
8,352,206444,5,0
72,192,206804,1,0
8,32,207164,1,4
256,200,207404,5,4
