osu file format v13

[General]
AudioFilename: 01 Dangerous (feat. Sam Martin).mp3
AudioLeadIn: 0
PreviewTime: 153044
Countdown: 0
SampleSet: Soft
StackLeniency: 0.7
Mode: 0
LetterboxInBreaks: 0
WidescreenStoryboard: 0

[Editor]
Bookmarks: 11359
DistanceSpacing: 0.5
BeatDivisor: 8
GridSize: 4
TimelineZoom: 1.2

[Metadata]
Title:Dangerous (feat. Sam Martin)
TitleUnicode:Dangerous (feat. Sam Martin)
Artist:David Guetta
ArtistUnicode:David Guetta
Creator:Amasuro
Version:Insane
Source:
Tags:
BeatmapID:556681
BeatmapSetID:240950

[Difficulty]
HPDrainRate:7
CircleSize:4
OverallDifficulty:7
ApproachRate:8
SliderMultiplier:3.39999990463257
SliderTickRate:1

[Events]
//Background and Video events
0,0,"Wow_Such_BG.jpg",0,0
//Break Periods
2,29738,30745
2,73434,81451
2,127564,135093
//Storyboard Layer 0 (Background)
//Storyboard Layer 1 (Fail)
//Storyboard Layer 2 (Pass)
//Storyboard Layer 3 (Foreground)
//Storyboard Sound Samples
//Background Colour Transformations
3,100,0,0,0

[TimingPoints]
191,652.173913043478,7,2,1,30,1,0
104538,-100,4,2,1,30,0,1
125489,-100,4,2,1,30,0,0
154104,-100,4,2,1,30,0,1
174810,-100,4,2,1,30,0,0

[Colours]
Combo1 : 255,128,128
Combo2 : 255,0,0
Combo3 : 255,128,0
Combo4 : 255,255,0

[HitObjects]
212,164,191,5,0,0:0:0:0:
180,124,354,1,0,0:0:0:0:
148,84,517,1,0,0:0:0:0:
116,44,680,1,0,0:0:0:0:
120,200,843,1,0,0:0:0:0:
148,244,1006,1,0,0:0:0:0:
176,284,1169,1,0,0:0:0:0:
204,324,1332,1,0,0:0:0:0:
364,336,1495,5,0,0:0:0:0:
408,308,1658,1,0,0:0:0:0:
436,268,1821,1,0,0:0:0:0:
444,216,1984,1,0,0:0:0:0:
424,60,2147,1,0,0:0:0:0:
380,88,2310,1,0,0:0:0:0:
352,128,2473,1,0,0:0:0:0:
344,180,2636,1,0,0:0:0:0:
392,324,2799,6,0,L|488:352,2,84.9999976158143,0|0|0,0:0|0:0|0:0,0:0:0:0:
344,312,3288,1,0,0:0:0:0:
192,268,3451,2,0,L|112:242,2,84.9999976158143,0|0|0,0:0|0:0|0:0,0:0:0:0:
240,280,3940,1,0,0:0:0:0:
392,324,4104,5,0,0:0:0:0:
376,276,4267,1,0,0:0:0:0:
376,224,4430,1,0,0:0:0:0:
388,176,4593,1,0,0:0:0:0:
456,36,4756,1,0,0:0:0:0:
408,48,4919,1,0,0:0:0:0:
360,64,5082,1,0,0:0:0:0:
312,80,5245,1,0,0:0:0:0:
164,132,5408,5,0,0:0:0:0:
192,176,5571,1,0,0:0:0:0:
168,220,5734,1,0,0:0:0:0:
192,264,5897,1,0,0:0:0:0:
340,308,6060,1,0,0:0:0:0:
312,264,6223,1,0,0:0:0:0:
336,220,6386,1,0,0:0:0:0:
312,176,6549,1,0,0:0:0:0:
256,32,6712,5,0,0:0:0:0:
208,44,6875,1,0,0:0:0:0:
160,60,7038,1,0,0:0:0:0:
112,76,7201,1,0,0:0:0:0:
24,204,7364,1,0,0:0:0:0:
72,220,7527,1,0,0:0:0:0:
120,236,7690,1,0,0:0:0:0:
168,252,7854,1,0,0:0:0:0:
168,252,8017,5,0,0:0:0:0:
313,304,8180,2,0,L|312:212,1,84.9999976158143
412,152,8506,2,0,L|412:236,1,84.9999976158143
268,255,8832,2,0,L|268:160,1,84.9999976158143
268,170,9158,1,0,0:0:0:0:
351,34,9321,5,0,0:0:0:0:
378,74,9484,1,0,0:0:0:0:
403,118,9647,1,0,0:0:0:0:
427,162,9810,1,0,0:0:0:0:
408,316,9973,1,0,0:0:0:0:
361,296,10136,1,0,0:0:0:0:
315,276,10299,1,0,0:0:0:0:
268,255,10462,1,0,0:0:0:0:
124,192,10625,6,0,L|24:148,1,84.9999976158143
228,236,10951,2,0,L|328:284,1,84.9999976158143
120,212,11277,2,0,L|16:220,1,84.9999976158143
236,200,11604,2,0,L|328:188,1,84.9999976158143
124,232,11930,6,0,L|43:277,1,84.9999976158143
224,164,12256,2,0,L|304:120,1,84.9999976158143
136,256,12582,2,0,L|80:352,1,84.9999976158143
204,144,12908,2,0,L|248:68,1,84.9999976158143
164,276,13234,6,0,L|164:364,2,84.9999976158143,0|0|0,0:0|0:0|0:0,0:0:0:0:
164,224,13723,1,0,0:0:0:0:
164,108,13886,2,0,L|164:20,2,84.9999976158143,0|0|0,0:0|0:0|0:0,0:0:0:0:
164,160,14375,1,0,0:0:0:0:
164,276,14538,2,0,L|268:276,3,84.9999976158143,0|0|0|0,0:0|0:0|0:0|0:0,0:0:0:0:
300,276,15190,2,0,L|388:276,3,84.9999976158143,0|0|0|0,0:0|0:0|0:0|0:0,0:0:0:0:
436,276,15843,1,0,0:0:0:0:
256,192,15924,12,0,19756,0:0:0:0:
136,104,21060,5,0,0:0:0:0:
132,272,21549,5,0,0:0:0:0:
132,272,21875,1,0,0:0:0:0:
132,272,22038,2,0,P|184:324|180:244,1,169.999995231629
136,104,22854,5,0,0:0:0:0:
336,144,23180,1,0,0:0:0:0:
336,144,23343,1,0,0:0:0:0:
156,184,23669,6,0,L|56:244,1,84.9999976158143
356,68,24158,2,0,L|440:16,1,84.9999976158143
204,252,24647,1,0,0:0:0:0:
204,252,25462,5,0,0:0:0:0:
368,144,25788,1,0,0:0:0:0:
368,144,25951,2,0,P|312:80|224:52,1,169.999995231629
233,52,26767,5,0,0:0:0:0:
144,240,27093,1,0,0:0:0:0:
144,240,27256,2,0,P|200:304|288:332,1,169.999995231629
278,331,28071,5,0,0:0:0:0:
368,124,28397,1,0,0:0:0:0:
368,124,28560,1,0,0:0:0:0:
180,60,28886,6,0,L|92:92,1,84.9999976158143
72,176,29212,1,0,0:0:0:0:
160,152,29375,2,0,L|264:116,1,84.9999976158143
224,144,31495,6,0,L|312:116,1,84.9999976158143
288,204,31821,2,0,L|207:229,1,84.9999976158143
224,104,32147,2,0,L|312:76,1,84.9999976158143
288,244,32473,2,0,L|207:269,1,84.9999976158143
152,196,32799,6,0,L|180:108,1,84.9999976158143
364,156,33125,2,0,L|338:236,1,84.9999976158143
108,196,33451,2,0,L|136:108,1,84.9999976158143
408,160,33777,2,0,L|382:240,1,84.9999976158143
184,312,34104,6,0,L|88:288,2,84.9999976158143,0|0|0,0:0|0:0|0:0,0:0:0:0:
272,284,34593,1,0,0:0:0:0:
352,252,34756,2,0,L|428:320,2,84.9999976158143,0|0|0,0:0|0:0|0:0,0:0:0:0:
284,200,35245,1,0,0:0:0:0:
216,144,35408,6,0,B|140:108|140:108|56:148,1,169.999995231629
136,264,35897,2,0,B|212:300|212:300|296:260,1,169.999995231629
289,263,36386,1,0,0:0:0:0:
289,263,36549,1,0,0:0:0:0:
404,164,36712,6,0,L|468:80,1,84.9999976158143
308,104,37038,2,0,L|332:16,1,84.9999976158143
208,104,37364,2,0,L|184:16,1,84.9999976158143
112,164,37690,2,0,L|48:80,1,84.9999976158143
64,268,38017,6,0,L|160:316,1,84.9999976158143
236,268,38343,2,0,L|159:229,1,84.9999976158143
256,192,38669,2,0,L|352:240,1,84.9999976158143
420,188,38995,2,0,L|343:149,1,84.9999976158143
216,100,39321,6,0,P|164:140|156:196,1,84.9999976158143,0|0,0:0|0:0,0:0:0:0:
288,284,39647,2,0,P|340:244|348:188,1,84.9999976158143,0|0,0:0|0:0,0:0:0:0:
152,228,39973,2,0,P|192:280|248:288,1,84.9999976158143,0|0,0:0|0:0,0:0:0:0:
344,156,40299,2,0,P|304:104|248:96,1,84.9999976158143,0|0,0:0|0:0,0:0:0:0:
72,164,40625,6,0,P|120:316|288:316,1,339.999990463257
380,226,41440,2,0,P|373:185|344:156,1,84.9999976158143
256,192,41930,12,0,43886,0:0:0:0:
256,192,44538,12,0,46495,0:0:0:0:
112,192,47147,6,0,P|256:268|400:184,2,339.999990463257,0|0|0,0:0|0:0|0:0,0:0:0:0:
256,36,49104,2,0,B|312:108|256:192|256:192|208:264|264:368,1,339.999990463257
256,192,49837,12,0,52038,0:0:0:0:
122,71,52364,6,0,P|106:119|119:188,1,84.9999976158143
188,312,52690,2,0,P|204:264|192:208,1,84.9999976158143
107,153,53017,1,0,0:0:0:0:
113,259,53180,1,0,0:0:0:0:
266,358,53343,2,0,P|327:349|373:331,2,84.9999976158143,0|0|0,0:0|0:0|0:0,0:0:0:0:
112,343,53832,5,0,0:0:0:0:
263,274,53995,2,0,P|304:253|333:209,1,84.9999976158143
299,71,54321,1,0,0:0:0:0:
299,71,54647,1,0,0:0:0:0:
326,194,54810,1,0,0:0:0:0:
219,72,54973,6,0,L|121:45,1,84.9999976158143
361,123,55299,2,0,L|460:151,1,84.9999976158143
188,140,55625,1,0,0:0:0:0:
213,287,55788,1,0,0:0:0:0:
358,328,55951,2,0,P|399:309|423:266,2,84.9999976158143,0|0|0,0:0|0:0|0:0,0:0:0:0:
203,332,56440,5,0,0:0:0:0:
70,270,56604,2,0,P|75:207|100:173,1,84.9999976158143
85,189,56930,1,0,0:0:0:0:
323,56,57256,1,0,0:0:0:0:
241,161,57419,1,0,0:0:0:0:
227,183,57500,1,0,0:0:0:0:
213,205,57582,6,0,P|202:251|227:299,1,84.9999976158143
416,210,57908,2,0,P|427:164|402:116,1,84.9999976158143
211,60,58234,1,0,0:0:0:0:
85,189,58397,1,0,0:0:0:0:
263,219,58560,1,0,0:0:0:0:
127,106,58723,2,0,P|88:95|28:118,1,84.9999976158143
222,292,59049,6,0,P|261:303|321:280,1,84.9999976158143
420,216,59375,1,0,0:0:0:0:
302,141,59538,1,0,0:0:0:0:
302,141,59864,2,0,L|243:75,1,84.9999976158143
88,138,60190,6,0,L|107:227,1,84.9999976158143
201,334,60517,2,0,L|183:243,1,84.9999976158143
229,110,60843,2,0,L|247:204,2,84.9999976158143,0|0|0,0:0|0:0|0:0,0:0:0:0:
139,41,61332,6,0,P|67:87|55:177,2,169.999995231629,0|0|0,0:0|0:0|0:0,0:0:0:0:
291,72,62147,1,0,0:0:0:0:
155,146,62310,1,0,0:0:0:0:
306,178,62473,1,0,0:0:0:0:
175,263,62636,1,0,0:0:0:0:
151,272,62718,1,0,0:0:0:0:
127,282,62799,6,0,P|65:226|73:128,1,169.999995231629
232,45,63451,2,0,P|293:40|340:59,1,84.9999976158143
315,46,63940,1,0,0:0:0:0:
252,160,64104,6,0,L|181:235,1,84.9999976158143
359,166,64430,2,0,L|421:101,2,84.9999976158143,0|0|0,0:0|0:0|0:0,0:0:0:0:
199,301,65082,1,0,0:0:0:0:
92,267,65245,1,0,0:0:0:0:
66,166,65408,6,0,B|121:133|121:133|150:88|150:88|208:54,1,169.999995231629
399,78,66060,2,0,L|303:135,1,84.9999976158143
92,267,66549,1,0,0:0:0:0:
252,272,66712,6,0,L|180:196,1,84.9999976158143
251,63,67038,1,0,0:0:0:0:
284,180,67201,2,0,L|342:241,1,84.9999976158143
139,145,67527,2,0,P|117:106|109:50,2,84.9999976158143,0|0|0,0:0|0:0|0:0,0:0:0:0:
233,266,68017,6,0,P|282:296|395:291,1,169.999995231629
233,266,68669,2,0,P|202:237|188:197,1,84.9999976158143
320,61,69158,1,0,0:0:0:0:
320,61,69321,6,0,P|349:102|339:145,1,84.9999976158143,0|0,0:0|0:0,0:0:0:0:
233,266,69647,2,0,P|184:290|121:270,2,84.9999976158143,0|0|0,0:0|0:0|0:0,0:0:0:0:
320,61,70299,1,0,0:0:0:0:
320,61,70462,1,0,0:0:0:0:
256,192,70625,12,0,73234,0:0:0:0:
256,80,82201,5,0,0:0:0:0:
192,188,82364,2,0,L|132:260,2,84.9999976158143,0|0|0,0:0|0:0|0:0,0:0:0:0:
320,136,82854,2,0,L|420:128,1,84.9999976158143,0|0,0:0|0:0,0:0:0:0:
180,108,83180,2,0,L|96:68,2,84.9999976158143,0|0|0,0:0|0:0|0:0,0:0:0:0:
272,204,83669,6,0,P|296:252|288:300,1,84.9999976158143
128,188,83995,2,0,P|104:140|112:92,1,84.9999976158143
192,268,84321,2,0,P|144:292|96:284,1,84.9999976158143
208,120,84647,2,0,P|256:96|304:104,1,84.9999976158143
348,240,84973,5,0,0:0:0:0:
348,240,85299,2,0,L|280:304,1,84.9999976158143
128,288,85625,1,0,0:0:0:0:
128,288,85788,2,0,L|189:229,1,84.9999976158143
340,116,86114,6,0,B|320:76|320:76|272:48,2,84.9999976158143,0|0|0,0:0|0:0|0:0,0:0:0:0:
348,240,86604,2,0,L|392:320,1,84.9999976158143
280,296,86930,2,0,L|239:221,1,84.9999976158143
140,208,87256,2,0,L|184:288,1,84.9999976158143
72,264,87582,6,0,P|64:164|124:120,1,169.999995231629
219,207,88071,2,0,P|179:220|140:208,2,84.9999976158143,0|0|0,0:0|0:0|0:0,0:0:0:0:
332,176,88560,1,0,0:0:0:0:
380,72,88723,1,0,0:0:0:0:
233,85,88886,6,0,P|234:127|256:164,1,84.9999976158143
422,258,89212,2,0,P|421:216|400:180,1,84.9999976158143
241,270,89538,2,0,P|283:269|320:248,1,84.9999976158143
414,77,89864,2,0,P|372:78|336:100,1,84.9999976158143
224,180,90190,5,0,0:0:0:0:
224,180,90517,2,0,P|184:152|180:108,2,84.9999976158143,0|0|0,0:0|0:0|0:0,0:0:0:0:
376,184,91006,2,0,P|416:156|420:112,1,84.9999976158143,0|0,0:0|0:0,0:0:0:0:
272,40,91332,6,0,L|204:96,2,84.9999976158143,0|0|0,0:0|0:0|0:0,0:0:0:0:
404,106,91821,2,0,P|397:147|376:184,1,84.9999976158143
296,264,92147,2,0,P|254:272|212:264,1,84.9999976158143
136,184,92473,2,0,P|114:147|107:106,1,84.9999976158143
256,100,92799,6,0,L|256:16,2,84.9999976158143,0|0|0,0:0|0:0|0:0,0:0:0:0:
256,212,93288,1,0,0:0:0:0:
200,296,93451,2,0,L|112:308,1,84.9999976158143
256,212,93777,1,0,0:0:0:0:
312,296,93940,6,0,B|404:280|404:280|448:208|360:124,1,254.999992847443
371,135,94756,1,0,0:0:0:0:
371,135,94919,1,0,0:0:0:0:
200,88,95245,6,0,B|108:104|108:104|64:176|152:260,1,254.999992847443
141,249,96060,1,0,0:0:0:0:
141,249,96223,1,0,0:0:0:0:
408,312,96549,6,0,B|372:240|440:156|440:156|344:156,1,254.999992847443
354,156,97364,1,0,0:0:0:0:
354,156,97527,1,0,0:0:0:0:
354,156,97690,1,0,0:0:0:0:
256,192,97854,12,0,98995,0:0:0:0:
256,304,99321,6,0,B|256:192|160:192|160:192|256:116|256:116|256:44,2,339.999990463257,0|0|0,0:0|0:0|0:0,0:0:0:0:
412,332,101277,2,0,P|328:192|412:48,1,339.999990463257
256,192,102011,12,0,102908,0:0:0:0:
256,332,103234,5,0,0:0:0:0:
56,56,103560,1,0,0:0:0:0:
56,56,103723,1,0,0:0:0:0:
456,52,104049,1,0,0:0:0:0:
456,52,104212,2,0,L|372:123,1,84.9999976158143
218,110,104538,5,0,0:0:0:0:
355,203,104701,1,0,0:0:0:0:
302,44,104864,1,0,0:0:0:0:
251,203,105027,1,0,0:0:0:0:
391,107,105190,2,0,P|443:153|444:253,1,169.999990463257
189,327,105680,6,0,P|156:304|138:253,1,84.9999952316285
156,101,106006,1,0,0:0:0:0:
55,210,106169,1,0,0:0:0:0:
219,253,106332,1,0,0:0:0:0:
48,114,106495,1,0,0:0:0:0:
48,114,106821,1,0,0:0:0:0:
164,202,106984,1,0,0:0:0:0:
285,293,107147,6,0,L|406:266,1,84.9999952316285
433,120,107473,2,0,L|342:89,1,84.9999952316285
211,46,107799,1,0,0:0:0:0:
164,186,107962,1,0,0:0:0:0:
304,234,108125,1,0,0:0:0:0:
352,92,108288,6,0,P|375:56|429:35,2,84.9999952316285,0|0|0,0:0|0:0|0:0,0:0:0:0:
304,234,108777,1,0,0:0:0:0:
154,300,108940,1,0,0:0:0:0:
33,202,109104,1,0,0:0:0:0:
33,202,109430,1,0,0:0:0:0:
176,143,109593,1,0,0:0:0:0:
320,85,109756,6,0,L|419:126,1,84.9999952316285
256,192,110082,2,0,L|302:281,1,84.9999952316285,0|0,0:0|0:0,0:0:0:0:
125,224,110408,2,0,L|115:309,2,84.9999952316285,0|0|0,0:0|0:0|0:0,0:0:0:0:
320,85,110897,6,0,P|355:117|377:170,1,84.9999952316285
256,273,111223,1,0,0:0:0:0:
139,149,111386,2,0,P|160:112|192:85,1,84.9999952316285
256,192,111712,1,0,0:0:0:0:
256,192,112038,2,0,L|256:279,1,84.9999952316285
156,332,112364,6,0,P|119:288|102:241,1,84.9999952316285
356,332,112690,2,0,P|393:288|410:241,1,84.9999952316285
404,120,113017,2,0,P|384:83|356:52,2,84.9999952316285,0|0|0,0:0|0:0|0:0,0:0:0:0:
309,194,113506,1,0,0:0:0:0:
205,253,113669,6,0,P|129:202|118:114,1,169.999990463257
314,45,114158,1,0,0:0:0:0:
222,146,114321,2,0,L|136:212,1,84.9999952316285
133,308,114647,1,0,0:0:0:0:
405,287,114810,1,0,0:0:0:0:
408,126,114973,6,0,L|408:26,1,84.9999952316285
320,126,115299,2,0,L|294:35,1,84.9999952316285
225,126,115625,2,0,L|173:56,1,84.9999952316285
114,126,115951,2,0,L|32:79,1,84.9999952316285
398,258,116277,6,0,L|480:305,1,84.9999952316285
287,258,116604,2,0,L|339:328,1,84.9999952316285
192,258,116930,2,0,L|218:349,1,84.9999952316285
104,258,117256,2,0,L|104:358,1,84.9999952316285
106,126,117582,6,0,B|160:64|160:64|250:56,1,169.999990463257
350,50,118071,1,0,0:0:0:0:
304,142,118234,2,0,L|208:152,2,84.9999952316285,0|0|0,0:0|0:0|0:0,0:0:0:0:
380,211,118723,1,0,0:0:0:0:
280,239,118886,6,0,P|194:261|115:219,1,169.999990463257
330,226,119375,2,0,P|280:218|245:181,1,84.9999952316285
322,139,119701,1,0,0:0:0:0:
456,231,119864,2,0,P|435:269|370:287,1,84.9999952316285,0|0,0:0|0:0,0:0:0:0:
112,287,120190,6,0,P|75:267|56:231,1,84.9999952316285,0|0,0:0|0:0,0:0:0:0:
131,211,120517,2,0,P|111:174|115:132,1,84.9999952316285,0|0,0:0|0:0,0:0:0:0:
183,160,120843,2,0,P|199:121|235:99,1,84.9999952316285,0|0,0:0|0:0,0:0:0:0:
257,169,121169,2,0,P|298:170|332:194,1,84.9999952316285,0|0,0:0|0:0,0:0:0:0:
81,214,121495,6,0,P|47:188|33:149,1,84.9999952316285,0|0,0:0|0:0,0:0:0:0:
110,141,121821,2,0,P|96:101|106:60,1,84.9999952316285,0|0,0:0|0:0,0:0:0:0:
170,99,122147,2,0,P|192:63|231:47,1,84.9999952316285,0|0,0:0|0:0,0:0:0:0:
241,119,122473,2,0,P|282:126|311:156,1,84.9999952316285,0|0,0:0|0:0,0:0:0:0:
107,289,122799,5,0,0:0:0:0:
256,53,123125,1,0,0:0:0:0:
405,289,123451,1,0,0:0:0:0:
405,289,123614,1,0,0:0:0:0:
76,53,123940,1,0,0:0:0:0:
436,53,124267,5,0,0:0:0:0:
256,331,124593,1,0,0:0:0:0:
256,331,124756,1,0,0:0:0:0:
256,53,125082,1,0,0:0:0:0:
256,53,125245,2,0,L|256:139,1,84.9999952316285
256,192,125489,12,0,127364,0:0:0:0:
163,110,135843,6,0,P|134:193|174:284,1,169.999990463257
256,192,136495,1,0,0:0:0:0:
256,192,136821,5,0,0:0:0:0:
352,267,137147,2,0,P|377:188|349:110,1,169.999990463257
256,192,137799,1,0,0:0:0:0:
163,110,138451,5,0,0:0:0:0:
163,110,138614,1,0,0:0:0:0:
163,110,138777,1,0,0:0:0:0:
349,274,138940,5,0,0:0:0:0:
349,274,139104,1,0,0:0:0:0:
349,274,139267,1,0,0:0:0:0:
349,274,139430,6,0,P|360:123|202:133,1,339.999980926514
256,293,140734,5,0,0:0:0:0:
256,192,141060,2,0,B|288:141|222:82|259:20,2,169.999990463257,0|0|0,0:0|0:0|0:0,0:0:0:0:
257,332,142038,5,0,0:0:0:0:
256,192,142364,2,0,B|288:141|222:82|259:20,2,169.999990463257,0|0|0,0:0|0:0|0:0,0:0:0:0:
256,102,143669,5,0,0:0:0:0:
256,102,143832,1,0,0:0:0:0:
256,102,143995,1,0,0:0:0:0:
255,340,144158,5,0,0:0:0:0:
255,340,144321,1,0,0:0:0:0:
255,340,144484,1,0,0:0:0:0:
255,340,144647,2,0,B|328:257|256:192|256:192|183:122|257:40,1,339.999980926514
255,41,145951,5,0,0:0:0:0:
177,131,146277,2,0,P|256:159|335:129,2,169.999990463257,0|0|0,0:0|0:0|0:0,0:0:0:0:
255,343,147256,5,0,0:0:0:0:
177,253,147582,2,0,P|256:225|335:255,2,169.999990463257,0|0|0,0:0|0:0|0:0,0:0:0:0:
398,191,148886,1,0,0:0:0:0:
398,191,149049,1,0,0:0:0:0:
398,191,149212,1,0,0:0:0:0:
114,191,149375,5,0,0:0:0:0:
114,191,149538,1,0,0:0:0:0:
114,191,149701,1,0,0:0:0:0:
114,191,149864,2,0,L|222:192,1,84.9999952316285,0|0,0:0|0:0,0:0:0:0:
256,192,150190,12,0,151495,0:0:0:0:
323,57,153044,6,0,L|300:93,1,42.4999976158143
368,173,153288,2,0,L|400:125,2,42.4999976158143,0|0|0,0:0|0:0|0:0,0:0:0:0:
331,281,153614,5,0,0:0:0:0:
217,299,153777,1,0,0:0:0:0:
256,191,153940,1,0,0:0:0:0:
368,173,154104,6,0,P|409:197|440:251,1,84.9999952316285
217,299,154430,2,0,P|176:275|145:221,1,84.9999952316285
308,92,154756,2,0,P|342:166|308:252,1,169.999990463257
106,189,155245,6,0,L|96:99,1,84.9999952316285,0|0,0:0|0:0,0:0:0:0:
225,41,155571,1,0,0:0:0:0:
254,190,155734,1,0,0:0:0:0:
370,92,155897,1,0,0:0:0:0:
391,243,156060,1,0,0:0:0:0:
391,243,156386,2,0,L|326:300,1,84.9999952316285
157,311,156712,5,0,0:0:0:0:
254,190,156875,1,0,0:0:0:0:
106,231,157038,1,0,0:0:0:0:
310,145,157201,1,0,0:0:0:0:
157,311,157364,2,0,P|219:328|256:329,1,84.9999952316285
343,310,157690,1,0,0:0:0:0:
416,64,157854,6,0,P|366:50|313:57,1,84.9999952316285
217,85,158180,1,0,0:0:0:0:
157,311,158343,1,0,0:0:0:0:
98,174,158506,1,0,0:0:0:0:
306,290,158669,1,0,0:0:0:0:
306,290,158995,2,0,P|330:253|327:192,1,84.9999952316285
124,93,159321,6,0,L|98:174,1,84.9999952316285
157,311,159647,2,0,L|183:230,1,84.9999952316285
255,53,159973,2,0,B|339:40|339:40|427:56,1,169.999990463257,0|0,0:0|0:0,0:0:0:0:
313,192,160462,6,0,L|221:176,2,84.9999952316285,0|0|0,0:0|0:0|0:0,0:0:0:0:
359,314,160951,2,0,L|442:328,2,84.9999952316285,0|0|0,0:0|0:0|0:0,0:0:0:0:
359,314,161604,2,0,L|256:296,1,84.9999952316285,0|0,0:0|0:0,0:0:0:0:
57,255,161930,5,0,0:0:0:0:
91,157,162093,1,0,0:0:0:0:
116,336,162256,1,0,0:0:0:0:
126,67,162419,1,0,0:0:0:0:
154,241,162582,2,0,L|300:338,1,169.999990463257
467,320,163071,6,0,L|312:216,1,169.999990463257,0|0,0:0|0:0,0:0:0:0:
206,157,163560,1,0,0:0:0:0:
286,301,163723,1,0,0:0:0:0:
366,157,163886,1,0,0:0:0:0:
206,65,164049,1,0,0:0:0:0:
73,184,164212,1,0,0:0:0:0:
245,230,164375,1,0,0:0:0:0:
446,182,164538,6,0,P|458:109|432:73,1,84.9999952316285
381,138,164864,2,0,P|361:66|322:45,1,84.9999952316285
304,125,165190,2,0,P|249:75|204:77,1,84.9999952316285
228,151,165517,2,0,P|154:145|120:174,1,84.9999952316285
51,319,165843,6,0,P|124:324|158:295,1,84.9999952316285
164,205,166169,2,0,P|135:236|95:247,1,84.9999952316285
90,159,166495,2,0,P|123:128|165:118,1,84.9999952316285,0|0,0:0|0:0,0:0:0:0:
239,254,166821,6,0,P|206:285|164:295,2,84.9999952316285,0|0|0,0:0|0:0|0:0,0:0:0:0:
332,212,167310,1,0,0:0:0:0:
247,160,167473,2,0,P|325:113|406:147,1,169.999990463257
422,252,167962,2,0,P|397:288|356:313,1,84.9999952316285
179,308,168288,1,0,0:0:0:0:
119,187,168451,6,0,P|98:100|141:22,1,169.999990463257
144,243,168940,2,0,P|152:193|190:158,1,84.9999952316285
227,234,169267,1,0,0:0:0:0:
97,308,169430,2,0,P|68:273|64:218,1,84.9999952316285,0|0,0:0|0:0,0:0:0:0:
213,135,169756,6,0,P|256:122|298:136,1,84.9999952316285
299,249,170082,2,0,P|256:262|214:248,1,84.9999952316285
213,107,170408,2,0,P|256:94|298:108,1,84.9999952316285
299,277,170734,2,0,P|256:290|214:276,1,84.9999952316285
213,69,171060,6,0,L|309:57,1,84.9999952316285
299,315,171386,2,0,L|203:327,1,84.9999952316285
379,149,171712,2,0,L|391:245,1,84.9999952316285
133,235,172038,1,0,0:0:0:0:
133,235,172201,6,0,L|122:150,3,84.9999952316285,0|0|0|0,0:0|0:0|0:0|0:0,0:0:0:0:
256,42,173017,6,0,L|266:126,1,84.9999952316285,0|0,0:0|0:0,0:0:0:0:
255,321,173506,5,0,0:0:0:0:
106,136,173832,6,0,L|206:123,3,84.9999952316285,0|0|0|0,0:0|0:0|0:0|0:0,0:0:0:0:
419,165,174647,6,0,L|319:178,1,84.9999952316285,0|0,0:0|0:0,0:0:0:0:
