osu file format v5

[General]
AudioFilename: David Cook - Always Be My Baby (StudioVersion).mp3
AudioLeadIn: 0
PreviewTime: -1
Countdown: 1
SampleSet: Soft
StackLeniency: 0.7
Mode: 0
LetterboxInBreaks: 1

[Metadata]
Title:Always Be My Baby
Artist:David Cook
Creator:alvhin1903
Version:Forgotten Memories (Insane)
Source:
Tags:

[Difficulty]
HPDrainRate:6
CircleSize:6
OverallDifficulty:7
SliderMultiplier:2.1
SliderTickRate:2

[Events]
//Background and Video events
//Break Periods
2,30643,33790
2,63378,68343
2,93720,98045
2,149704,152516
2,187122,191610
//Storyboard Layer 0 (Background)
//Storyboard Layer 1 (Failing)
//Storyboard Layer 2 (Passing)
//Storyboard Layer 3 (Foreground)
//Storyboard Sound Samples
//Background Colour Transformations
3,100,118,138,207

[TimingPoints]
3.69,434.782608695652,4,2,0,100,1

[Colours]
Combo1 : 112,196,193
Combo2 : 243,89,34
Combo3 : 112,196,193
Combo4 : 243,89,34

[HitObjects]
192,192,4529,5,8
192,192,4693,1,0
256,256,5020,1,0
256,256,5184,1,0
256,192,5838,1,0
256,192,6525,1,0
160,256,7637,5,2
160,256,7801,1,0
160,256,7965,1,0
160,128,8292,1,0
160,128,8455,1,0
256,224,9273,1,0
288,224,9764,1,0
192,192,11072,5,10
192,192,11236,1,0
256,192,11563,1,0
256,192,11727,1,0
256,192,11890,1,0
256,192,12054,1,0
320,128,12708,1,0
128,224,13916,2,8,C|256:160|384:256,3,280
288,160,16961,5,0
288,160,17125,1,0
96,192,17984,5,0
160,192,18264,1,0
160,192,18474,1,0
224,192,18720,1,0
224,192,18842,1,0
288,192,19088,1,0
256,192,20396,5,0
256,192,20583,1,0
128,128,21541,5,0
128,128,21705,1,0
128,128,21868,1,0
192,128,22196,1,0
192,128,22359,1,0
256,128,22850,1,0
320,128,23504,1,0
320,128,23668,1,0
128,192,24976,5,0
128,192,25222,1,0
192,192,25467,1,0
192,192,25590,1,0
256,192,25835,1,0
256,192,26080,1,0
320,192,26571,1,0
96,224,28119,6,2,C|256:64,2,210
192,192,29720,5,0
256,192,29884,1,0
320,192,30047,1,0
256,256,30374,1,0
96,192,35445,5,0
96,128,35772,1,0
160,128,36099,1,0
160,128,36263,1,0
224,128,36590,1,0
224,128,36754,1,0
224,192,37081,1,0
160,192,37572,1,0
96,192,37899,1,0
288,128,38880,5,0
352,128,39371,1,0
352,128,39535,1,0
352,128,39698,1,0
352,128,39862,1,0
352,224,40189,1,0
352,224,40352,1,0
256,224,40680,1,0
256,224,40843,1,0
160,224,41497,1,0
64,256,42315,5,0
128,256,42806,1,0
128,256,42970,1,0
192,256,43297,1,0
192,256,43460,1,0
192,256,43624,1,0
256,256,44115,1,0
256,256,44278,1,0
320,256,44933,1,0
176,169,45800,5,0
260,160,46241,1,0
313,193,46568,1,0
342,204,46732,1,0
288,128,46960,1,0
192,96,47223,1,0
64,96,47550,1,0
64,224,47877,1,0
320,288,48531,1,0
288,256,48695,1,0
240,78,49267,1,0
112,195,50167,5,0
143,196,50330,1,0
184,243,50658,1,0
249,218,51018,1,0
332,216,51452,1,0
320,117,51966,1,0
380,135,52293,1,0
285,143,52784,5,0
190,149,53275,1,0
186,180,53438,1,0
204,205,53602,1,0
256,240,53929,1,0
287,236,54093,1,0
315,222,54256,1,0
358,176,54583,1,0
344,147,54747,1,0
221,114,55401,1,0
149,255,56219,5,0
231,209,56710,1,0
257,192,56873,1,0
288,196,57037,1,0
288,192,57201,1,0
322,205,57394,1,0
316,147,57539,1,0
295,87,58019,1,0
160,88,58699,1,0
125,269,59654,5,0
98,177,60145,1,0
110,147,60309,1,0
147,86,60677,1,0
169,78,60799,1,0
229,97,61126,1,0
276,139,61454,1,0
298,198,61781,1,0
191,266,62435,1,0
159,265,62599,1,0
159,138,63253,1,0
420,93,70368,5,0
392,131,70614,1,0
345,124,70859,1,0
330,142,70982,1,0
260,125,71350,1,0
173,162,71841,1,0
213,245,72322,1,0
303,278,72822,1,0
328,238,73192,1,0
252,180,73558,5,0
215,128,73885,1,0
243,114,74049,1,0
305,104,74376,1,0
326,80,74540,1,0
413,211,75357,1,0
351,283,75848,1,0
161,279,76830,5,0
172,216,77157,1,0
193,193,77320,1,0
220,176,77484,1,0
275,145,77811,1,0
302,129,77975,1,0
358,101,78302,1,0
470,31,78989,1,0
297,158,80101,5,0
241,187,80428,1,0
230,247,80755,1,0
252,269,80919,1,0
340,303,81410,1,0
381,255,81737,1,0
364,228,81900,1,0
159,142,83045,1,0
186,125,83209,1,0
359,129,84109,5,0
364,151,84231,1,0
334,188,84477,1,0
291,207,84722,1,0
245,221,84967,1,0
203,248,85221,1,0
224,229,86597,6,0,C|288:224|288:224,1,70
177,145,87421,5,0
113,230,87974,1,0
170,290,88403,1,0
250,239,88893,1,0
281,175,89261,1,0
242,147,89507,1,0
194,146,89752,1,0
446,212,91102,5,0
423,205,91224,1,0
379,186,91470,1,0
332,179,91715,1,0
305,158,91887,1,0
245,141,92206,1,0
355,183,92819,1,0
64,352,99279,6,0,C|64:64|288:64|256:352,1,805
123,183,101529,5,4
151,126,101857,1,2
192,96,102184,1,8
265,158,102347,1,2
286,181,102511,1,8
338,216,102776,1,4
320,160,103002,1,2
320,128,103165,1,0
379,106,103492,1,0
449,210,104147,1,0
295,248,104965,5,0
202,226,105455,1,0
220,200,105619,1,0
232,171,105782,1,0
261,115,106110,1,0
237,93,106273,1,0
142,92,106764,1,0
129,121,106927,1,0
64,227,107582,1,4
197,311,108400,5,0
238,226,108890,1,0
255,199,109054,1,0
279,140,109381,1,0
308,127,109545,1,0
335,142,109708,1,0
362,232,110199,1,0
361,250,110366,1,0
221,250,111017,1,0
195,232,111180,1,0
126,125,111835,1,0
310,232,112902,5,2
299,210,113061,1,2
289,197,113192,1,2
237,117,113634,1,0
134,124,114166,1,0
86,127,114411,1,0
94,229,114943,1,0
151,202,115270,5,0
240,172,115760,1,0
302,164,116088,1,0
296,133,116251,1,0
272,112,116415,1,0
209,102,116742,1,0
163,89,116987,1,0
122,113,117233,1,0
106,174,117560,1,0
190,217,118051,1,0
117,77,118868,5,2
197,127,119359,1,0
224,143,119523,1,0
280,170,119850,1,0
301,192,120013,1,0
309,222,120177,1,0
245,292,120668,1,0
215,303,120831,1,0
132,207,121486,1,0
305,213,122385,5,8
297,142,122753,1,0
254,120,122999,1,0
212,97,123244,1,0
166,92,123481,1,0
117,95,123735,1,0
113,165,124103,1,0
131,208,124348,1,0
199,273,124839,1,0
233,305,125084,1,0
256,128,125698,1,0
320,192,126235,5,0
320,288,127177,1,0
320,64,128119,1,0
224,128,128844,1,0
320,288,129568,1,0
320,64,130728,1,0
320,192,131418,1,0
45,1,132772,5,0
75,56,133099,1,0
96,96,133263,1,0
128,160,133590,1,0
163,212,133917,1,0
186,233,134081,1,0
280,225,134572,1,0
302,203,134735,1,0
278,144,135062,1,0
222,113,135389,1,0
302,63,135880,1,0
371,79,136248,1,0
287,204,137025,5,0
158,116,137829,1,0
114,270,138661,1,0
140,293,138844,1,0
295,98,140133,5,0
290,255,140951,1,0
294,65,141932,1,0
293,223,142750,1,0
296,64,143568,1,0
290,253,144550,1,0
290,189,144877,1,0
289,125,145204,1,0
192,315,146308,5,4
166,275,146553,1,4
136,237,146799,1,4
135,165,147167,1,4
188,117,147535,1,4
229,95,147780,1,4
269,70,148026,1,4
299,33,148271,1,4
334,94,148639,1,4
342,140,148884,1,4
329,159,149007,1,4
289,185,149252,1,4
246,205,149498,1,4
384,192,153669,5,8
311,253,154160,1,8
287,255,154282,1,8
245,253,154496,1,8
191,253,154773,1,8
133,264,155076,1,8
143,204,155387,1,8
176,115,155877,1,8
267,139,156368,1,8
135,211,157145,5,2
219,253,157636,1,0
249,243,157799,1,2
280,247,157963,1,0
309,258,158126,1,2
336,201,158454,1,0
317,175,158617,1,4
299,148,158781,1,0
245,132,159067,1,4
244,132,160662,5,0
172,134,161030,1,0
174,181,161275,1,0
176,228,161521,1,0
172,270,161742,1,0
170,321,162011,1,0
230,323,162322,1,0
288,326,162625,1,0
382,321,163115,1,0
384,128,164179,5,0
320,128,164506,1,0
288,128,164669,1,0
224,128,164997,1,0
192,128,165160,1,0
160,128,165366,1,0
160,224,165814,1,0
160,256,165978,1,0
320,256,166796,1,0
320,224,166959,1,0
256,128,167450,1,0
62,59,168513,5,0
60,106,168759,1,0
60,129,168881,1,0
63,223,169372,1,0
62,316,169858,1,0
133,321,170231,1,0
204,320,170599,1,0
382,288,171540,5,0
384,288,171703,1,0
384,288,171867,1,0
383,224,172194,1,0
382,225,172357,1,0
382,227,172521,1,0
255,223,173175,1,0
160,227,173666,1,0
162,61,174525,5,0
162,132,174893,1,0
233,129,175261,1,0
256,129,175384,1,0
303,131,175629,1,0
350,132,175874,1,0
349,203,176242,1,0
278,190,176610,1,0
182,192,177105,1,0
365,235,178083,5,0
371,305,178451,1,0
323,310,178696,1,0
299,310,178819,1,0
256,288,179064,1,0
265,266,179187,1,0
299,177,179677,1,0
234,147,180045,1,0
139,153,180536,1,0
32,32,181354,5,0
160,32,181845,1,0
288,32,182336,1,0
416,32,182826,1,0
416,160,183235,1,0
288,160,183644,1,0
160,160,184094,1,0
64,160,184626,1,0
64,246,185075,1,0
133,261,185443,1,0
225,238,185934,1,0
279,270,186261,1,0
337,246,186588,1,0
417,295,187079,1,0
288,96,191986,5,0
288,160,192314,1,0
224,320,193131,1,0
224,288,193295,1,0
224,224,193622,1,0
224,160,193949,1,0
224,64,194440,1,0
288,256,195422,5,0
288,160,195912,1,0
256,128,196076,1,0
224,128,196239,1,0
192,160,196403,1,0
224,224,196730,1,0
288,288,197221,1,0
320,288,197384,1,0
384,192,198039,1,0
224,224,198857,5,0
160,160,199347,1,0
160,128,199511,1,0
192,96,199674,1,0
256,128,200002,1,0
288,160,200165,1,0
352,192,200583,1,0
320,192,200779,1,0
192,192,201474,1,0
160,160,201637,1,0
288,224,202292,1,0
384,64,203273,5,0
352,96,203437,1,0
320,160,203764,1,0
256,192,204091,1,0
192,256,204582,1,0
160,192,204909,5,0
160,128,205236,1,0
160,96,205400,1,0
160,192,205945,1,0
256,256,206545,1,0
320,128,207362,5,0
192,192,207974,1,0
160,96,208508,1,0
224,96,208835,1,0
288,160,209279,1,0
320,224,209653,1,0
256,288,210102,1,0
160,288,210593,1,0
160,224,210961,1,0
256,224,211452,1,0
160,224,211943,1,0
96,224,212322,1,0
128,64,212760,5,0
224,64,213192,1,0
256,96,213415,1,0
288,128,213578,1,0
288,192,213905,1,0
256,224,214069,1,0
160,224,214560,1,0
160,192,214723,1,0
128,64,215378,1,0
160,64,215541,1,0
224,320,219568,6,0,C|64:160|64:64|192:64|256:160|320:64|416:64|480:160|288:320|288:352,2,1190
256,192,225076,12,4,230004
