osu file format v9

[General]
AudioFilename: David Byrne - Like Humans Do.mp3
AudioLeadIn: 1500
PreviewTime: 65108
Countdown: 0
SampleSet: Soft
StackLeniency: 0.7
Mode: 0
LetterboxInBreaks: 1

[Editor]
Bookmarks: 27210,38221,56625,94765,160969
DistanceSpacing: 1.4
BeatDivisor: 4
GridSize: 8

[Metadata]
Title:Like Humans Do
Artist:David Byrne
Creator:Matma Rex
Version:Normal
Source:
Tags:

[Difficulty]
HPDrainRate:4
CircleSize:4
OverallDifficulty:4
ApproachRate:4
SliderMultiplier:1.4
SliderTickRate:1

[Events]
//Background and Video events
0,0,"DavidByrne.jpg"
//Break Periods
2,75021,77723
2,142025,150077
//Storyboard Layer 0 (Background)
//Storyboard Layer 1 (Fail)
//Storyboard Layer 2 (Pass)
//Storyboard Layer 3 (Foreground)
//Storyboard Sound Samples
//Background Colour Transformations
3,100,0,0,0

[TimingPoints]
497,563.063063063063,4,2,0,80,1,0
30339,563.063063063063,4,2,0,80,1,1
35688,-100,4,2,0,80,0,0
56653,-100,4,2,0,80,0,1
59749,-100,4,2,0,80,0,0
65660,-100,4,2,0,80,0,1
68756,-100,4,2,0,80,0,0
97889,-100,4,2,0,80,0,1
103255,-100,4,2,0,80,0,0
124207,-100,4,2,0,80,0,1
127304,-100,4,2,0,80,0,0
133215,-100,4,2,0,80,0,1
136311,-100,4,2,0,80,0,0
160969,-100,4,2,0,80,0,1
166318,-100,4,2,0,80,0,0
187292,-100,4,2,0,80,0,1
190389,-100,4,2,0,80,0,0
205451,-100,4,2,0,80,0,0

[Colours]
Combo1 : 62,62,62
Combo2 : 232,232,232
Combo3 : 196,0,0

[HitObjects]
80,328,497,1,0
152,144,1060,1,0
192,56,1341,1,0
248,136,1623,1,0
296,48,1904,1,0
352,128,2186,5,0
352,128,2326,1,0
352,128,2467,1,0
480,192,2749,5,0
280,192,3312,1,8
32,192,4016,1,0
176,192,4438,1,8
32,192,5564,5,8
280,192,6268,1,0
136,192,6690,1,8
480,192,7816,5,8
232,192,8520,1,0
80,192,8942,1,8
32,192,10069,5,8
272,192,10772,1,0
128,192,11195,1,8
224,232,11476,6,0,B|316:212|417:312|417:312,1,210,0|8
304,312,12602,2,0,B|318:302|263:354|192:379|118:298,1,210,0|8
72,104,14010,6,0,B|152:54|222:79|222:79,1,140,0|8
152,152,14855,2,0,B|225:190|301:164|301:164,1,140
288,168,15699,1,8
384,184,15981,6,0,B|341:219|291:215|292:215,1,70,0|0
288,120,16544,2,0,B|198:97|131:148,1,140,0|2
232,192,17388,1,8
328,240,17670,1,0
86,228,18233,5,0
86,228,18515,2,0,B|158:290|224:292|299:220|299:220,1,210,8|0
212,196,19641,2,0,B|252:138|337:138|337:138,1,140,8|0
448,296,20767,6,0,B|408:240|344:224|344:224,1,105,8|0
288,360,21611,1,0
311,263,21893,2,0,B|323:259|235:299|187:227,1,140,8|0
88,224,22737,5,0
88,128,23019,2,0,B|160:168|237:101|237:101,1,140,8|0
192,208,23864,1,0
272,152,24145,2,0,B|392:208|480:120|480:24|480:24,1,280,8|0
256,88,25834,5,0
200,272,26397,1,0
312,272,26679,1,0
256,192,27242,12,0,29494
256,120,29776,6,0,B|256:80|256:80,2,35,2|0|2
160,120,30339,1,8
104,304,30902,2,0,B|168:256|256:304|256:304,1,140,0|8
176,216,31747,2,0,B|296:232|360:112|360:112,1,210,0|8
376,32,32873,5,0
356,129,33154,2,0,B|363:116|299:236|179:220,1,210,8|0
238,296,34280,2,0,B|256:304|168:256|108:300,1,140,8|0
80,208,35125,1,0
175,185,35406,2,0,B|199:109|290:91|290:91,1,140,8|0
424,276,36814,6,0,B|416:188|392:148|388:140|388:140|364:164|333:182|333:182|313:152|313:152|283:174|283:174|224:120|144:120,1,420
80,288,39348,6,0,B|144:216|200:224|200:224,1,140,8|0
144,128,40192,1,0
224,288,40756,2,0,B|368:272|400:176|400:176,1,210,8|8
288,200,41882,5,0
360,128,42163,2,0,B|328:56|248:40|248:40,1,140,0|8
272,144,43008,1,0
199,72,43289,2,0,B|215:64|177:77|108:124|103:191,1,140,0|8
104,344,44415,1,0
456,242,45823,6,0,B|448:154|424:114|420:106|420:106|396:130|365:148|365:148|345:118|345:118|315:140|315:140|256:86|176:86,1,420
112,144,47794,5,0
80,232,48075,1,0
152,304,48357,2,0,B|232:344|280:272|280:272,1,140,8|0
200,96,49483,1,8
319,248,50046,6,0,B|307:249|387:249|435:176,1,140,0|8
336,168,50891,1,0
416,112,51172,2,0,B|432:112|272:32|224:184,1,210
160,88,52298,6,0,B|160:89|80:105|72:185,1,140,8|0
170,185,53143,1,0
245,122,53424,2,0,B|340:122|364:194,1,140,8|0
225,327,54551,6,0,L|257:327|257:287|257:287,1,70,8|0
257,289,55114,2,0,L|289:289|289:247|289:247,1,70,8|0
289,251,55677,2,0,L|321:251|321:211|361:211|361:179|361:179,1,140,8|0
152,216,56662,6,0,B|152:176,1,35,0|2
152,80,57084,1,0
152,80,57366,1,0
256,216,57788,6,0,B|256:176,1,35,0|2
256,80,58210,1,0
256,80,58492,1,0
360,216,58914,6,0,B|360:176,1,35,0|2
360,80,59337,1,0
360,80,59618,1,0
448,256,60181,5,0
360,296,60463,1,0
264,296,60744,1,0
168,272,61026,2,0,B|70:241|74:132|115:65|115:65,1,210,2|0
136,128,62011,6,0,B|168:128|168:112,5,35
69,128,62997,1,0
104,320,63560,5,0
200,308,63841,2,0,B|201:320|169:320,4,35
296,312,64686,2,0,B|344:312|352:272|352:272,1,70
376,184,65249,1,0
152,168,65671,6,0,B|152:208,1,35,0|2
152,304,66093,1,0
152,304,66375,1,0
256,168,66797,6,0,B|256:208,1,35,0|2
256,304,67219,1,0
256,304,67501,1,0
360,168,67923,6,0,B|360:208,1,35,0|2
360,304,68346,1,0
360,304,68627,1,0
64,256,69190,5,0
152,296,69472,1,0
248,296,69753,1,0
344,272,70035,2,0,B|442:241|438:132|397:65|397:65,1,210,2|0
376,128,71020,6,0,B|344:128|344:112,5,35
443,128,72006,1,0
408,320,72569,1,0
352,224,72850,1,0
304,312,73132,5,0
304,312,73272,1,0
304,312,73413,1,0
248,216,73695,1,0
192,304,73976,1,0
192,88,74539,5,0
320,88,74821,1,0
86,217,79043,5,0
162,156,79324,2,0,B|236:95|294:155|294:155,2,140,0|8|0
306,289,81014,2,0,B|345:261|343:232|343:231,2,70,8|0|0
210,311,81858,5,0
120,270,82140,2,0,B|83:172|127:118|224:106|224:106,1,210,8|0
149,28,83266,1,8
72,88,83548,5,0
104,183,83830,2,0,B|93:184|181:176|221:112,1,140,8|0
216,216,84674,1,0
280,128,84956,2,0,B|356:128|409:198,1,140,8|0
208,264,86082,6,0,B|304:264|368:208|384:136|384:136,1,210,8|0
400,64,87208,2,0,B|328:72|280:136,1,140,8|0
192,168,88053,5,0
161,260,88334,2,0,B|249:272|281:204,1,140,8|0
86,238,89460,2,0,B|112:154|211:169,1,140,8|0
186,264,90305,5,0
248,192,90587,2,0,B|240:120|176:72,1,140,8|0
104,136,91431,2,0,B|184:192|216:184|304:112|304:112,1,210,0|8
256,312,92839,1,0
256,56,93402,5,0
200,256,93965,1,0
312,256,94247,1,0
256,192,94810,12,0,97062
256,120,97343,6,0,B|256:80|256:80,2,35,2|0|2
352,120,97906,1,8
408,304,98469,2,0,B|344:256|256:304|256:304,1,140,0|8
336,216,99314,2,0,B|216:232|152:112|152:112,1,210,0|8
136,32,100440,5,0
156,129,100721,2,0,B|149:116|213:236|333:220,1,210,8|0
274,296,101847,2,0,B|256:304|344:256|404:300,1,140,8|0
432,208,102692,1,0
337,185,102973,2,0,B|313:109|222:91|222:91,1,140,8|0
88,276,104381,6,0,B|96:188|120:148|124:140|124:140|148:164|179:182|179:182|199:152|199:152|229:174|229:174|288:120|368:120,1,420
80,152,106915,6,0,B|152:112|232:168|232:168,1,140,0|8
240,256,107760,1,0
32,200,108323,2,0,B|128:256|240:184|240:184,1,210,8|8
328,152,109449,5,0
392,64,109731,1,0
288,47,110012,2,0,B|210:74|191:154|191:154,4,140,8|0|0|0|0
376,104,112546,1,8
168,311,113390,6,0,B|176:223|200:183|204:175|204:175|228:199|259:217|259:217|279:187|279:187|309:209|309:209|368:155|448:155,1,420
466,63,115361,6,0,B|418:111|386:79|386:79,1,70
306,101,115924,1,8
320,191,116206,2,0,B|289:183|258:217,1,70
88,88,117051,1,8
88,296,117614,5,0
80,192,117895,2,0,B|136:168|176:192|176:192,1,70,0|8
152,288,118458,2,0,B|224:392|344:280|344:280,1,210,0|8
144,200,119866,6,0,B|208:168|240:208|240:208,1,70
312,216,120429,1,8
272,120,120710,1,0
312,216,120992,2,0,B|384:248|416:152|416:152,1,140,0|8
224,232,122118,6,0,L|192:232|192:176|192:176,1,70,8|0
192,194,122681,2,0,L|160:194|160:152|160:152,1,70,8|0
160,156,123244,2,0,L|128:156|128:116|88:116|88:84|88:84,1,140,8|0
152,216,124230,6,0,B|152:176,1,35,0|2
152,80,124652,1,0
152,80,124933,1,0
256,216,125356,6,0,B|256:176,1,35,0|2
256,80,125778,1,0
256,80,126060,1,0
360,216,126482,6,0,B|360:176,1,35,0|2
360,80,126904,1,0
360,80,127186,1,0
170,129,127749,5,0
145,224,128030,1,0
199,305,128312,1,0
295,317,128593,2,0,B|401:308|418:207|419:147,1,210,2|0
384,136,129579,6,0,B|352:136|352:120,5,35
456,136,130564,1,0
360,320,131127,5,0
456,308,131409,2,0,B|457:320|425:320,4,35
360,320,132253,2,0,B|312:320|304:280|304:280,1,70
296,176,132816,1,0
152,168,133239,6,0,B|152:208,1,35,0|2
152,304,133661,1,0
152,304,133942,1,0
256,168,134365,6,0,B|256:208,1,35,0|2
256,304,134787,1,0
256,304,135069,1,0
360,168,135491,6,0,B|360:208,1,35,0|2
360,304,135913,1,0
360,304,136195,1,0
64,128,136758,5,0
152,88,137039,1,0
248,88,137321,1,0
344,112,137602,2,0,B|442:143|438:252|397:319|397:319,1,210,2|0
400,336,138588,6,0,B|368:336|368:320,5,35
467,336,139573,1,0
392,136,140136,1,0
360,224,140418,1,0
304,144,140699,5,0
304,144,140840,1,0
304,144,140981,1,0
240,256,141262,1,0
104,112,141825,1,0
48,144,151397,6,0,B|64:264|160:328|304:344|384:320|384:320|312:304|336:256,1,490
417,238,153650,2,0,B|336:147|221:148|168:192|166:194|166:194|208:128|152:120,1,350
89,81,155339,1,0
89,81,155480,1,0
89,81,155620,1,0
48,170,155902,6,0,B|132:358|264:270|282:198|304:89|304:89|319:144|372:144,1,490
396,54,158155,6,0,B|505:125|434:259|379:299|379:299,1,280
292,256,159562,1,0
195,238,159843,2,0,B|177:208|184:180,2,35
107,282,160406,1,0
160,120,160969,5,8
104,304,161532,2,0,B|168:256|256:304|256:304,1,140,0|8
176,216,162377,2,0,B|296:232|360:112|360:112,1,210,0|8
376,32,163503,5,0
356,129,163784,2,0,B|363:116|299:236|179:220,1,210,8|0
238,296,164910,2,0,B|256:304|168:256|108:300,1,140,8|0
80,208,165755,1,0
175,185,166036,2,0,B|199:109|290:91|290:91,1,140,8|0
424,276,167444,6,0,B|416:188|392:148|388:140|388:140|364:164|333:182|333:182|313:152|313:152|283:174|283:174|224:120|144:120,1,420
60,211,169978,6,0,B|86:297|158:321,1,140,0|8
166,220,170823,1,0
321,100,171386,1,0
249,166,171667,2,8,B|348:234|451:132,1,210,8|0
416,47,172793,1,8
440,142,173075,2,0,B|442:208|392:218,1,70
345,271,173638,2,0,B|338:314|297:325|297:325|290:247|268:181|216:124|153:78|105:56,1,420
57,141,175609,1,0
182,319,176453,6,0,B|190:231|214:191|218:183|218:183|242:207|273:225|273:225|293:195|293:195|323:217|323:217|382:163|462:163,1,420
450,261,178424,6,0,B|439:287|392:308,1,70
300,321,178987,2,0,B|309:240|253:176,2,140,8|0|0
115,255,180676,5,8
100,157,180958,1,0
159,79,181239,1,0
255,63,181521,1,0
347,96,181802,2,0,B|411:173|409:246|384:310,1,210,8|0
324,218,182929,5,8
188,359,183492,1,0
136,169,184055,1,8
324,218,184618,1,0
411,173,184899,5,0
379,79,185181,2,0,B|309:66|218:121,3,140,8|0|8|0
360,216,187292,6,0,B|360:176,1,35,0|2
360,80,187714,1,0
360,80,187995,1,0
256,216,188418,6,0,B|256:176,1,35,0|2
256,80,188840,1,0
256,80,189122,1,0
152,216,189544,6,0,B|152:176,1,35,0|2
152,80,189966,1,0
152,80,190248,1,0
344,168,190811,5,0
328,272,191092,1,0
240,328,191374,1,0
153,279,191655,2,0,B|73:214|116:114|178:66|178:66,1,210,2|0
235,37,192782,2,0,B|249:121|323:156|406:169,1,210,2|8
465,304,194190,6,0,B|443:327|388:326,1,70
303,309,194753,1,8
229,244,195034,1,0
180,158,195316,1,0
190,60,195598,1,0
101,100,195879,6,0,B|45:159|56:257,1,140
256,32,197005,5,0
355,54,197568,2,0,B|436:85|496:203|467:361|297:363,1,420
157,54,199820,2,0,B|76:85|16:203|45:361|215:363,1,420
310,75,202073,2,0,B|418:122|402:268|329:305,1,280
256,192,203480,12,0,205451
