osu file format v8

[General]
AudioFilename: Davichi - Time Stop Please.mp3
AudioLeadIn: 0
PreviewTime: 45838
Countdown: 2
SampleSet: Normal
StackLeniency: 0.7
Mode: 0
LetterboxInBreaks: 1

[Editor]
DistanceSpacing: 0
BeatDivisor: 2
GridSize: 8

[Metadata]
Title:Time Stop Please
Artist:Davichi
Creator:Sunny Holic
Version:Normal
Source:
Tags:Innocence

[Difficulty]
HPDrainRate:5
CircleSize:3
OverallDifficulty:5
ApproachRate:5
SliderMultiplier:1.4
SliderTickRate:1

[Events]
//Background and Video events
0,0,"backg.jpg"
//Break Periods
2,133275,135625
//Storyboard Layer 0 (Background)
//Storyboard Layer 1 (Fail)
//Storyboard Layer 2 (Pass)
//Storyboard Layer 3 (Foreground)
//Storyboard Sound Samples
//Background Colour Transformations
3,100,163,162,255

[TimingPoints]
280,923.076923076923,4,2,0,70,1,0
15049,-50,4,2,0,70,0,0
44356,-100,4,1,0,40,0,0
44588,416.666666666667,4,1,0,40,1,0
44900,-100,4,1,0,50,0,0
45317,-100,4,1,0,60,0,0
45733,-100,4,1,0,70,0,1
46046,-100,4,1,0,80,0,1
59171,-100,4,1,0,80,0,0
72504,-100,4,1,0,70,0,0
72921,447.761194029851,4,1,0,70,1,0
73592,-100,4,1,0,60,0,0
74488,-100,4,1,0,50,0,0
75383,-100,4,1,0,40,0,0
76279,-100,4,2,0,70,0,0
76503,895.522388059701,4,2,0,70,1,0
83667,-50,4,2,0,70,0,0
104935,-50,4,1,0,40,0,0
105159,416.666666666667,4,1,0,40,1,0
105471,-100,4,1,0,50,0,0
105888,-100,4,1,0,60,0,0
106304,-100,4,1,0,70,0,1
106617,-100,4,1,0,80,0,1
119742,-100,4,1,0,70,0,0
164742,-100,4,2,0,0,0,0
164950,-100,4,1,0,40,0,0
165471,-100,4,1,0,50,0,0
165888,-100,4,1,0,60,0,0
166304,-100,4,1,0,70,0,1
166617,-100,4,1,0,80,0,1
179742,-100,4,1,0,80,0,0

[Colours]
Combo1 : 235,235,235
Combo2 : 228,0,123

[HitObjects]
96,96,15049,2,0,B|160:32|225:100,1,140,0|0
311,199,15972,1,0
311,199,16433,1,0
243,318,16895,1,0
382,318,17356,2,0,B|479:322|478:220,1,140
258,64,18741,5,0
134,129,19202,1,0
134,129,19433,1,0
109,194,19664,2,0,B|159:274|239:189,1,140
225,203,20587,1,0
463,56,21510,1,8
183,77,22433,6,0,B|152:172|259:197,2,140
83,176,23818,1,0
181,274,24279,1,0
321,274,24741,2,0,B|407:274,2,70
123,76,26125,6,0,B|53:76,2,70
123,76,27049,1,0
52,197,27510,1,0
192,197,27972,1,0
192,197,28895,1,8
455,290,29818,5,0
455,150,30279,1,0
414,93,30510,1,0
348,69,30741,2,0,B|249:66|236:165,1,140
241,280,31664,2,0,B|248:353|347:350,1,140
483,350,32587,1,0
285,152,33510,5,0
185,52,33972,1,0
185,52,34202,1,0
114,52,34433,2,0,B|27:47|25:146,1,140
25,276,35356,1,0
148,342,35818,2,0,B|233:342,2,70
220,71,37202,6,0,B|76:127,1,140
89,121,38125,2,0,B|139:251,1,140
139,251,39049,2,0,B|269:200,1,140
269,200,39972,1,8
384,70,40895,5,0
244,70,41356,2,0,B|141:70,2,70
244,70,42279,1,0
384,70,42741,1,0
199,47,44588,6,0,B|119:47,3,70
129,117,45421,2,0,B|49:117,2,70,0|0|0
129,257,46254,2,0,B|180:359|356:307,1,210,4|0
312,317,47088,1,0
410,218,47504,2,0,B|337:219,1,70,8|0
340,218,47921,1,0
199,218,48338,1,8
100,119,48754,6,0,B|29:118,2,70,0|0|8
240,119,49588,2,0,B|301:65|380:127,2,140,0|8|0
240,119,50838,1,8
141,217,51254,2,0,B|64:217,3,70,0|0|8|0
21,167,52088,1,0
119,68,52504,5,8
259,68,52921,1,0
159,167,53338,1,8
259,68,53754,1,0
259,208,54171,1,8
358,108,54588,1,0
407,58,54796,1,0
456,107,55004,1,8
456,247,55421,6,0,B|397:311|315:238,1,140,0|8
232,152,56254,2,0,B|173:88|91:161,3,140,0|8|0|8
107,288,57921,1,0
247,288,58338,1,8
345,189,58754,1,0
380,249,58963,1,0
416,189,59171,1,8
275,189,59588,6,0,B|206:172|203:77,1,140,0|8
203,81,60421,2,0,B|200:171|131:188,1,140,0|8
80,318,61254,2,0,B|-14:318,2,70,0|0|8
220,318,62088,1,0
316,217,62504,1,8
417,120,62921,6,0,B|369:31|280:89,1,140,0|8
301,77,63754,2,0,B|329:173|225:195,1,140,0|8
123,250,64588,2,0,B|193:250,2,70,0|0|8
262,250,65421,1,0
402,250,65838,1,8
368,114,66254,5,0
318,64,66463,1,0
251,41,66671,1,8
151,140,67088,2,0,B|185:217|285:201,1,140,0|8
404,203,67921,2,0,B|477:203,2,70,0|0|8
264,203,68754,2,0,B|184:189|150:266,1,140,0|8
151,123,69588,1,0
256,192,69692,12,0,72504
253,82,72921,6,0,B|212:156|102:145,1,140
136,146,73816,2,0,B|211:136|252:210,1,140
378,147,74712,1,0
251,207,75159,1,0
326,326,75607,2,0,B|472:326,1,140
466,326,76503,5,0
39,43,78294,1,0
475,39,80085,1,0
39,346,81876,1,0
256,169,82771,1,8
507,293,83667,6,0,B|415:263|398:371,1,140
261,351,84562,2,0,B|248:262|156:292,1,140
159,151,85458,2,0,B|251:181|268:73,1,140
404,92,86353,1,0
189,272,87249,5,0
35,37,88144,1,0
315,37,89040,1,0
468,271,89935,1,8
240,107,90831,6,0,B|168:53|88:146,3,140
113,260,92622,1,0
253,260,93070,2,0,B|342:260,2,70,0|0|8
451,61,94413,5,0
310,61,94861,1,0
275,122,95085,1,0
240,61,95309,2,0,B|139:48|104:149,1,140
219,213,96204,1,0
119,312,96652,2,0,B|48:312,2,70,0|0|8
399,312,97995,6,0,B|389:260|485:273|442:179,1,140
348,94,98891,2,0,B|357:142|261:129|298:208,1,140
298,347,99786,2,0,B|257:319|231:412|173:347,1,140
74,249,100682,1,8
271,51,101577,5,0
411,51,102025,1,0
375,111,102249,1,0
445,111,102473,2,0,B|452:202|358:155|383:251,1,140
378,223,103368,1,0
132,53,105159,6,0,B|37:53,3,70,0|0|0|0
62,122,105992,2,0,B|133:122,1,70
132,122,106409,1,8
271,122,106825,2,0,B|244:206|125:158|116:258,1,210,4|0
117,247,107659,1,0
251,285,108075,2,0,B|324:285,1,70,8|0
321,285,108492,1,0
420,185,108909,1,8
321,86,109325,6,0,B|249:86,2,70,0|0|8
372,216,110159,2,0,B|533:295,2,140,0|8|0
250,146,111409,1,8
151,244,111825,2,0,B|74:244,3,70,0|0|8|0
31,194,112659,1,0
31,54,113075,5,8
171,54,113492,1,0
450,54,114325,1,0
251,252,115159,1,0
300,202,115367,1,0
349,152,115575,1,8
249,52,115992,6,0,B|170:17|109:58,1,140,0|8
114,190,116825,2,0,B|114:259|14:187|17:264,3,140,0|8|0|8
138,330,118492,1,0
278,330,118909,1,8
207,209,119325,1,0
277,209,119534,1,0
241,269,119742,1,8
172,146,120159,5,0
436,54,120992,1,8
372,326,121825,2,0,B|274:371,2,70,0|0|8
272,226,122659,1,0
74,28,123492,5,0
74,307,124325,1,0
272,108,125159,2,0,B|344:51|416:140,2,140,0|8|0
172,207,126409,1,8
270,305,126825,5,0
270,234,127034,1,0
270,164,127242,1,8
270,23,127659,2,0,B|178:38|132:113,1,140,0|8
102,220,128492,2,0,B|10:220,2,70,0|0|8
201,319,129325,1,0
300,219,129742,1,8
300,219,130159,1,0
256,192,130263,12,0,133075
120,56,136825,5,0
400,56,137659,1,0
400,335,138492,1,0
120,335,139325,1,0
241,82,140159,6,0,B|35:82,1,140,0|8
101,222,140992,2,0,B|307:222,1,140,0|8
381,222,141825,1,0
243,84,142659,6,0,B|165:84,2,70,0|0|8
383,84,143492,5,0
482,345,144325,2,0,B|276:345,1,140,0|8
201,345,145159,1,0
151,295,145367,1,0
101,245,145575,1,8
101,104,145992,2,0,B|307:104,1,140,0|8
381,104,146825,5,0
182,302,147659,1,0
57,51,148492,1,0
156,150,148909,1,8
254,51,149325,1,0
353,150,149742,1,8
353,290,150159,6,0,B|279:356|208:270,3,140,0|8|0|8
228,151,151825,2,0,B|302:85|373:171,1,140,0|8
253,50,152659,2,0,B|179:116|108:30,1,140,0|8
29,150,153492,5,0
29,219,153700,1,0
29,289,153909,1,8
161,333,154325,1,0
441,333,155159,1,0
441,193,155575,1,8
441,52,155992,2,0,B|370:52,2,70,0|0|8
441,193,156825,6,0,B|327:274,2,140,0|8|0
300,193,158075,2,0,B|187:193,1,70,8|0
159,193,158492,2,0,B|45:275,3,140,0|8|0|8
45,134,160159,5,0
94,84,160367,2,0,B|157:19|254:92,1,140
222,71,160992,1,0
287,96,161200,2,0,B|388:128|308:219|453:256,1,210
256,192,161929,12,0,164742
256,192,165159,5,0
157,93,165575,1,0
256,192,165992,1,0
355,92,166409,1,0
355,231,166825,2,0,B|263:315|108:220,1,210,4|0
158,247,167659,1,0
73,135,168075,2,0,B|-37:135,1,70,8|0
4,135,168492,1,0
4,275,168909,1,8
123,201,169325,6,0,B|239:129,2,70,0|0|8
222,300,170159,2,0,B|368:300,2,140,0|8|0
321,200,171409,1,8
222,101,171825,2,0,B|142:101,3,70,0|0|8|0
81,101,172659,1,0
81,240,173075,5,8
221,240,173492,1,0
361,240,173909,1,8
221,240,174325,1,0
221,99,174742,1,8
361,99,175159,1,0
410,148,175367,1,0
459,197,175575,1,8
359,296,175992,6,0,B|211:296,1,140,0|8
219,155,176825,2,0,B|367:155,3,140,0|8|0|8
259,55,178492,1,0
118,55,178909,1,8
216,153,179325,1,0
166,202,179534,1,0
116,251,179742,1,8
256,251,180159,6,0,B|368:139,1,140,0|8
216,153,180992,2,0,B|104:41,1,140,0|8
17,153,181825,2,0,B|17:226,3,70
17,293,182659,1,0
296,293,183492,6,0,B|438:331,1,140,0|8
468,193,184325,2,0,B|325:154,1,140,0|8
192,156,185159,2,0,B|133:99|55:125,2,140,0|8|0
104,265,186409,1,8
243,265,186825,5,0
243,194,187034,1,0
243,124,187242,1,8
383,124,187659,2,0,B|470:129|498:214,1,140,0|8
402,306,188492,2,0,B|478:306,2,70,0|0|8
261,306,189325,2,0,B|181:322|131:230,1,140,0|8
256,167,190159,1,0
256,192,190263,12,0,193492
