osu file format v9

[General]
AudioFilename: Davichi - Sad Promise Remix.mp3
AudioLeadIn: 0
PreviewTime: 91503
Countdown: 0
SampleSet: Soft
StackLeniency: 0.7
Mode: 0
LetterboxInBreaks: 1

[Editor]
Bookmarks: 17893,19739,20662,21585,22508,23431,24355,25278,26201,28047,143431,151739,160970
DistanceSpacing: 1
BeatDivisor: 1
GridSize: 8

[Metadata]
Title:Sad Promise (Remix)
Artist:Davichi
Creator:lily_no_hana
Version:Unfortunate Promise
Source:
Tags:seulpeun tajim amaranth kang min kyung lee hae ri k-pop

[Difficulty]
HPDrainRate:2
CircleSize:3
OverallDifficulty:2
ApproachRate:2
SliderMultiplier:0.8
SliderTickRate:2

[Events]
//Background and Video events
0,0,"Davichi Sad Promise.jpg.jpg"
//Break Periods
2,107631,120641
2,166708,177871
//Storyboard Layer 0 (Background)
//Storyboard Layer 1 (Fail)
//Storyboard Layer 2 (Pass)
//Storyboard Layer 3 (Foreground)
//Storyboard Sound Samples
//Background Colour Transformations
3,100,255,163,70

[TimingPoints]
355,461.538461538462,4,2,0,84,1,0
77888,-100,4,2,0,84,0,1
107426,-100,4,2,0,84,0,0
151739,-100,4,2,0,84,0,1
166508,-100,4,2,0,84,0,0
197893,-100,4,2,0,84,0,1
214508,-100,4,2,0,60,0,0
215431,-100,4,2,0,40,0,0
216355,-100,4,2,0,20,0,0
217278,-100,4,2,0,0,0,0

[Colours]
Combo1 : 255,255,255
Combo2 : 255,128,64
Combo3 : 120,39,16

[HitObjects]
64,160,16508,1,4
144,160,16970,2,8,B|176:96|272:64,1,160,2|8
272,224,18816,2,8,B|240:288|144:320,1,160,2|8
56,192,20662,5,8
136,192,21124,2,0,B|136:96,2,80,0|8|0
216,192,22508,1,8
352,272,23431,2,8,B|400:195|342:110,1,160,8|8
192,80,25278,5,8
192,160,25739,2,0,B|288:160,2,80,0|8|0
192,240,27124,1,2
272,240,27585,2,0,B|360:240,1,80,0|8
432,240,28508,2,0,B|432:328,2,80,0|2|0
256,192,29893,12,0,31740
104,72,33585,5,4
184,72,34047,1,0
264,72,34508,1,0
424,80,35431,2,8,B|376:144|376:144|432:208|432:208|424:208|424:208,1,160,2|8
304,304,37278,6,8,B|249:245|249:245|183:308,2,160,2|8|2
328,192,40047,1,4
440,80,40970,5,2
360,80,41431,1,0
280,80,41893,1,8
440,80,42816,2,8,B|488:144|488:144|432:208|432:208|440:208|440:208,1,160,2|8
304,304,44662,6,8,B|249:245|249:245|183:308,2,160
304,304,47431,1,4
464,304,48355,5,6
464,224,48816,1,0
464,144,49278,1,8
344,40,50201,2,0,C|248:40|248:40,3,80,8|4|8|4
264,120,52047,5,8
184,120,52508,1,0
104,120,52970,1,8
56,272,53893,2,8,C|152:272,3,80
216,272,55739,5,0
296,272,56201,1,8
376,272,56662,1,0
456,272,57124,2,0,B|480:160|480:160|480:160,1,80,8|0
408,144,58047,2,8,B|328:144,1,80
232,272,59431,5,8
160,304,59893,2,0,B|144:256|160:200|224:184|264:200,1,160,0|8
312,232,61278,1,4
360,80,62201,6,8,B|264:80|264:80|264:152,1,160
184,144,63585,1,0
104,144,64047,1,4
240,224,64970,5,0
312,264,65431,1,0
392,264,65893,1,4
312,120,66816,6,8,B|259:45|164:77,2,160
184,216,69585,6,8,B|203:222|107:190|107:190|128:272|128:272|43:254|43:254|80:328,1,320
232,288,72355,1,8
312,312,72816,1,0
336,232,73278,2,4,B|386:156|291:126|270:187|273:244,1,160,8|0
256,192,75124,12,0,76970
176,160,77893,2,8,B|208:96|304:64,1,160
384,64,79278,2,4,B|480:64,1,80
464,144,80201,1,0
464,304,81124,6,8,B|360:304,3,80
232,344,83431,1,8
232,264,83893,1,0
232,184,84355,2,0,B|192:184,1,40
112,184,85047,2,0,B|112:136,1,40
256,72,86201,2,0,B|288:48|336:32|392:48|424:80,1,160,0|4
400,144,87585,1,0
352,208,88047,1,4
256,192,88739,12,4,91047
128,128,92662,2,8,B|128:48,2,80,4|8|8
128,208,94047,1,0
208,208,94508,2,8,B|304:208,2,80
352,136,96355,5,4
272,136,96816,1,0
192,136,97278,2,8,B|96:136,1,80
40,104,98201,2,8,B|104:32,4,80,0|8|0|8|4
96,256,100970,5,4
248,312,101893,2,2,B|312:240,1,80
352,192,102816,1,4
248,72,103739,6,8,B|344:72,1,80
408,72,104662,1,0
488,72,105124,1,8
448,144,105585,6,8,B|448:208,3,53.3333333333333
448,280,106970,2,4,B|448:376,1,80,0|4
104,120,122201,5,4
104,40,122662,2,0,B|16:40,2,80,0|8|0
184,40,124047,5,8
264,40,124508,2,0,B|368:40,2,80,0|8|0
256,200,126355,5,8
256,280,126816,1,0
256,360,127278,1,8
368,248,128201,1,4
368,168,128662,2,0,B|472:168,2,80,0|8|0
296,208,130047,5,8
224,168,130508,1,4
96,72,131431,2,0,B|112:40|160:0|208:40|224:72,1,160,0|4
272,224,133278,5,8
272,144,133739,1,0
272,64,134201,2,0,B|272:32|328:-16|384:32|384:64,1,160,8|8
384,144,135585,1,0
464,144,136047,1,4
336,240,136970,6,8,B|304:304|208:336,1,160
128,336,138355,2,4,B|32:336,1,80
48,256,139278,1,0
48,96,140201,6,8,B|152:96,3,80
280,48,142508,1,8
280,128,142970,1,0
280,208,143431,2,0,B|320:208,1,40
400,208,144123,2,0,B|400:256,1,40
256,320,145277,2,0,B|224:344|176:360|120:344|88:312,1,160,0|4
112,248,146661,1,0
160,184,147123,1,4
256,192,147816,12,0,150124
384,256,151739,2,8,B|384:336,2,80,4|8|8
384,176,153124,1,0
304,176,153585,2,8,B|208:176,2,80
160,248,155432,5,4
240,248,155893,1,0
320,248,156355,2,8,B|416:248,1,80
472,280,157278,2,8,B|408:352,4,80,0|8|0|8|4
416,128,160047,5,4
264,72,160970,2,2,B|200:144,1,80
160,192,161893,1,4
264,312,162816,6,8,B|168:312,1,80
104,312,163739,1,0
24,312,164201,1,8
64,240,164662,6,8,B|64:176,3,53.3333333333333
64,104,166047,2,4,B|64:8,1,80,0|4
152,192,179431,6,0,B|168:112|256:24|352:112|368:192,1,320
448,224,182662,1,4
368,224,183124,2,8,B|336:288|240:320,1,160
240,160,184970,2,8,B|272:96|368:64,1,160
456,192,186816,5,8
376,192,187278,2,0,B|376:288,2,80,0|8|0
296,192,188662,1,8
160,112,189585,2,8,B|112:189|170:274,1,160
320,304,191432,5,2
320,224,191893,2,0,B|224:224,2,80,0|4|0
320,144,193278,1,2
256,192,194201,12,0,196970
56,232,197893,6,0,B|32:208|8:160|32:112|56:88,1,160
216,88,199739,2,0,B|240:112|264:160|240:208|216:232,1,160
264,296,201124,5,0
344,296,201585,2,0,B|424:296,2,80,4|0|8
184,296,203431,2,0,B|112:232,4,80,8|0|8|0|12
288,176,206201,5,4
168,72,207124,2,2,B|104:144,1,80
64,192,208047,1,4
184,320,208970,5,4
96,96,210816,1,4
416,96,212662,1,4
256,192,214047,12,0,217278
