osu file format v9

[General]
AudioFilename: Davichi - Sad Promise Remix.mp3
AudioLeadIn: 0
PreviewTime: 91503
Countdown: 0
SampleSet: Soft
StackLeniency: 0.7
Mode: 0
LetterboxInBreaks: 1

[Editor]
Bookmarks: 179431,179739,180047,180355,180662,180970,181278
DistanceSpacing: 1.4
BeatDivisor: 4
GridSize: 8

[Metadata]
Title:Sad Promise (Remix)
Artist:Davichi
Creator:lily_no_hana
Version:Shattered Promise
Source:
Tags:seulpeun tajim amaranth kang min kyung lee hae ri k-pop

[Difficulty]
HPDrainRate:7
CircleSize:4
OverallDifficulty:7
ApproachRate:7
SliderMultiplier:1.50000000596046
SliderTickRate:2

[Events]
//Background and Video events
0,0,"Davichi Sad Promise.jpg.jpg"
//Break Periods
2,107631,119455
2,166708,178531
//Storyboard Layer 0 (Background)
//Storyboard Layer 1 (Fail)
//Storyboard Layer 2 (Pass)
//Storyboard Layer 3 (Foreground)
//Storyboard Sound Samples
//Background Colour Transformations
3,100,255,163,70

[TimingPoints]
355,461.538461538462,4,2,0,80,1,0
355,-100,4,2,0,80,0,0
77888,-100,4,2,0,80,0,1
107426,-100,4,2,0,80,0,0
151734,-100,4,2,0,80,0,1
163503,-200,4,2,0,80,0,1
163965,-100,4,2,0,80,0,1
166503,-100,4,2,0,80,0,0
197893,-100,4,2,0,80,0,1
214508,-100,4,2,0,60,0,0
215431,-100,4,2,0,40,0,0
216355,-100,4,2,0,20,0,0
217278,-100,4,2,0,0,0,0

[Colours]
Combo1 : 255,255,255
Combo2 : 255,128,64
Combo3 : 116,38,16

[HitObjects]
64,32,15816,5,2
80,240,16278,1,2
128,152,16508,1,8
200,72,16739,1,0
288,136,16970,2,4,B|192:200|160:328,1,225.000000894069,2|4
376,336,18124,5,2
272,328,18355,1,8
168,320,18585,1,0
64,304,18816,2,0,B|160:240|192:112,1,225.000000894069,2|4
384,40,19970,6,0,B|352:72|288:40,1,75.000000298023,0|8
368,144,20431,1,0
312,232,20662,1,8
256,320,20893,1,0
200,232,21124,1,2
144,144,21355,1,0
224,80,21585,6,0,B|232:96|256:112|280:96|288:80,1,75.000000298023,2|0
368,144,22047,1,8
416,48,22278,2,0,B|408:32|384:16|360:32|352:48,1,75.000000298023,2|0
256,88,22739,1,2
48,96,23201,6,8,B|48:176,2,75.000000298023,2|0|2
48,96,23893,1,8
48,96,24124,2,2,B|32:88|16:64|32:40|56:32,1,75.000000298023
152,40,24585,6,0,B|208:40,2,37.5000001490115,2|0|8
152,144,25047,1,4
256,144,25278,1,0
360,144,25508,2,0,B|424:144,2,37.5000001490115,2|0|8
360,248,25970,1,4
464,248,26201,1,0
464,352,26431,2,0,B|501:352,2,37.5000001490115,2|0|8
360,352,26893,2,8,B|328:384|296:384|264:352|264:320|296:288,1,150.000000596046,4|2
184,280,27585,2,8,B|155:315|123:317|89:287|87:255|116:221,1,150.000000596046,8|2
104,128,28278,5,2
104,128,28393,1,0
104,128,28508,2,0,B|176:72,1,75.000000298023,2|2
256,24,28970,1,0
344,80,29201,1,2
344,80,29316,1,0
344,80,29431,2,0,B|416:136,1,75.000000298023,2|2
112,248,29893,5,4
256,352,30201,1,4
400,248,30508,1,4
256,112,30816,2,4,B|256:280,1,150.000000596046,4|8
344,72,31739,6,0,B|440:72,2,75.000000298023,4|2|4
216,240,32662,1,2
256,144,32893,2,0,B|256:80,2,37.5000001490115,0|0|2
160,192,33355,2,0,B|96:192,2,37.5000001490115,0|0|2
160,88,33816,5,0
160,192,34047,1,8
160,296,34278,1,0
368,296,34739,1,2
368,192,34970,1,8
368,88,35201,1,2
368,88,35431,2,0,B|336:56|304:56|272:88|272:120|304:152,1,150.000000596046,0|8
296,248,36124,1,2
48,288,37047,5,2
48,288,37162,1,0
48,288,37278,1,2
48,184,37508,1,0
152,184,37739,1,8
152,80,37970,1,2
152,288,38431,2,8,B|184:310|225:325|272:307|303:274,1,150.000000596046,10|0
376,224,39124,5,0
440,144,39355,1,0
376,64,39585,1,0
272,64,39816,1,0
168,64,40047,1,2
272,64,40278,1,0
376,64,40508,1,8
432,152,40739,5,2
432,152,40855,1,0
432,152,40970,1,2
328,152,41201,1,0
384,240,41431,1,8
280,240,41662,1,2
472,328,42124,2,0,B|471:287|439:287|423:319|407:351|367:351|367:311,2,150.000000596046,2|2|2
264,312,43508,1,4
120,40,44431,5,0
120,144,44662,1,2
120,248,44893,2,0,B|120:288|160:288|176:256|192:224|224:224|224:264,1,150.000000596046,0|2
16,264,45816,1,0
224,264,46278,1,4
256,56,47201,1,4
392,272,48355,5,2
336,184,48585,1,0
440,184,48816,1,8
392,272,49047,1,0
336,184,49278,1,2
440,184,49508,1,0
392,272,49739,2,0,B|352:337,1,75.000000298023,8|0
304,240,50201,2,0,B|248:216|248:144|304:120,3,150.000000596046,2|2|2|2
384,152,51816,6,0,B|384:104,2,37.5000001490115,0|0|2
280,152,52278,1,8
280,256,52508,2,0,B|280:344,2,75.000000298023,8|0|0
280,152,53201,1,0
280,48,53431,1,8
280,152,53662,1,0
280,256,53893,1,4
176,72,54355,2,2,B|159:29|110:0|64:50|55:89,2,150.000000596046,2|2|8
128,272,55739,5,2
184,184,55969,1,0
80,184,56200,1,8
128,272,56431,1,0
184,184,56662,1,2
80,184,56892,1,0
128,272,57123,2,0,B|88:337,1,75.000000298023,8|0
296,344,57816,2,0,B|448:344,1,150.000000596046,2|0
368,272,58508,2,0,B|400:240|400:240|368:208|368:208|400:176|400:176|368:144|368:144|400:112|400:112|400:112|400:112|400:112|400:112|384:88|384:88,1,225.000000894069,2|2
160,80,59662,6,0,B|128:80|128:80|160:144|160:144|112:144,1,150.000000596046
112,248,60355,1,0
168,336,60585,1,0
112,248,60816,1,4
216,248,61047,2,0,B|224:216|273:176|320:217|327:249,1,150.000000596046
456,56,61970,6,0,B|488:72|520:120|488:160|456:176,1,150.000000596046
352,192,62662,1,0
248,192,62893,1,0
248,192,63124,1,4
96,48,63585,1,8
304,48,64047,1,4
256,360,64739,6,0,B|256:264,1,75.000000298023,2|0
360,288,65201,1,0
360,288,65431,1,2
152,288,65893,1,4
416,120,66585,5,0
496,184,66816,1,2
496,80,67047,1,0
400,32,67278,1,0
296,32,67508,1,2
88,32,67970,1,2
192,32,68201,2,0,B|232:32|232:64|200:80|168:96|168:136|208:136,2,150.000000596046,0|2|0
112,104,69355,6,2,B|38:107|38:107|78:167|78:167|10:167|10:167|48:250|48:250,1,300.000001192092,2|2
88,344,70508,1,4
296,344,70970,2,0,B|312:320|360:304|416:320|432:344,2,150.000000596046,2|0|2
192,352,72124,2,0,B|168:312|168:312|216:296|264:256|232:184,1,150.000000596046,0|2
312,168,72816,2,0,B|256:120,1,75.000000298023,2|0
352,88,73278,2,0,B|352:47|392:47|408:79|424:111|456:111|456:71,1,150.000000596046,0|4
256,192,74431,12,4,76047
312,24,76355,5,4
448,32,76662,1,4
504,160,76970,1,4
432,240,77201,1,2
384,152,77431,1,8
312,72,77662,1,0
216,120,77893,2,4,B|312:184|344:312,1,225.000000894069,2|4
136,336,79047,5,2
240,328,79278,1,8
344,320,79508,1,0
448,304,79739,2,0,B|352:240|320:112,1,225.000000894069,2|4
296,24,80662,1,0
400,48,80893,6,0,B|432:80|496:48,1,75.000000298023,0|8
504,160,81354,1,0
448,248,81585,1,2
392,160,81816,1,0
336,248,82047,1,8
280,160,82278,1,0
72,168,82739,2,0,B|80:152|104:144|128:152|136:168,1,75.000000298023,2|8
144,272,83201,2,0,B|144:368,1,75.000000298023,2|0
248,344,83662,2,0,B|248:248,1,75.000000298023,2|8
192,176,84124,1,4
352,40,84585,5,2
456,40,84816,1,8
456,144,85047,1,4
160,344,85508,5,2
56,344,85739,1,8
56,240,85970,1,4
208,88,86431,5,2
312,88,86662,1,8
344,280,86893,2,0,B|344:226|264:176|184:232|184:280,1,225.000000894069,4|8
264,144,87816,1,4
256,192,88739,12,4,90816
304,208,91508,2,0,B|320:280|256:344|192:280|208:208,1,225.000000894069,2|8
24,320,92662,1,2
24,216,92893,2,0,B|49:193|87:180|105:221|127:250|148:254|166:244,1,150.000000596046,0|4
344,160,93816,1,2
344,56,94047,2,0,B|369:33|407:20|425:61|447:90|468:94|486:84,1,150.000000596046,8|0
472,192,94739,2,0,B|472:273|472:274,2,75.000000298023,2|0|4
264,232,95662,6,0,B|296:264|328:264,1,75.000000298023,0|8
400,184,96124,1,0
400,288,96355,1,2
312,352,96585,1,0
224,288,96816,1,8
224,288,97047,2,0,B|256:256|256:256|224:224|224:224|256:192|256:192|240:168|240:168|240:168|240:168|240:168|240:168|240:168|240:168|240:168|240:168,1,150.000000596046,2|2
40,160,97970,2,4,B|48:144|112:104|160:144|176:160,2,150.000000596046,2|2|2
248,160,99355,1,2
40,160,99816,1,4
176,344,100278,5,2
76,308,100508,1,8
176,272,100739,2,4,B|272:272,1,75.000000298023,4|0
344,232,101201,1,2
444,196,101431,1,8
344,160,101662,2,12,B|248:160,1,75.000000298023,4|0
168,120,102124,1,4
68,84,102355,1,8
168,48,102585,2,4,B|264:48,1,75.000000298023,4|0
400,48,103508,6,0,B|400:128,1,75.000000298023
304,176,103970,1,0
216,232,104201,1,0
128,288,104431,2,0,B|136:344|96:368|56:344|64:288,1,150.000000596046
472,288,105585,5,4
328,288,105893,1,4
184,288,106201,1,4
48,288,106508,2,0,B|48:192,3,75.000000298023,4|0|0|0
48,104,107431,1,4
352,64,120355,5,4
96,248,121047,2,0,B|96:160,1,75.000000298023,2|0
96,64,121508,2,0,B|160:64,4,37.5000001490115,0|0|0|0|2
200,64,122201,1,4
320,232,122662,2,0,B|312:256|256:288|200:256|192:232,1,150.000000596046,2|0
448,204,123816,5,8
352,168,124047,1,0
360,64,124278,1,8
448,128,124508,2,0,B|448:224,1,75.000000298023
360,264,124970,1,12
128,56,125662,5,8
40,112,125893,1,8
128,168,126124,1,8
40,232,126355,1,8
128,288,126585,2,0,B|216:288,1,75.000000298023
280,360,127047,2,8,B|280:264,1,75.000000298023
280,176,127508,1,8
176,192,127739,1,8
128,288,127970,1,8
160,80,128431,6,0,B|144:136|80:192|16:136|0:80,1,225.000000894069
80,8,129355,1,0
160,80,129585,1,4
240,152,129816,1,0
320,224,130047,2,0,B|397:165|480:235,1,150.000000596046,0|0
472,352,131201,6,0,B|460:313|430:303|397:325,1,75.000000298023
344,240,131662,1,0
272,320,131893,2,0,B|237:338|208:324|201:284,1,75.000000298023
136,224,132355,2,0,B|136:184|168:184|184:216|200:248|240:248|240:208,1,150.000000596046
408,88,133278,5,0
464,176,133508,1,0
408,264,133739,1,0
352,176,133970,1,0
296,264,134201,1,0
240,176,134431,1,0
152,112,134662,2,0,B|152:37,2,75.000000298023,0|0|4
152,256,135431,5,4
16,208,135739,1,4
32,72,136047,1,4
136,56,136278,2,0,B|232:56,2,75.000000298023,0|0|0
144,160,136970,5,4
248,160,137201,1,2
200,248,137431,1,0
144,160,137662,1,2
360,88,138124,6,0,B|456:88,2,75.000000298023
360,192,138816,1,4
464,192,139047,1,2
416,280,139278,1,0
360,192,139508,1,2
184,304,139970,6,0,B|144:344|96:304,2,75.000000298023,0|0|0
136,232,140662,1,4
48,296,140893,1,2
136,232,141124,1,0
48,176,141355,1,2
272,104,141816,6,0,B|294:125|314:100|313:83|349:99,1,75.000000298023,2|0
272,104,142278,2,0,B|250:125|230:100|231:83|195:99,1,75.000000298023,2|0
256,192,142739,1,2
152,192,142970,1,0
256,192,143201,1,2
392,32,143662,5,2
392,136,143893,1,8
496,136,144124,2,4,B|496:232,1,75.000000298023,4|0
496,212,144585,1,10
392,212,144816,1,8
288,212,145047,2,12,B|208:212,1,75.000000298023,4|0
212,212,145508,1,2
108,212,145739,1,8
4,212,145970,2,4,B|68:140,1,75.000000298023,4|0
156,136,146431,2,0,B|260:136,1,75.000000298023,2|8
232,32,146893,1,4
120,136,147816,5,0
120,248,148047,1,8
208,192,148278,2,0,B|304:192,1,75.000000298023
288,88,148739,1,0
288,296,149201,1,0
120,120,149662,2,0,B|75:190|124:280,1,150.000000596046
432,240,150816,5,0
376,328,151047,2,0,B|280:328,2,75.000000298023
368,224,151739,1,4
264,224,151970,1,2
312,136,152200,1,0
368,224,152431,1,2
152,296,152893,6,0,B|56:296,2,75.000000298023
152,192,153585,1,4
48,192,153816,1,2
96,104,154047,1,0
152,192,154277,1,2
304,48,154739,6,0,B|336:16|400:48,2,75.000000298023
320,152,155431,1,4
424,152,155662,1,2
376,248,155893,1,0
320,152,156124,2,0,B|288:200|224:200|192:152,1,150.000000596046,2|2
192,288,157047,2,0,B|224:240|288:240|320:288,2,150.000000596046,2|2|2
400,288,158431,2,0,B|448:256|448:192|400:160,1,150.000000596046,2|2
336,40,159355,5,2
436,76,159585,1,8
336,112,159816,2,4,B|240:112,1,75.000000298023,4|0
168,152,160278,1,2
68,188,160508,1,8
168,224,160739,2,12,B|264:224,1,75.000000298023,4|0
344,264,161201,1,2
444,300,161432,1,8
344,336,161662,2,4,B|248:336,1,75.000000298023,4|0
104,320,162585,5,0
104,216,162816,1,0
208,216,163047,1,0
208,112,163278,1,0
208,112,163508,2,0,B|208:66|208:66|253:66,1,75.000000298023
40,96,164662,5,4
184,96,164970,1,4
328,96,165278,1,4
464,96,165585,2,0,B|464:192,3,75.000000298023,4|0|0|0
464,280,166508,1,4
120,272,179431,5,4
256,48,179739,1,4
376,272,180047,1,4
120,112,180355,1,4
376,112,180662,1,4
256,336,180970,1,4
256,192,181278,1,4
256,32,181970,5,2
48,32,182431,2,0,B|48:128,1,75.000000298023,2|8
48,216,182894,1,0
152,216,183124,1,4
48,216,183355,1,0
152,216,183586,1,0
256,216,183816,1,0
176,336,184278,6,0,B|112:336,4,37.5000001490115
280,336,184970,2,0,B|376:336,1,75.000000298023,2|0
464,336,185431,2,0,B|464:304|464:304|496:272,1,75.000000298023,2|4
424,72,186124,6,0,B|424:168,2,75.000000298023,2|0|2
352,152,186816,1,0
248,152,187047,1,2
144,152,187278,1,0
40,152,187508,2,0,B|16:128|16:96|48:80,2,75.000000298023,2|0|4
248,152,188431,1,0
320,352,188893,1,0
256,264,189124,1,0
160,216,189355,1,0
16,168,189816,5,8
16,64,190046,1,8
120,80,190277,2,4,B|120:160,1,75.000000298023
224,168,190739,1,8
224,64,190969,1,8
328,80,191200,2,12,B|328:160,1,75.000000298023
432,168,191662,1,8
432,64,191893,1,8
432,64,192123,2,4,B|512:64,1,75.000000298023
508,64,192585,2,0,B|508:160,1,75.000000298023
512,248,193047,2,0,B|480:320|480:320|432:232,1,150.000000596046
256,192,193970,12,4,196739
40,304,197201,5,0
40,200,197431,2,0,B|24:192|16:168|24:144|40:136,1,75.000000298023
144,112,197893,2,0,B|160:106|183:117|194:140|189:157,1,75.000000298023,4|0
176,264,198355,2,0,B|173:281|154:297|128:298|115:285,1,75.000000298023
472,80,199047,5,0
472,184,199277,2,0,B|488:192|496:216|488:240|472:248,1,75.000000298023
368,272,199739,2,0,B|351:277|328:266|317:243|322:226,1,75.000000298023,4|0
336,120,200201,2,0,B|338:102|357:86|383:85|396:98,1,75.000000298023
32,144,200893,6,0,B|32:219,1,75.000000298023
32,220,201355,1,0
108,148,201585,1,0
188,216,201816,1,0
268,148,202047,1,0
352,212,202278,2,0,B|376:180|464:180|488:212,1,150.000000596046
256,24,203201,5,0
56,192,203662,1,4
256,352,204124,1,0
456,192,204585,1,4
184,32,205277,5,8
240,32,205393,1,0
288,32,205507,1,8
296,136,205739,2,0,B|296:184,2,37.5000001490115
440,288,206432,5,8
384,288,206547,1,0
328,288,206662,1,8
224,288,206893,2,0,B|224:336,2,37.5000001490115
160,200,207355,5,8
128,160,207470,1,0
96,120,207586,1,8
200,120,207816,2,0,B|200:82,2,37.5000001490115
256,192,208508,12,0,210355
112,32,210816,5,4
8,128,211124,1,0
112,224,211431,1,4
216,128,211739,1,4
392,160,212662,5,4
288,256,212970,1,0
392,352,213277,1,4
496,256,213585,1,4
256,192,214047,12,4,217278
