osu file format v9

[General]
AudioFilename: Davichi - Sad Promise Remix.mp3
AudioLeadIn: 0
PreviewTime: 91503
Countdown: 0
SampleSet: Soft
StackLeniency: 0.7
Mode: 0
LetterboxInBreaks: 1

[Editor]
Bookmarks: 179431
DistanceSpacing: 1.3
BeatDivisor: 2
GridSize: 8

[Metadata]
Title:Sad Promise (Remix)
Artist:Davichi
Creator:lily_no_hana
Version:Forsaken Promise
Source:
Tags:seulpeun tajim amaranth kang min kyung lee hae ri k-pop

[Difficulty]
HPDrainRate:4
CircleSize:4
OverallDifficulty:4
ApproachRate:5
SliderMultiplier:1
SliderTickRate:2

[Events]
//Background and Video events
0,0,"Davichi Sad Promise.jpg.jpg"
//Break Periods
2,107631,119155
2,166708,178231
//Storyboard Layer 0 (Background)
//Storyboard Layer 1 (Fail)
//Storyboard Layer 2 (Pass)
//Storyboard Layer 3 (Foreground)
//Storyboard Sound Samples
//Background Colour Transformations
3,100,255,163,70

[TimingPoints]
355,461.538461538462,4,2,0,100,1,0
77888,-100,4,2,0,80,0,1
107431,-100,4,2,0,80,0,0
151734,-100,4,2,0,80,0,1
166503,-100,4,2,0,80,0,0
197893,-100,4,2,0,80,0,1
214508,-100,4,2,0,60,0,0
215431,-100,4,2,0,40,0,0
216355,-100,4,2,0,20,0,0
217278,-100,4,2,0,0,0,0

[Colours]
Combo1 : 255,255,255
Combo2 : 255,128,64
Combo3 : 114,38,16

[HitObjects]
200,312,15816,6,0,B|88:312,1,100
80,248,16508,1,8
104,184,16739,1,0
152,136,16970,2,4,B|192:64|304:48,1,150
400,80,18124,5,0
424,144,18355,1,8
400,208,18585,1,0
360,264,18816,2,4,B|320:336|200:352,1,150
112,312,19970,5,0
72,256,20201,1,8
96,192,20431,1,0
136,136,20662,2,0,B|176:72|264:88,2,100,0|0|4
256,296,22278,6,0,B|264:344|312:360|360:344,1,100
336,216,23201,2,0,B|306:150|224:168,2,100
336,216,24355,1,4
392,96,24816,5,8
392,96,25278,2,0,B|427:98|457:85|469:54|465:3,2,100,0|8|0
264,96,26662,1,8
200,96,26893,2,4,B|200:72|160:48|120:48|80:72|80:96,1,150,4|4
144,208,28047,5,8
144,272,28278,1,0
144,336,28508,1,8
256,272,28970,2,0,B|336:272,2,50,8|0|8
256,192,29893,12,0,31739
64,64,33585,5,4
104,120,33816,1,0
144,176,34047,1,8
200,56,34508,1,0
240,112,34739,1,0
280,168,34970,1,8
392,232,35431,2,0,B|424:217|464:226|487:259|493:299,1,100,0|8
376,344,36355,1,4
248,344,36816,1,4
120,344,37278,6,8,C|0:344|0:344,4,100,0|8|0|8|0
216,264,39585,1,8
344,264,40047,1,0
448,184,40508,1,4
408,56,40970,5,0
280,48,41431,1,8
176,120,41893,1,0
176,120,42355,2,0,B|208:184|304:152|339:278,1,200,8|8
400,352,43739,1,4
152,280,44662,5,0
256,352,45124,1,8
360,280,45585,1,0
256,208,46047,1,8
256,208,46508,2,0,B|256:104,1,100,0|8
256,40,47201,1,4
472,96,48355,5,6
360,160,48816,1,8
472,224,49278,1,0
360,288,49739,1,8
264,200,50201,2,0,B|248:224|224:240|200:224|184:200,3,100,0|8|0|8
176,136,51816,5,0
240,136,52047,1,4
304,136,52278,1,0
368,136,52508,2,0,B|368:32,1,100,8|0
304,32,53201,5,0
240,56,53431,1,8
176,80,53662,2,0,B|120:48|79:112,1,100
144,136,54355,2,2,B|176:200|80:230,2,100
272,112,55739,6,8,B|272:64,1,50,8|0
336,64,56201,2,8,B|400:64,1,50,8|0
392,128,56662,1,8
400,192,56893,1,0
336,192,57124,2,8,B|320:224|320:224|368:240|368:240|320:320,1,150,8|8
224,360,58278,1,4
88,216,59431,5,8
88,216,59893,2,0,B|88:160|88:160|152:160,1,100,0|8
32,88,60816,1,0
96,88,61047,1,0
160,88,61278,1,4
384,224,62201,6,0,B|392:200|376:168|336:168|320:184,1,100,8|0
248,72,63124,1,8
120,72,63585,1,0
120,72,64047,1,4
256,208,64739,2,8,B|256:312,1,100
320,304,65431,1,0
320,304,65893,1,4
480,96,66816,6,0,B|472:72|448:48|416:48|384:64,3,100,8|0|8|0
272,64,68662,1,4
256,192,69124,5,0
184,232,69585,2,0,B|256:304|256:304|344:216|344:216,1,200,8|4
408,136,70970,2,8,B|440:176|440:176|496:104,1,100,0|8
256,288,72355,1,8
136,344,72816,1,0
64,232,73278,1,4
256,192,74201,12,4,76970
56,200,77431,5,8
64,328,77893,2,4,B|96:296|160:360|192:296,2,100,4|8|0
104,208,79278,1,8
192,112,79739,1,4
320,112,80201,1,8
408,208,80662,1,0
456,328,81124,6,0,B|424:296|360:360|328:298,3,100
256,328,82970,1,8
256,328,83431,1,4
256,200,83893,2,0,B|256:108,1,50,8|0
160,96,84585,6,2,B|226:96,2,50,2|0|0
352,96,85508,2,2,B|284:96,2,50,2|0|0
176,184,86662,6,0,B|152:159|112:167|96:199|104:231,1,100,2|0
184,312,87585,2,0,B|189:325|223:335|256:311|255:277,1,100,2|0
256,192,88970,12,0,91508
152,328,92201,5,0
24,328,92662,1,4
24,328,92893,1,0
24,200,93355,1,4
152,200,93816,5,8
152,200,94047,1,0
152,72,94508,1,4
152,72,94739,1,8
224,184,95201,2,8,B|256:216|288:216,1,50
264,280,95662,6,0,B|264:344,2,50
328,280,96355,2,0,B|384:280,2,50
328,216,97047,2,0,B|328:120,1,50,4|0
328,104,97508,1,8
256,208,97970,2,0,B|256:168|184:104|112:168|112:208,2,200,4|4|4
256,352,100970,5,4
256,192,101893,1,4
256,32,102816,1,4
64,64,103508,6,8,B|128:64|128:96,1,50
136,136,103970,2,8,B|200:136|208:184,1,50
216,208,104431,2,2,B|152:208|120:272,1,100,2|4
320,312,105585,6,8,B|400:312,2,66.6666666666667
256,256,106508,2,0,B|256:176,1,50
256,144,106970,1,0
256,80,107201,1,0
256,16,107431,1,4
192,224,120355,5,4
64,184,120816,1,0
64,184,121047,2,0,B|128:88|220:155,1,150
320,144,122201,1,4
376,256,122662,1,0
248,256,123124,1,0
144,328,123585,5,4
32,256,124047,1,0
88,216,124278,1,0
144,176,124508,1,8
32,104,124970,1,0
144,24,125431,1,8
240,104,125893,5,0
240,232,126355,1,8
368,232,126816,1,0
368,104,127278,1,8
368,232,127739,1,4
176,232,128431,2,0,B|158:270|126:302|70:294|46:278,1,150
104,160,129585,5,4
40,48,130047,2,0,B|64:24|96:16|136:32|160:64,1,100
304,128,131201,2,0,B|304:80|256:64|208:80|208:128,1,150
192,256,132355,1,4
256,192,133278,12,0,136047
64,48,136508,5,0
192,48,136970,2,8,B|259:48,2,50
128,48,137662,1,4
240,120,138124,6,8,B|171:120,2,50
304,120,138817,1,4
368,120,139047,1,8
416,168,139278,1,8
416,232,139509,1,4
288,264,139970,5,0
288,328,140200,2,8,B|224:360|192:328,1,55
176,336,140662,1,8
112,336,140892,1,8
112,272,141123,1,8
112,208,141355,2,0,B|112:176|80:160|48:176|48:208,2,100
232,264,142739,1,0
280,216,142969,1,0
328,168,143200,1,4
200,152,143662,6,0,B|200:102,2,50,0|0|4
72,152,144585,2,0,B|72:85,2,50,0|0|4
144,256,145508,6,0,B|208:256,1,50
256,256,145969,1,8
256,192,146200,1,8
320,192,146431,2,0,B|320:136,1,50
320,80,146892,1,8
384,80,147124,2,0,B|416:80|448:96|456:136|448:168,1,100,0|4
256,192,147816,12,0,150585
360,56,151278,5,0
488,56,151739,1,4
488,56,151970,1,0
488,184,152432,1,4
360,184,152893,5,8
360,184,153124,1,0
360,312,153585,1,4
360,312,153816,1,8
288,200,154278,2,8,B|256:168|224:168,1,50
248,104,154739,6,0,B|248:40,2,50
184,104,155432,2,0,B|128:104,2,50
184,168,156124,2,0,B|184:264,1,50,4|0
184,280,156585,1,0
256,176,157047,2,0,B|256:216|328:280|400:216|400:176,2,200,4|4|4
256,32,160047,5,4
256,192,160970,1,4
256,352,161893,1,4
448,320,162585,6,8,B|384:320|384:288,1,50
376,248,163047,2,8,B|312:248|304:200,1,50
296,176,163508,2,2,B|360:176|392:112,1,100,2|4
192,72,164662,6,8,B|112:72,2,66.6666666666667
256,128,165585,2,0,B|256:208,1,50
256,240,166047,1,0
256,304,166278,1,0
256,368,166508,1,4
256,192,179431,12,4,181278
312,72,181970,6,0,B|424:72,1,100
480,72,182662,1,8
480,136,182893,1,0
416,136,183124,2,4,B|376:208|264:224,1,150
168,224,184278,5,0
232,224,184509,1,8
232,160,184739,1,0
232,96,184970,2,4,B|160:54|49:102,1,150
88,216,186124,5,0
112,280,186355,1,8
168,320,186585,1,0
232,296,186816,6,0,B|272:360|360:344,2,100,0|0|4
360,296,188201,1,8
400,168,188662,1,8
400,168,189124,2,0,B|365:166|335:179|323:210|327:261,2,100,0|8|0
320,64,190508,5,4
64,128,191431,1,4
192,128,191893,2,0,B|216:128|248:136|256:176|248:200,1,100,0|4
144,264,192815,5,8
208,264,193046,2,4,B|208:288|248:312|288:312|328:288|328:264,1,150,4|4
256,192,194201,12,0,196970
448,336,197431,5,0
320,336,197893,2,8,B|253:336,2,50
384,336,198585,1,4
272,264,199047,6,8,B|341:264,2,50
208,264,199740,1,4
144,264,199970,1,8
96,216,200201,1,8
96,152,200432,1,4
224,120,200893,5,0
224,56,201123,2,8,B|288:24|320:56,1,55,8|0
336,48,201585,1,8
400,48,201815,1,0
400,112,202046,1,8
400,176,202278,2,0,B|368:176|352:208|368:240|400:240,1,100
200,248,203431,2,0,B|192:224|160:208|128:224|120:248,4,100,8|0|8|0|8
328,272,205739,1,0
456,312,206201,1,0
376,208,206662,2,0,B|384:184|416:168|448:184|456:208,1,100
448,72,207585,1,0
320,72,208047,1,0
256,192,208508,12,0,210355
288,104,210816,6,0,B|360:104,3,66.6666666666667
160,272,212662,6,0,B|232:272,3,66.6666666666667
256,192,214047,12,0,217278
