osu file format v6

[General]
AudioFilename: Hot-Head Bop.mp3
AudioLeadIn: 3000
PreviewTime: -1
Countdown: 1
SampleSet: Normal
StackLeniency: 0.7
Mode: 0
LetterboxInBreaks: 1

[Editor]
DistanceSpacing: 0.800000011920929
BeatDivisor: 6
GridSize: 32

[Metadata]
Title:Hot-Head Bop
Artist:Dave Wise
Creator:gameguy3424
Version:Easy
Source:
Tags:dkc2, dave wise, lava

[Difficulty]
HPDrainRate:6
CircleSize:6
OverallDifficulty:6
SliderMultiplier:1.4
SliderTickRate:1

[Events]
//Background and Video events
0,0,"Hot Head Bop.jpg"
Video,0,"Hot-Head Bop.wmv"
//Break Periods
//Storyboard Layer 0 (Background)
//Storyboard Layer 1 (Fail)
//Storyboard Layer 2 (Pass)
//Storyboard Layer 3 (Foreground)
//Storyboard Sound Samples
//Background Colour Transformations
3,100,0,0,0

[TimingPoints]
-155.580388186917,554.52865064695,4,1,0,100,1,0

[HitObjects]
96,96,768,1,0
237,188,1600,1,0
256,224,2801,1,0
416,128,3818,1,0
416,256,4927,1,0
224,288,6036,1,0
128,128,7145,1,0
256,128,8162,1,0
384,128,9456,1,0
352,192,10472,1,0
288,224,11581,1,0
224,224,12598,1,0
160,192,13707,1,0
96,160,15001,1,0
192,128,15925,1,0
256,128,16942,1,0
352,128,18143,1,0
288,128,18790,1,0
224,128,19345,1,0
160,128,19899,1,0
96,128,20454,1,0
96,160,21008,1,0
128,160,21471,1,0
160,160,22025,1,0
192,160,22672,1,0
224,160,23134,1,0
256,160,23689,1,0
288,160,24243,1,0
320,160,24798,1,0
352,160,25352,1,0
384,160,25907,1,0
416,160,26461,1,0
448,128,27108,1,0
416,96,27570,1,0
384,96,28125,1,0
352,96,28679,1,0
320,96,29142,1,0
288,96,29696,1,0
256,96,30251,1,0
224,96,30805,1,0
192,96,31360,1,0
160,96,31914,1,0
96,96,32469,1,0
64,96,33116,1,0
64,160,33485,1,0
96,160,34132,1,0
128,160,34687,1,0
160,160,35241,1,0
192,160,35888,1,0
224,160,36350,1,0
256,160,36905,1,0
288,160,37459,1,0
320,160,38014,1,0
352,160,38569,1,0
384,160,39031,1,0
384,192,39585,1,0
352,192,40140,1,0
320,192,40787,1,0
256,192,41896,5,0
224,192,42450,1,0
192,192,42912,1,0
160,192,43467,1,0
128,192,44021,1,0
192,160,44483,1,0
352,160,46332,1,0
256,256,49012,1,0
160,96,50583,1,0
256,96,51230,1,0
384,96,53356,1,0
192,96,55020,1,0
256,128,55574,1,0
416,96,57885,1,0
416,192,59456,1,0
352,128,60010,1,0
160,96,62136,1,0
160,128,63337,1,0
192,128,64447,1,0
320,128,65463,1,0
416,160,67681,1,0
320,224,68790,1,0
288,160,69807,1,0
224,192,70361,1,0
160,160,71008,1,0
256,160,72117,1,0
320,160,73134,1,0
384,192,74243,1,0
448,224,75352,1,0
384,256,76461,1,0
256,224,77570,1,0
128,160,78679,1,0
256,128,79788,1,0
288,160,80805,1,0
352,160,82007,1,0
384,128,83023,1,0
448,96,84132,1,0
352,96,84687,1,0
288,96,85334,1,0
224,96,85888,1,0
192,96,86535,1,0
128,96,86997,1,0
64,96,87552,1,0
64,128,88106,1,0
128,128,88569,1,0
160,128,90971,5,0
224,128,91896,1,0
256,128,92265,1,0
320,128,93097,1,0
160,224,95408,1,0
224,224,96239,1,0
256,224,96609,1,0
320,224,97441,1,0
224,256,99844,1,0
288,256,100676,1,0
320,256,101045,1,0
384,256,101785,1,0
128,128,104280,1,0
288,64,105112,1,0
352,128,105666,1,0
160,192,108439,1,0
288,160,109178,1,0
192,96,109733,1,0
288,96,110010,1,0
352,96,110565,1,0
256,224,111581,1,0
320,224,112783,1,0
416,128,113707,1,0
192,96,114909,1,0
320,96,115833,1,0
192,224,117219,1,0
320,224,118051,1,0
160,128,119437,1,0
288,128,120269,1,0
160,256,121655,1,0
256,192,122487,1,0
